#TITLE:Extratone in a Perfect World;
#SUBTITLE:;
#ARTIST:Annoying Ringtone;
#TITLETRANSLIT:;
#SUBTITLETRANSLIT:;
#ARTISTTRANSLIT:;
#CREDIT:Mad Matt;
#BANNER:../Tachyon Delta-bn.png;
#BACKGROUND:../Tachyon Delta-bg.png;
#LYRICSPATH:;
#CDTITLE:;
#MUSIC:Extratone in A Perfect World.ogg;
#OFFSET:-0.080;
#SAMPLESTART:23.920;
#SAMPLELENGTH:12.000;
#SELECTABLE:YES;
#BPMS:0.000=250.000;
#STOPS:;
#BGCHANGES:;
// cache tags:
#FIRSTBEAT:0.000;
#LASTBEAT:433.000;
#SONGFILENAME:Songs/Tachyon Delta/Extratone in a Perfect World - [Mad Matt]/Extratone in A Perfect World.sm;
#HASMUSIC:1;
#HASBANNER:1;
#MUSICLENGTH:104.280;
// end cache tags

//---------------dance-single - Mad Matt----------------
#NOTES:
     dance-single:
     Mad Matt:
     Challenge:
     19:
     1.000,1.000,0.307,1.000,1.000,1105.000,32.000,114.000,0.000,0.000:

1000
0100
0010
0001
1000
0100
1000
0001
0010
0001
1000
0100
0010
0001
1000
0001
,
1000
0010
0100
0001
1000
0010
1000
0001
0100
0001
1000
0010
0100
0001
1000
0001
,
1000
0100
0010
0001
1000
0100
1000
0001
0010
0100
1000
0001
0010
0001
1000
0010
,
1000
0001
0100
0010
1000
0001
0100
0001
1000
0010
0100
0001
1000
0001
1000
0001
,
1000
0100
0010
0100
1000
0001
0010
0100
0010
0001
1000
0100
0010
0001
1000
0001
,
1000
0010
0100
0010
1000
0001
0100
0010
0100
0001
1000
0010
0100
0001
1000
0001
,
1000
0100
0010
0001
1000
0100
1000
0001
0010
0100
1000
0001
0010
0001
1000
0010
,
1000
0001
0100
0001
1000
0010
0100
0001
1000
0010
0100
0010
0100
0001
1000
0001
,
1000
0100
0010
0001
1000
0001
1000
0100
0010
0001
1000
0001
1000
0100
0010
0001
,
1000
0010
0100
0001
1000
0001
1000
0010
0100
0001
1000
0001
1000
0010
0100
0001
,
1000
0100
0010
0001
0010
0001
1000
0100
0010
0001
0010
0001
1000
0100
0010
0001
,
1000
0010
0100
0001
0100
0001
1000
0010
0100
0001
0100
0001
1000
0010
0100
0001
,
1000
0010
1000
0010
0100
0001
0100
0001
1000
0010
1000
0010
0100
0001
0100
0010
,
1000
0001
1000
0001
0010
0100
0010
0100
1000
0001
1000
0001
0010
0100
0010
0001
,
1000
0100
1000
0100
0010
0001
0010
0001
1000
0010
1000
0010
0100
0001
0100
0001
,
1000
0000
0001
0000
1000
0000
0001
0000
1000
0001
1000
0001
1000
0010
0100
0001
,
1000
0010
1000
0001
0100
0001
1000
0100
1000
0001
0010
0001
1000
0100
0010
0001
,
2000
0000
3002
0000
2003
0000
3002
2003
,
3001
0100
0001
1000
0010
1000
0001
0010
0001
1000
0100
1000
0001
0010
0100
1000
,
0002
0000
2003
3002
2003
3000
0002
2003
,
3001
0010
0001
1000
0100
1000
0001
0010
0001
1000
0010
1000
0001
0100
0010
1000
,
0002
0000
2003
0000
3002
0000
2003
3002
,
1003
0100
1000
0001
0010
0001
1000
0010
1000
0001
0100
0001
1000
0010
0100
0001
,
2000
0000
3002
2003
3002
0000
2003
3002
,
2003
0000
3200
0000
0320
0034
0023
0034
,
1003
0100
0010
0001
1000
0100
1000
0001
0010
0001
1000
0010
1000
0001
0100
0001
,
2000
0000
3002
0000
0203
0340
0230
0340
,
2030
0000
3002
0000
0023
0430
0320
0430
,
2300
0000
3002
0000
0203
0340
0230
0340
,
1030
0001
1000
0001
1000
0001
1000
0001
,
0020
0230
0320
0230
,
1300
0000
0000
0000
0001
0000
0000
0000
0020
0030
0000
0000
0200
0000
0300
0000
2000
0000
0000
3000
0200
0000
0300
0000
0020
0030
0000
0000
0001
0000
0000
0000
,
1000
0001
1000
0010
,
1000
0100
1000
0001
,
0100
0001
1000
0001
,
0010
0001
0100
0001
,
1000
0010
1000
0001
,
1000
0100
1000
0010
,
0100
0001
0010
0001
,
1000
0001
0100
0001
,
1000
0000
1000
0000
1010
0000
0010
0100
,
0001
0001
1001
1000
,
0010
0010
0110
0100
,
0001
0001
1001
1000
,
0100
0000
0100
0000
0110
0000
0010
0100
,
1000
1000
1100
0100
,
0010
0000
0010
0000
0011
0000
0001
1000
,
0010
0000
1000
0000
0001
0000
0000
0000
1000
0100
1000
0100
1000
0000
0000
0000
,
0002
0003
2002
3003
,
0000
0000
0000
0000
,
4000
3000
2002
3003
,
0000
0000
0000
0000
,
0044
0033
2002
3003
,
0000
0000
0000
0000
,
4040
3030
0002
0003
,
0000
0000
0000
0000
,
1000
0100
1000
0001
,
1000
0010
1000
0100
,
1000
0001
0100
0001
,
0010
0000
0000
0000
0001
0000
0000
0000
1000
0010
0100
0001
1000
0010
0100
0001
,
1000
0000
0000
0000
0010
0000
0000
0000
1000
0001
0010
0100
1000
0001
0010
0001
,
1000
0100
1000
0001
0010
0100
1000
0100
0010
0001
0010
0100
1000
0001
1000
0001
,
0100
0010
1000
0001
1000
0001
0100
0010
1000
0001
1000
0001
0100
0010
1000
0001
,
0100
0010
1000
0010
1000
0001
0100
0010
1000
0010
1000
0001
0100
0010
1000
0001
,
1000
0100
0010
0001
0010
0100
1000
0100
0010
0001
0010
0100
1000
0001
0010
0100
,
0010
0001
0010
0100
1000
0001
1000
0001
0010
0100
1000
0001
1000
0001
0100
0010
,
1000
0010
0100
0001
1000
0010
0100
0001
0100
0010
1000
0001
0100
0001
1000
0010
,
1000
0001
0100
0010
1000
0010
0100
0001
1000
0001
1000
0010
0100
0001
1000
0001
,
1000
0100
0010
0001
1000
0001
1000
0100
0010
0001
1000
0001
1000
0100
0010
0001
,
1000
0010
0100
0001
1000
0001
1000
0010
0100
0001
1000
0001
1000
0010
0100
0001
,
1000
0100
0010
0001
0010
0001
1000
0100
0010
0001
0010
0001
1000
0100
0010
0001
,
1000
0010
0100
0001
0100
0001
1000
0010
0100
0001
0100
0001
1000
0010
0100
0001
,
1000
0100
0010
0001
1000
0001
1000
0100
0010
0001
1000
0001
1000
0100
0010
0001
,
1000
0010
0100
0001
1000
0001
1000
0010
0100
0001
1000
0001
1000
0010
0100
0001
,
1000
0100
0010
0001
0010
0001
1000
0100
0010
0001
0010
0001
1000
0100
0010
0001
,
1000
0000
0001
0000
1000
0000
0001
0000
1000
0001
1000
0001
1000
0100
0010
0001
,
1000
0100
1000
0001
0010
0001
1000
0010
1000
0001
0100
0001
1000
0010
0100
0001
,
2000
0000
3002
0000
2003
0000
3002
2003
,
3001
0010
0001
1000
0100
1000
0001
0100
0001
1000
0010
1000
0001
0100
0010
1000
,
0002
0000
2003
3002
2003
3000
0002
2003
,
3001
0100
0001
1000
0010
1000
0001
0100
0001
1000
0100
1000
0001
0010
0100
1000
,
0002
0000
2003
0000
3002
0000
2003
3002
,
1003
0010
1000
0001
0100
0001
1000
0100
1000
0001
0010
0001
1000
0100
0010
0001
,
2000
0000
3002
2003
3002
0000
2003
3002
,
2003
0000
3200
0000
0320
0034
0023
0034
,
2003
0000
3020
0000
0230
0304
0203
0304
,
2003
0000
3002
0000
0023
0430
0320
0430
,
2300
0000
3002
0000
0203
0340
0230
0340
,
2030
0000
3002
0000
2003
3400
2300
3400
,
0320
0000
0032
0000
2003
3040
2030
3040
,
0230
0000
0000
0000
0000
0000
0000
0000
0000
0000
0000
0000
0000
0000
0000
0000
0302
0000
0000
0000
0000
0000
0000
0000
0000
0000
0000
0000
0000
0000
0000
0000
1003
0000
0000
0000
0000
0000
0000
0000
0200
0300
0000
0000
0000
0000
0000
0000
0020
0000
0030
0000
0000
0000
0000
0000
0002
0000
0000
0003
0000
0000
0000
0000
,
2000
0000
0000
0000
3000
0000
0000
0000
0200
0000
0000
0000
0000
0300
0000
0000
0020
0000
0000
0000
0000
0000
0030
0000
0002
0000
0000
0000
0000
0000
0000
0003
0020
0000
0000
0000
0000
0030
0000
0000
0200
0000
0000
0300
0000
0000
0000
0000
2000
3000
0000
0000
0000
0000
0000
0000
0001
0000
0000
0000
0000
0000
0000
0000
,
1000
0010
0100
0001
0100
0010
1000
0001
0100
0001
1000
0010
1000
0001
0100
0010
,
1000
0001
1000
0001
0100
0010
1000
0001
1000
0001
0100
0010
1000
0001
1000
0001
,
0010
0100
1000
0001
0010
0001
1000
0100
1000
0001
0010
0100
1000
0100
0010
0001
,
1000
0001
1000
0100
0010
0001
1000
0001
1000
0100
0010
0001
1000
0001
1000
0010
,
0100
0001
1000
0010
1000
0001
0100
0001
1000
0010
0100
0001
0100
0010
1000
0001
,
1000
0010
0100
0001
0100
0001
1000
0010
0100
0001
0100
0001
1000
0010
0100
0001
,
1000
0100
0010
0001
1000
0100
1000
0001
0010
0001
1000
0100
0010
0001
1000
0000
,
0001
0000
1000
0000
0001
0000
1000
0000
0001
0100
0010
1000
0001
0100
0010
1000
,
0001
0010
0001
1000
0100
0010
0001
1000
0100
1000
0001
0010
0001
1000
0100
0010
,
0001
1000
0001
1000
0100
0010
0001
1000
0001
1000
0100
0010
0001
1000
0001
1000
,
0010
0100
0001
1000
0010
1000
0001
0100
0001
1000
0010
0100
0001
0100
0010
1000
,
0001
1000
0001
0100
0010
1000
0001
1000
0001
0100
0010
1000
0001
1000
0001
0010
,
0100
1000
0001
0010
0001
1000
0100
1000
0001
0010
0100
1000
0100
0010
0001
1000
,
0001
0010
0100
1000
0100
1000
0001
0010
0100
1000
0100
1000
0001
0010
0100
1000
,
0001
0100
0010
1000
0001
0100
0001
1000
0010
1000
0001
0100
0010
1000
0001
0000
,
1000
0000
0001
0000
1000
0000
0001
0000
1000
0100
0010
0001
1000
0100
0010
0001
,
2000
3000
0000
0000
;
