#TITLE:AFROMAX 240;
#SUBTITLE:(pfx13AE);
#ARTIST:Omega and RevenG;
#TITLETRANSLIT:;
#SUBTITLETRANSLIT:;
#ARTISTTRANSLIT:;
#CREDIT:;
#BANNER:AFROMAX 240.jpg;
#BACKGROUND:;
#LYRICSPATH:;
#CDTITLE:fishyicon.png;
#MUSIC:AFROMAX 240.MP3;
#OFFSET:0.000;
#SAMPLESTART:25.000;
#SAMPLELENGTH:12.000;
#SELECTABLE:YES;
#BPMS:0.000=240.000,188.000=120.000,205.000=480.000,261.000=240.000;
#STOPS:;
#BGCHANGES:;
// cache tags:
#FIRSTBEAT:0.000;
#LASTBEAT:302.000;
#SONGFILENAME:Songs/dragon force/AFROMAX 240/AFROMAX 240.sm;
#HASMUSIC:1;
#HASBANNER:0;
#MUSICLENGTH:75.864;
// end cache tags

//---------------dance-single - Hard----------------
#NOTES:
     dance-single:
     Hard:
     Hard:
     10:
     1.000,1.000,1.000,0.053,0.323,473.000,85.000,4.000,0.000,0.000:
1000
0000
0100
0000
0010
0001
0000
0000
,
0001
0000
0010
0000
0100
1000
0100
0000
,
0010
0000
0001
0000
1000
0100
1000
0000
,
0001
1100
1100
0000
,
0001
0010
0100
1000
0001
0010
0100
1000
,
0001
1000
0100
0010
0001
1000
0001
0010
,
0100
1000
0001
1000
0001
1000
0001
1000
,
0001
1010
1100
0101
,
0011
0000
1000
0100
1000
0100
0000
0010
,
0001
0000
0001
0010
0001
0010
0000
1000
,
0100
0000
0010
0001
0010
0100
0000
1000
,
0001
1001
1001
0000
,
1000
0010
1000
1000
1000
1000
0010
0000
,
0001
0010
0001
0001
0001
0001
0010
0000
,
1000
0001
1000
0000
0001
1000
0001
0000
,
1000
0100
0010
0001
1000
0100
0010
0001
1000
0100
0010
0001
1000
0100
0010
0001
,
1000
0100
1000
0100
1000
0100
1000
0010
,
1000
0010
1000
0001
0100
0001
0100
0001
,
0100
0010
1000
0010
1000
0010
1000
0000
,
0001
1000
0001
1000
0001
1000
0001
0000
,
1000
0100
1000
0000
0001
0100
0001
0000
,
0010
0100
0010
0100
0010
0100
0010
0100
,
0010
1000
0001
1000
0001
1000
0001
0000
,
1000
0001
1000
0001
1000
0010
1000
0001
,
1001
1100
0000
0110
1001
0110
1001
0110
,
1001
0101
1100
0000
0110
0000
0000
0000
,
0011
1001
0000
0110
1001
0110
1001
0110
,
1001
1010
0011
0000
1001
0000
0000
0000
,
1001
0110
0000
0011
1100
0011
1100
0011
,
1100
0011
1001
0000
1001
0000
0000
0000
,
0110
1001
0000
1100
0011
1100
0011
1100
,
0011
1100
0110
0000
0110
0000
0000
0000
,
1000
0001
1000
0000
0001
1000
0001
0000
,
1000
0000
0001
0000
1000
0000
0001
0010
0001
0000
0001
0000
0001
0000
0000
0000
,
1001
1001
1001
0000
0110
0110
0110
0000
,
0001
0000
1000
0000
0001
0000
1000
0010
1000
0000
1000
0000
1000
0000
0000
0000
,
0001
0100
0001
0010
0001
1000
0100
1000
,
0010
0000
1000
0000
0100
0000
1000
0100
1000
0000
0100
0000
1000
0000
0001
0000
,
1000
0001
1000
0001
1000
0011
1100
0011
,
1100
0011
1100
0000
1001
1001
1001
0000
,
1000
1000
1000
1000
,
0001
0001
0001
0001
,
0010
0000
0010
0000
0010
1000
0000
0001
,
0100
0000
0010
0100
0000
0001
1000
0000
,
1100
0011
0101
1010
,
1000
1000
0001
0001
0100
0100
0010
0010
,
1000
0001
1000
0001
1000
0001
1000
0001
,
2000
0000
3000
0000
0001
1000
0001
1000
0010
0100
0001
1000
0010
0100
0001
0010
,
0100
1000
0001
0010
0100
1000
1000
0010
0100
0001
1000
0010
0100
0001
0001
0010
,
0100
1000
0001
0010
0100
1000
1000
0010
0100
0001
1000
0010
0100
0001
0001
0010
,
0100
1000
0001
0010
0100
1000
0100
0010
0001
1000
0100
0010
0001
0010
0100
1000
,
0100
0010
0001
0001
0001
0000
0000
0000
1000
0000
0000
0000
0001
0000
0000
0000
,
1000
0001
1000
0100
,
0010
0001
0100
0010
,
1000
0100
0010
0001
,
0100
0010
1000
0100
,
0010
0001
0010
0100
,
1000
0100
0010
0001
,
0010
0100
1000
0100
,
0010
0001
0001
0010
,
0100
1000
1000
0100
,
0010
0001
0001
0010
,
0100
1000
1000
0001
,
0100
0010
1000
0001
,
1000
0001
1000
0001
,
1000
0002
0000
0003
,
0000
0100
0000
0000
0010
0000
0000
0000
0000
0000
0000
0000
0000
0000
0000
0000
0000
0000
0000
0000
0000
0000
0000
0000
0100
0000
0010
0000
0001
0000
0010
0000
,
0200
0000
0000
0000
0010
0001
0310
0000
,
1001
0000
1000
0100
1000
0100
0010
0001
,
1000
0000
0001
1000
0001
0000
0010
0010
,
1000
1000
0001
0001
0100
0100
0010
0010
,
1000
2000
0001
0000
0001
0000
3001
0000
,
0110
1001
0110
1010
,
0011
0000
0000
0000
1001
0000
0000
0000
0000
0000
0000
0000
1001
0000
0000
1010
,
0000
0000
1100
0000
0000
0101
0000
0000
0011
0000
0000
0110
0000
0000
1001
0000
;

//---------------dance-single - Medium----------------
#NOTES:
     dance-single:
     Medium:
     Medium:
     7:
     0.900,1.000,1.000,0.119,0.231,373.000,96.000,9.000,0.000,0.000:
1000
0000
0001
0000
1000
1000
0000
0000
,
0001
0000
1000
0000
0001
0001
0000
0000
,
1000
0000
0001
0000
0100
0100
0000
0000
,
0100
0000
1100
0000
0101
0000
1000
0100
,
1000
0100
0010
0001
0010
0001
1000
0100
,
1000
0100
0010
0001
0010
0001
1000
0010
,
1000
0010
0100
0001
0100
0001
0000
0000
,
1001
1001
1010
0011
,
1001
0000
1100
0000
0011
0000
0110
0110
,
0110
0000
1001
0000
1100
0000
0011
0011
,
0011
0000
1100
0000
0101
0000
0011
0011
,
0011
0101
1001
0000
,
1000
0000
0001
0000
1000
0000
0010
0010
,
0010
0000
0001
0000
1000
0000
0001
0001
,
0001
0000
1000
0000
0001
0000
0100
0100
,
0100
0100
0100
0100
0010
0010
0010
0010
,
0010
0110
0001
1100
,
0010
0110
0001
0110
,
1000
0101
0010
1100
,
0101
0000
1001
0000
0110
0000
1000
1000
,
1100
0000
0010
0010
0011
0000
0100
0100
,
0110
0000
1000
1000
1001
0000
0010
0010
,
1010
0000
0001
0001
0101
0000
0000
0000
,
1010
1100
0101
0011
,
1000
0001
1000
0001
1000
0001
1000
0001
,
1001
0110
1001
0000
,
0010
0100
0010
0100
0010
0100
0010
0100
,
0110
1001
0110
0000
,
1000
0100
1000
0100
1000
0100
1000
0100
,
1100
0011
1100
0000
,
0001
0100
0001
0100
0001
0100
0001
0100
,
0101
1010
0101
0000
,
1000
0010
1000
0000
0001
0010
0001
0000
,
1000
0001
1000
0001
0100
0010
0100
0000
,
0001
0100
0001
0000
1000
0100
1000
0000
,
0010
0100
0010
0100
0001
1000
0001
0000
,
1000
0010
0100
0000
0001
0010
0100
0000
,
1000
0010
0100
0001
0010
0100
1000
0000
,
0010
0001
0100
0000
0010
1000
0100
0000
,
0010
0001
0100
0010
1000
0100
0010
0001
,
0110
1001
1001
1010
,
0011
0110
0110
1100
,
0101
0000
1001
0000
1000
0001
0000
0001
,
1000
0000
1000
0001
0000
0001
1000
0000
,
1000
0001
1000
0000
1001
0000
0010
0100
,
0010
0000
1001
0000
0010
0001
0100
0000
,
1001
0000
0010
1000
0100
0000
1001
0000
,
1000
0100
1000
0100
1000
0100
1000
0100
0001
0010
0001
0010
0001
0010
0001
0010
,
0001
1000
0001
1000
0001
1000
0001
1000
0010
1000
0010
1000
0010
1000
0010
1000
,
0010
0100
0010
0100
0010
0100
0010
0100
0001
0100
0001
0100
0001
0100
0001
0100
,
0001
1000
0001
1000
0001
1000
0001
1000
0100
1000
0100
1000
0100
1000
0100
1000
,
1001
1001
1001
0000
0000
0000
1001
0000
,
0000
0010
0100
0000
,
0010
1001
0000
0110
,
0000
0010
0100
0000
,
1000
0101
0000
1100
,
0000
1000
0001
0000
,
1001
0000
0110
0000
,
1001
0000
0110
2000
,
0000
0000
0000
0002
,
3000
0000
0000
0200
,
0003
0000
0000
0020
,
0300
0000
0000
2000
,
0030
0002
0000
0000
,
0000
0000
0000
0000
,
3003
1001
0000
0000
,
0110
0000
0000
0000
0000
0000
0000
1000
,
0001
1000
0110
0000
1001
0000
1100
0000
,
0101
1010
0011
1001
,
1001
0000
0000
0000
1000
0001
1000
0000
,
0001
1000
0001
0000
1100
0000
0101
0000
,
0110
2002
0000
0000
,
0000
0000
0000
0000
,
3003
0000
0000
0000
1001
0000
0000
0000
0000
0000
0000
0000
1000
0000
0000
0100
,
0000
0000
0010
0000
0000
0001
0000
0000
0010
0000
0000
0100
0000
0000
2000
0000
,
0000
0000
3000
0000
;
