#TITLE:Battle Theme;
#SUBTITLE:Steps by Tel'Morier;
#ARTIST:Unknown artist;
#TITLETRANSLIT:;
#SUBTITLETRANSLIT:;
#ARTISTTRANSLIT:;
#CREDIT:;
#BANNER:logo.png;
#BACKGROUND:melmond.png;
#LYRICSPATH:;
#CDTITLE:;
#MUSIC:05 - Battle Scene 1.mp3;
#OFFSET:-1.100;
#SAMPLESTART:40.835;
#SAMPLELENGTH:12.000;
#SELECTABLE:YES;
#BPMS:0.000=151.000;
#STOPS:;
#BGCHANGES:;
// cache tags:
#FIRSTBEAT:0.000;
#LASTBEAT:232.000;
#SONGFILENAME:Songs/finall/Battle/battle.sm;
#HASMUSIC:1;
#HASBANNER:1;
#MUSICLENGTH:97.933;
// end cache tags

//---------------dance-single - ----------------
#NOTES:
     dance-single:
     :
     Challenge:
     12:
     1.000,1.000,1.000,1.000,1.000,615.000,141.000,100.000,0.000,13.000:
1100
0010
0011
0100
0110
0010
1001
0010
,
1100
0000
0001
0000
0101
0000
1000
0000
0011
0000
0000
0000
1000
0100
0010
0001
,
0100
0010
0001
0010
0001
0010
0100
1000
0100
0010
0100
0010
0100
1000
0100
1000
,
0100
0001
0010
0010
1000
0100
0001
0100
0010
1000
0010
0100
0020
1000
0001
0000
,
0100
1000
0100
0001
1000
0100
0001
0100
,
0031
1000
0100
0010
0001
0010
0100
1000
0100
0001
0010
0001
0010
1000
0001
0100
,
0001
0010
0001
1000
0100
0010
0001
0010
0100
0001
0010
0001
1000
0010
0010
0001
,
0100
1000
0010
0001
0010
0100
1000
0010
0010
0100
0100
0001
0001
1000
1000
1000
,
0100
0010
0001
0010
0001
0010
0001
0100
1000
0001
0010
0001
0010
0001
1000
0001
,
0100
0010
0010
0001
1000
0010
0001
0100
1000
0100
0001
0010
1000
0001
0100
0010
,
1000
0100
0010
0100
0001
1000
0100
0010
0100
0001
0100
0001
0010
0100
1000
0001
,
0010
0000
0000
0100
0000
0000
0010
0000
0000
0100
0000
0000
1000
0000
0000
0001
0000
0000
0100
0000
0000
0010
0000
0000
1000
0000
0000
0001
0000
0000
0010
0000
0001
0000
0010
0000
0100
0000
1000
0000
0100
0000
0010
0000
0001
0000
0010
0000
,
0100
0000
1000
0000
0000
0000
0100
0000
0000
0001
0000
0000
0010
0000
0000
0100
0000
0000
0001
0000
0000
0010
0000
0000
1000
0000
0000
0010
0000
0000
0100
0000
0000
1000
0000
0000
0001
0000
0000
0100
0000
0000
0010
0000
0000
1000
0000
0000
,
0001
0010
0100
1000
0001
0010
0001
0010
1000
0100
0010
0100
0001
1000
0010
0001
,
0100
0101
1100
0110
1001
0101
1100
0110
,
1100
0011
1100
0011
1100
0110
1100
0011
,
1001
2000
0000
0000
3000
0010
0002
0000
,
0003
1000
0200
0000
0300
0010
0200
0000
,
0311
0110
1010
0110
0011
1100
0110
1100
,
0011
1001
0110
1100
1001
0110
0011
1100
,
0011
0210
0000
0000
0300
1000
0002
0000
,
0003
1000
0200
0000
0300
0010
2000
0000
,
3000
0100
0010
1100
0110
0011
1100
0110
,
1001
0011
1100
0110
0011
1100
0011
0110
,
1001
0110
0200
0300
0020
0030
0200
0300
,
0002
0003
2000
3000
0020
0030
0002
0003
,
2000
0000
0000
3000
1000
0000
0100
0000
0010
0000
0001
0000
0001
0000
0010
0000
2200
0000
3300
0000
1000
0000
0001
0000
,
0010
0000
0000
0000
0100
0000
0000
0000
2000
0000
0000
0000
0000
0000
0000
0000
3000
0000
0000
0000
0200
0000
0000
0000
0300
0000
0000
0000
0010
0000
0000
0000
0001
0000
0000
0000
0100
0000
0000
0010
0000
0000
0001
0000
0000
0100
0000
0000
,
0010
0001
0010
0010
0001
0100
1000
0010
0100
0010
1000
0001
0010
0100
1001
0010
,
0001
0010
0001
0100
0010
0100
0001
0010
0100
0010
0100
0001
0010
1000
0100
1000
,
0100
0010
0100
0001
1000
0010
0100
1000
1000
0100
0010
0001
0010
0001
0010
0100
,
0010
0100
1000
0001
0010
0001
1000
0001
0010
0100
0001
0010
1000
0100
1000
0010
,
0001
0100
0001
0100
0010
0001
0100
0010
0001
0010
0001
0100
0001
1000
0010
1000
,
0010
0001
0100
0010
1000
0010
0100
0001
0100
0001
1000
0010
0010
0100
1000
0001
,
0010
1100
0011
1100
,
0011
0000
0000
0000
0000
0000
0011
0000
0000
0011
1000
0000
0100
0000
0010
0000
0001
0000
0010
0000
0100
0000
1000
0000
,
0100
0010
0001
1100
0000
0000
0011
0000
0000
1100
0000
0000
,
0011
0000
0000
0000
0000
0000
1100
0000
0000
1100
1000
0000
0100
0000
0010
0000
0001
0000
0010
0000
0100
0000
1000
0000
,
0100
0000
0010
0000
0001
0000
1100
0000
0000
0110
0000
0000
1001
0000
0000
0011
0000
0000
1100
0000
0000
0110
0000
0000
,
0011
1100
0110
0011
1100
0110
0011
1001
,
1100
0110
2000
0000
3000
1000
0020
0000
,
0030
0001
2000
0000
3000
0001
0020
0000
,
0030
1000
0000
0110
0011
0011
1010
0101
,
1001
0110
1001
0011
1100
0110
0011
0110
,
1100
1010
0101
2000
0000
3000
0110
0002
,
0000
0003
0011
2000
0000
3000
1010
0200
,
0000
0300
0010
1010
0101
0110
0011
1001
,
0110
1001
0011
0011
1001
0110
1100
0011
,
0110
1001
0101
0220
2332
3113
0022
2233
,
3322
1133
2020
3232
1313
2002
3223
1331
,
0022
0000
1133
0000
1100
0000
1111
1000
0010
0001
0100
0010
1000
0010
0001
0010
,
1000
0010
0100
0001
1000
0010
0100
0001
1000
0010
0100
0010
0001
1000
0010
0100
,
0001
0010
0001
0100
0010
1000
0010
1000
0001
0100
0010
1000
0001
0010
0001
1000
,
0010
1000
0001
0010
1000
0100
0010
0001
0010
0100
0001
0010
1000
0100
0001
0010
,
0100
0001
1000
0002
0023
0230
0320
0032
2003
3020
0230
0320
0032
0023
2030
3020
,
0230
0302
0203
0302
0203
0320
0032
2003
3020
0032
2003
3200
2300
3200
2300
3002
,
0023
2030
3020
0032
0203
0320
0032
0023
0230
0302
0023
0032
2003
3200
0302
0023
,
0230
0320
2032
3003
0110
2002
0000
0000
0000
0000
0000
0000
0000
0000
0000
0000
,
3003
0000
0000
0000
;
