#TITLE:Still All Scared of Ouija Boards;
#SUBTITLE:;
#ARTIST:goreshit;
#TITLETRANSLIT:;
#SUBTITLETRANSLIT:;
#ARTISTTRANSLIT:;
#CREDIT:;
#BANNER:../Jawn - ban.png;
#BACKGROUND:../Jawn - bg.png;
#LYRICSPATH:;
#CDTITLE:;
#MUSIC:Still All Scared of Ouija Boards.ogg;
#OFFSET:0.009;
#SAMPLESTART:37.207;
#SAMPLELENGTH:18.900;
#SELECTABLE:YES;
#BPMS:0.000=217.000;
#STOPS:;
#BGCHANGES:;
// cache tags:
#FIRSTBEAT:32.000;
#LASTBEAT:545.000;
#SONGFILENAME:Songs/Jimmy Jawns/Still All Scared of Ouija Boards - [Aoreo]/Still All Scared of Ouija Boards.sm;
#HASMUSIC:1;
#HASBANNER:1;
#MUSICLENGTH:152.520;
// end cache tags

//---------------dance-single - J. Nero (warmup)----------------
#NOTES:
     dance-single:
     J. Nero (warmup):
     Challenge:
     16:
     1.000,1.000,0.079,0.052,1.000,1464.000,12.000,8.000,0.000,0.000:

0000
0000
0000
0000
,
0000
0000
0000
0000
,
0000
0000
0000
0000
,
0000
0000
0000
0000
,
0000
0000
0000
0000
,
0000
0000
0000
0000
,
0000
0000
0000
0000
,
0000
0000
0000
0000
,
1000
0100
1000
0001
0100
0100
0001
0010
,
0100
0010
0001
1000
0010
0100
0001
0001
,
1000
0100
0010
0100
1000
0010
0100
0001
,
1000
0000
1000
0000
0010
0000
0100
0000
0001
1000
0001
0000
0010
0000
0100
0000
,
1000
0001
0100
0001
0010
0010
0100
1000
,
0001
0001
1000
0100
1000
0010
0100
0100
,
0001
1000
0001
0100
0010
0100
0001
0010
,
0100
0000
0100
0000
1000
0000
0001
0000
0100
0001
1000
0001
0010
0100
1000
0001
,
0100
0001
0010
0100
1000
0010
0100
0010
,
1000
0100
0010
0001
0100
0001
0010
0100
,
1000
0010
1000
0001
0010
0100
1000
0001
0100
0010
0100
0001
1000
0001
0100
0010
,
1000
0100
0010
0001
0100
0001
1000
0010
0100
0010
1000
0100
0010
0001
0100
0001
,
1000
0000
0001
0100
0001
0000
1000
0000
0000
0000
0001
0010
0100
0000
1000
0000
,
0001
0000
0100
0000
0010
0000
0100
0000
0000
0000
0002
0000
0000
0000
1003
0100
,
1000
0000
0001
0100
0001
1000
0100
0010
0001
1000
0001
0000
1000
0000
0010
0000
,
0100
0000
0000
0001
0010
0000
0100
1000
,
0001
0000
1000
0010
0100
0000
0001
0010
0100
0000
1000
0010
0100
0000
0001
1000
,
0100
0000
0010
0001
0100
0000
0010
0000
1000
0000
0001
0010
0100
0000
1000
0001
,
1000
0001
0100
0010
0100
0001
1000
0100
,
2000
0100
3001
2000
0100
3001
2000
0100
,
3001
0000
1000
0100
1000
0000
0001
0000
0000
0000
1000
0100
0010
0000
0001
0000
,
1000
0000
0010
0000
0100
0000
0001
0000
0000
0000
2000
0000
0000
0000
3001
0100
,
0001
0000
0010
0000
0100
1000
0001
1000
0010
0100
0001
0000
1000
0000
0100
0000
,
0010
0000
0000
0001
0100
0000
0010
1000
,
0001
0000
1000
0010
0100
0000
0001
0010
0100
0000
1000
0010
0100
0000
0001
1000
,
0010
0000
1000
0100
0010
0000
0001
0100
0010
1000
0001
0100
0001
0000
1000
0000
,
0100
0000
0010
0000
0001
0000
1000
0000
0010
0000
1000
0001
1000
0100
0010
0001
,
1000
0010
1000
0010
0100
0000
0001
0000
1000
0001
1000
0100
0010
0001
1000
0001
,
0100
0010
0100
0001
1000
0001
0100
0010
0100
0001
1000
0010
1000
0001
0100
0001
,
1000
0100
0010
0001
1000
0100
1000
0001
0010
0100
0010
0001
1000
0001
0100
0010
,
0100
0001
1000
0001
0100
0010
0100
0001
1000
0001
0010
0100
1000
0001
1000
0010
,
0100
0010
1000
0001
1000
0100
0010
0001
1000
0100
1000
0001
0100
0001
1000
0010
,
0100
0010
1000
0001
0100
0001
1000
0010
0100
0010
1000
0001
1000
0100
0010
0001
,
1000
0100
1000
0001
0100
0010
0100
0001
1000
0001
0010
0100
1000
0001
0100
0010
,
1000
0000
0001
0100
0040
0000
1030
0000
0001
0000
0010
0100
4000
0000
3001
0000
,
1000
0000
0001
0100
0001
1000
0100
0010
0001
1000
0010
1000
0100
0010
0001
0100
,
0001
1000
0010
0100
0010
1000
0001
1000
0010
0100
0010
1000
0001
0100
0001
1000
,
0100
1000
0001
0010
0100
1000
0001
0010
0001
1000
0010
0100
0010
1000
0001
1000
,
0010
0100
0010
1000
0001
0100
0001
1000
0100
0010
0001
1000
0100
1000
0001
0100
,
0010
0100
0001
1000
0001
0010
0100
1000
0001
0100
0001
1000
0010
0100
0010
1000
,
0001
1000
0010
0100
0001
0100
0010
1000
0001
1000
0100
0010
0001
1000
0100
1000
,
0001
0010
0100
0010
0001
1000
0010
0100
0010
1000
0001
0100
0001
1000
0010
1000
,
0100
0000
0000
0010
0011
0000
0000
0001
,
1001
0000
1000
0000
0010
0000
0100
0000
0001
0000
1000
0100
0010
0001
0100
0010
,
1000
0000
0001
0100
0001
0000
1000
0000
0000
0000
0001
0010
0100
0000
1000
0000
,
0001
0000
0100
0000
0010
0000
0100
0000
0000
0000
0002
0000
0000
0000
1003
0100
,
1000
0000
0001
0100
0001
1000
0100
0010
0001
1000
0001
0000
1000
0000
0010
0000
,
0100
0000
0000
0001
0010
0000
0100
1000
,
0001
0000
1000
0010
0100
0000
0001
0010
0100
0000
1000
0010
0100
0000
0001
1000
,
0100
0000
0010
0001
0100
0000
0010
0000
1000
0001
1000
0100
0010
0000
0001
1000
,
0001
0000
1000
0000
0010
0000
0100
0000
0010
0000
1000
0001
0010
0100
1000
0001
,
0100
0000
0001
0000
0000
0000
1000
0000
0001
0100
0001
0010
0001
1000
0100
1000
,
0010
0000
0000
0000
1000
0100
0010
0001
0100
0000
0000
0000
0001
0010
0100
1000
,
0010
0000
0000
0000
1000
0100
1000
0010
0100
0000
0000
0000
0001
0010
0001
0100
,
0010
1000
0100
0010
0100
1000
0010
0100
,
0001
0010
0100
1000
0010
0100
0001
0010
,
0100
1000
0001
0100
0001
1000
0010
0100
0010
1000
0001
1000
0100
0010
0001
1000
,
0001
0100
0010
1000
0010
0100
0001
1000
0100
0010
0100
1000
0001
1000
0010
0100
,
0001
1000
0001
0010
0100
1000
0001
1000
0010
0100
0010
1000
0001
0100
0001
1000
,
0010
0100
0010
1000
0100
0010
0001
0100
0010
1000
0100
0010
0001
0100
0001
0010
,
0200
0000
0000
0000
,
1300
0010
1000
0100
0010
0010
0001
1000
,
0010
0100
0010
1000
0001
0010
0100
0100
,
1000
0001
1000
0010
0100
0010
1000
0001
,
1000
0000
1000
0000
0100
0000
0010
0000
0001
1000
0001
0000
1000
0000
0010
0000
,
0100
0001
0010
0100
1000
1000
0001
0100
,
0010
0010
1000
0001
1000
0100
0010
0010
,
0001
1000
0001
0010
0100
1000
0001
0100
,
0010
0000
0010
0000
1000
0000
0001
0000
0010
0100
1000
0001
0100
0001
1000
0010
,
1000
0010
0100
0010
1000
0100
0010
0001
,
0100
0000
0001
0000
1000
0000
0010
0000
0100
0000
0010
0000
1000
0000
0001
0100
,
0001
0010
0100
1000
0001
0100
0010
0100
,
0001
0000
1000
0000
0100
0000
0010
0000
0100
1000
0001
0000
1000
0100
0010
0001
,
1000
0001
0100
0010
0100
0001
1000
0001
,
0010
0000
0100
0000
1000
0000
0001
0000
0100
0000
0010
0000
0100
0000
0001
1000
,
0100
0010
0100
1000
0001
0100
0010
1000
,
0001
0000
1000
0000
0100
0000
0010
0000
0001
0100
0001
0000
1000
0100
0010
0001
,
0100
0010
1000
0100
0010
0001
0100
0001
,
1000
0100
0010
0001
0100
0001
1000
0100
,
0010
0100
1000
0010
0100
0001
0010
0001
,
1000
0000
0010
0000
0100
0000
0001
0000
0010
0000
0100
0000
1000
0000
0010
1000
,
0100
1000
0001
0100
0001
0010
0100
1000
,
0010
0100
0010
1000
0100
0010
0001
0100
,
0001
1000
0001
0010
0100
1000
0001
0100
0010
0100
0001
1000
0100
0010
0001
1000
,
0001
0100
0001
0010
0100
1000
0010
0100
0010
1000
0100
0010
0001
0100
0001
1000
,
0100
0010
0001
1000
0001
1000
0010
0100
0010
1000
0001
0100
0001
1000
0010
1000
,
0001
0010
0100
1000
0001
0010
0001
1000
0100
0010
0100
1000
0001
1000
0010
0100
,
0010
1000
0001
1000
0010
0100
0010
1000
0001
1000
0100
0010
0001
1000
0001
0100
,
0010
0100
0001
1000
0001
0010
0100
1000
0001
0010
0001
1000
0010
1000
0001
0100
,
0010
0100
0001
1000
0010
1000
0001
0100
0010
0100
0001
1000
0001
0010
0100
1000
,
0001
0010
0001
1000
0010
0100
0010
1000
0001
1000
0100
0010
0001
1000
0010
0100
,
0001
0000
1000
0010
0400
0000
0301
0000
1000
0000
0100
0010
0004
0000
1003
0000
,
0001
0000
1000
0010
1000
0001
0010
0100
1000
0001
0100
0001
0010
0100
1000
0010
,
1000
0001
0100
0010
0100
0001
1000
0001
0100
0010
0100
0001
1000
0010
1000
0001
,
0010
0001
1000
0100
0010
0001
1000
0100
1000
0001
0100
0010
0100
0001
1000
0001
,
0100
0010
0100
0001
1000
0010
1000
0001
0010
0100
1000
0001
0010
0001
1000
0010
,
0100
0010
1000
0001
1000
0100
0010
0001
1000
0010
1000
0001
0100
0010
0100
0001
,
1000
0001
0100
0010
1000
0010
0100
0001
1000
0001
0010
0100
1000
0001
0010
0001
,
1000
0100
0010
0100
1000
0001
0100
0010
0100
0001
1000
0010
1000
0001
0100
0001
,
0010
0000
0000
0100
1100
0000
0000
1000
,
1001
0000
0000
0001
0101
0000
0000
0100
,
0110
0000
0000
0010
1010
0000
0000
1000
,
1001
0000
0001
0000
0010
0000
0100
0000
1000
0000
0001
0100
0001
0010
0100
1000
,
0001
0000
0000
0000
,
1000
0010
1000
0100
0010
0100
0010
0001
1000
0010
1000
0100
1000
0001
0010
0100
,
0010
0100
1000
0001
0100
0010
0100
0001
0010
0100
1000
0001
0100
0001
1000
0100
,
0010
0001
0100
0010
1000
0001
0010
0100
1000
0001
1000
0010
0100
0010
1000
0001
,
0010
0100
0010
0001
1000
0010
1000
0001
0010
0001
0010
0100
1000
0001
1000
0010
,
0100
0001
0010
0100
0010
0001
1000
0010
1000
0001
0100
0001
1000
0100
0010
0100
,
0010
0001
1000
0010
0100
0010
1000
0001
0010
0001
0010
0100
1000
0001
0100
0001
,
0010
0100
1000
0001
0100
0010
0100
0001
1000
0100
0010
0100
1000
0001
0100
0010
,
0100
0001
1000
0100
0010
0001
0100
0001
1000
0000
0001
0100
0001
0000
1000
0001
,
0100
0010
1000
0100
0010
0100
0010
0001
1000
0010
1000
0100
1000
0001
0010
0100
,
0010
0100
1000
0001
0100
0010
0100
0001
0010
0100
1000
0001
0100
0001
1000
0100
,
0010
0001
0100
0010
1000
0001
0010
0100
1000
0001
1000
0010
0100
0010
1000
0001
,
0010
0100
0010
0001
1000
0010
1000
0001
0010
0001
0010
0100
1000
0001
1000
0010
,
0100
0001
0010
0100
0010
0001
1000
0010
1000
0001
0100
0001
1000
0100
0010
0100
,
0010
0001
1000
0010
0100
0010
1000
0001
0010
0001
0010
0100
1000
0001
0100
0001
,
0010
0100
1000
0001
0100
0010
0100
0001
1000
0100
0010
0100
1000
0001
0100
0010
,
0100
0001
1000
0100
0010
0001
0100
0001
1000
0000
0001
0100
0001
0010
0100
1000
,
0010
0100
0001
0010
0100
0100
1000
0001
,
0100
0010
0100
0001
1000
0100
0010
0010
,
0001
1000
0001
0100
0010
0100
0001
1000
,
0001
0000
0001
0000
0010
0000
0100
0000
1000
0001
1000
0000
0001
0000
0100
0000
,
0010
1000
0100
0010
0001
0001
1000
0010
,
0100
0100
0001
1000
0001
0010
0100
0100
,
1000
0010
1000
0100
0010
0001
0100
0010
,
1000
0000
1000
0000
0001
0000
0100
0000
0001
1000
0010
1000
0100
0010
0001
1000
,
0002
0003
0000
0000
;
