#TITLE:Sorceress Elise;
#SUBTITLE:;
#ARTIST:Banya;
#TITLETRANSLIT:;
#SUBTITLETRANSLIT:;
#ARTISTTRANSLIT:;
#CREDIT:Little Matt;
#BANNER:../Tachyon Delta-bn.png;
#BACKGROUND:../Tachyon Delta-bg.png;
#LYRICSPATH:;
#CDTITLE:;
#MUSIC:Sorceress Elise.ogg;
#OFFSET:-0.080;
#SAMPLESTART:31.210;
#SAMPLELENGTH:15.000;
#SELECTABLE:YES;
#BPMS:0.000=165.000;
#STOPS:;
#BGCHANGES:;
// cache tags:
#FIRSTBEAT:16.000;
#LASTBEAT:306.000;
#SONGFILENAME:Songs/Tachyon Delta/Sorceress Elise - [Little Matt]/Sorceress Elise.sm;
#HASMUSIC:1;
#HASBANNER:1;
#MUSICLENGTH:112.140;
// end cache tags

//---------------dance-single - Little Matt----------------
#NOTES:
     dance-single:
     Little Matt:
     Challenge:
     16:
     1.000,1.000,0.107,0.009,1.000,811.000,12.000,1.000,0.000,0.000:

0000
0000
0000
0000
,
0000
0000
0000
0000
,
0000
0000
0000
0000
,
0000
0000
0000
0000
,
1000
0010
0100
0010
1000
0001
1000
0001
0010
0001
0100
0010
1000
0100
1000
0100
,
0010
0001
0100
0001
1000
0100
1000
0010
1000
0001
0010
0001
0100
0001
1000
0100
,
1000
0010
0100
0001
0010
0001
0010
0001
1000
0001
0100
0010
1000
0001
1000
0001
,
0100
0001
0010
0001
1000
0010
1000
0100
1000
0001
0100
0001
0010
0001
1000
0010
,
1000
0000
0000
0000
0000
0000
0001
0100
0010
0000
1010
0000
0000
0000
0010
1000
,
0100
0000
0010
0001
0100
0000
0001
0100
0010
0000
1000
0100
0010
0000
0001
0010
,
0100
1000
1000
0001
0100
0010
1000
0001
,
0010
0100
1000
0100
1000
0001
0010
0001
,
0100
0010
1000
0010
1000
0001
0100
0001
,
0010
0000
0100
0000
1000
0000
0100
0000
1000
0000
0010
0100
0010
0100
0010
0100
,
0001
0010
0010
0100
1000
0001
0100
0010
,
1000
0001
1000
0001
0010
0100
1000
0010
,
0100
0001
0100
0001
0010
0100
1000
0010
,
0100
0000
0001
0000
0100
0000
0001
0000
0010
0000
0100
1000
0001
0100
0010
1000
,
0100
0000
0000
1100
0000
1000
0001
0100
,
0010
0000
0000
1010
0000
1000
0001
0010
,
0100
0000
0000
1100
0000
1000
0010
0100
,
0001
0000
1001
1000
0001
0000
0101
0001
,
1000
0010
1000
0010
0100
0001
0100
0001
,
1000
0000
0000
0000
0000
0000
0001
1000
0010
1000
0010
0100
0001
1000
0100
1000
0001
0010
0001
1000
0010
1000
0100
0010
,
0001
1000
1000
0001
0100
0010
1000
0100
,
0010
0001
0010
0001
0100
0010
1000
0100
,
0010
0001
0100
0001
0100
0010
1000
0001
,
0100
0000
0000
0000
,
0000
0000
0000
0000
0000
0000
0000
0000
0000
0000
0000
0000
0001
0100
0010
1000
0010
0100
0001
1000
0001
0100
0010
1000
,
0001
1000
0100
1000
0010
0100
0001
1000
0010
1000
0010
0100
0001
1000
0001
0100
0010
1000
0001
1000
0010
0100
0001
1000
,
0100
1000
0010
0100
0001
1000
0010
0100
0001
1000
0100
1000
0100
0010
0001
1000
0100
1000
0001
0010
0100
1000
0001
0100
,
0001
0010
0100
1000
0001
0010
0100
1000
0001
0010
0001
0010
0100
1000
0001
1000
0010
0100
0001
1000
0010
1000
0001
0010
,
0001
0100
0010
1000
0001
1000
0001
0100
0010
1000
0001
0010
0100
1000
0001
0010
0100
0010
0001
1000
0001
0010
0001
0100
,
0010
1000
0001
0100
0010
1000
0010
0100
0001
0100
0001
1000
0010
0100
0010
1000
0001
0100
0010
1000
0010
0100
0001
1000
,
0100
1000
0010
0100
0001
1000
0010
0100
0001
0100
0010
1000
0001
0010
0100
1000
0001
0010
0001
1000
0100
1000
0001
0100
,
0001
0010
0100
1000
0100
1000
0001
0100
0010
1000
0010
0100
0001
1000
0010
0100
0001
1000
0010
1000
0001
0010
0001
0100
,
0010
0000
1000
0000
0001
0000
0100
0000
0001
0000
1000
0000
0100
0000
1000
0000
0001
0000
0010
0000
0001
0000
1000
0000
0001
0000
0000
1000
0000
0000
0001
0000
0000
0000
0000
0000
0100
0000
0000
0001
0000
0000
1000
0000
0000
0010
0000
0000
,
0100
0001
0010
0000
0100
1000
0001
0000
0100
0010
1000
0000
0001
1000
0100
0000
,
0010
0001
1000
0000
0010
1000
0001
0000
0100
0001
0010
0001
0010
0100
1000
0001
,
0100
0001
1000
0000
0010
1000
0100
0000
1000
0001
0100
0001
0010
0001
0100
0010
,
1000
0100
1000
0001
0100
0010
1000
0100
0010
0001
1000
0000
0100
1000
0001
0000
,
0100
0010
1000
0000
0001
0010
0100
0000
1000
0001
0100
0000
0010
1000
0001
0000
,
0100
0001
0010
0000
0100
0010
0001
0000
1000
0010
0100
0010
0100
0001
0010
0100
,
0010
0001
1000
0010
0100
0010
1000
0001
0100
0000
0000
0000
0000
0000
0001
1000
,
0100
0000
1100
0000
0000
0000
0100
1000
0001
0000
0100
0010
1000
0000
0001
0010
,
0100
0000
1000
0010
0100
0000
0001
1000
0100
0000
1000
0001
0100
0000
0010
1000
,
0001
0000
0010
0001
0100
0000
0010
1000
0100
1000
0001
0100
0001
0010
0001
1000
,
0010
0000
0000
1000
0000
0000
0100
0000
0000
1000
0000
0000
0001
0000
1000
0000
0001
0000
1000
0000
0001
0000
1000
0000
0001
0000
0100
0000
0001
0000
1000
0000
0100
0000
1000
0000
0001
0000
0100
0000
0010
0000
0100
0000
0001
0000
1000
0000
,
0010
0100
0001
1000
0100
1000
0001
0010
0001
1000
0010
0100
0001
0000
0000
1000
0000
0000
1000
0000
0000
0010
0000
0000
,
0100
0001
0010
0100
1000
0010
0100
0010
,
0100
0001
0010
0100
1000
0001
0100
0001
,
0100
0010
1000
0001
0010
0100
1000
0100
,
1000
0000
0001
0100
0001
0100
0001
0100
0010
0000
1000
0000
1000
0000
0001
0000
,
0010
0100
1000
0001
0100
0010
1000
0010
,
1000
0001
0010
0100
1000
0001
0100
0001
,
0100
0010
1000
0001
0010
0100
1000
0100
,
1000
0000
0001
0100
0010
0100
0001
1000
0010
0000
0000
0000
0000
0000
1010
0000
,
0000
1000
0001
0100
0010
0000
0000
1010
,
0000
1000
0100
0010
0001
0000
0000
0011
,
0000
0001
0100
0010
1000
0000
1001
0001
,
0100
0000
1010
1000
0001
0010
0001
0010
,
0100
1000
0100
1000
0001
0000
0000
0000
,
0000
0000
0000
0000
1000
0001
0001
0100
,
0010
1000
0001
0010
0100
1000
0010
1000
,
0010
0100
0001
1000
0100
0010
0001
0010
,
0001
0100
0010
1000
0001
0010
0100
0010
,
0100
0000
1000
0001
1000
0001
1000
0001
0100
0000
0100
0000
0000
0000
0010
0000
,
0000
0000
0000
1000
0000
0000
0000
0000
0000
0100
0000
0000
1000
0001
1000
0100
1000
0001
0010
0001
0010
0100
1000
0001
,
0100
0001
1000
0010
1000
0001
0100
0001
1000
0100
1000
0001
0100
0000
0000
0100
0000
0000
0000
0000
0000
0010
0000
0000
,
0000
0000
0000
1000
0000
0000
0000
0000
0000
0100
0000
0000
1000
0001
0100
0001
1000
0010
1000
0001
0010
0100
1000
0001
,
1000
0100
1000
0001
0100
0001
1000
0010
0100
0001
1000
0100
0010
0000
0000
0010
0000
0000
0000
0000
0000
0001
0000
0000
,
0000
0100
0000
0010
1000
1000
0000
0100
,
0000
0010
0000
0001
0100
0100
0000
0010
,
0000
1000
0000
0100
1000
1000
0001
0100
,
0001
0100
0010
1000
0010
0100
0001
1000
0100
1000
0001
0100
0020
0000
0000
0000
0000
0000
0000
0000
0000
0000
0000
0000
,
0000
0000
0000
0000
,
0000
0000
0030
0000
;
