#TITLE:Time Lapse;
#SUBTITLE:;
#ARTIST:TheFatRat;
#TITLETRANSLIT:;
#SUBTITLETRANSLIT:;
#ARTISTTRANSLIT:;
#CREDIT:Kellan;
#BANNER:../banner.png;
#BACKGROUND:../bg.png;
#LYRICSPATH:;
#CDTITLE:;
#MUSIC:TheFatRat - Time Lapse.ogg;
#OFFSET:-0.164;
#SAMPLESTART:32.290;
#SAMPLELENGTH:29.999;
#SELECTABLE:YES;
#BPMS:0.000=127.000;
#STOPS:;
#BGCHANGES:;
// cache tags:
#FIRSTBEAT:0.000;
#LASTBEAT:370.000;
#SONGFILENAME:Songs/Owem's Simfiles 08 - 1.2/Time Lapse - [Breaden] v1.0.1/Time Lapse.sm;
#HASMUSIC:1;
#HASBANNER:1;
#MUSICLENGTH:185.364;
// end cache tags

//---------------dance-single - 17+ (Braeden)----------------
#NOTES:
     dance-single:
     17+ (Braeden):
     Challenge:
     17:
     0.992,1.000,0.221,1.000,1.000,1006.000,41.000,203.000,10.000,0.000:
0002
0000
0000
0003
2000
0000
0000
3000
0002
0000
0000
0003
2000
0000
0000
3000
,
0002
0000
0100
0000
0203
0000
0300
0010
2000
0000
0100
0000
3100
0000
0000
0000
,
0020
0000
0001
0000
0031
0000
0000
0001
0200
0000
0001
0000
0302
0000
0000
0000
,
2003
0000
3100
0000
0010
0001
0000
0100
0020
0000
0130
0000
2000
0000
3010
0000
,
0100
0000
0001
0000
0100
0010
0100
0010
2000
0000
3100
0000
0020
0000
0031
0000
,
1000
0000
0010
0000
0100
0001
0100
0010
2000
0000
3100
0000
0020
0000
0031
0000
,
4000
0000
3020
0230
0302
0203
0320
2030
,
3400
0000
0000
0000
0000
0000
0340
0000
0000
0000
0000
0000
0031
0000
0000
1000
0010
0100
0001
0000
0000
0010
0000
0000
,
4001
0000
3020
0230
0302
2003
3200
0320
,
0034
0003
1010
0040
0430
0304
0403
0340
,
4030
0000
3002
0203
0320
2030
3020
0230
,
0340
0000
2030
3200
2300
3002
0203
0320
,
0430
0000
0302
2003
3020
0230
0302
2003
,
3400
0000
2300
3020
2030
3002
0203
0310
,
1000
0001
0100
0001
1000
0100
0010
0001
1000
0010
0100
0001
0010
0001
1000
0010
0100
0001
1000
0100
0010
0001
0010
0100
1000
0001
0010
0001
1000
0010
0100
0001
,
1000
0000
0010
0100
0002
0000
0103
0010
1000
0000
0100
0010
0002
0000
0103
0010
,
1000
0000
0000
0000
0000
0000
0100
0000
0000
0010
0000
0000
0002
0000
0000
0000
0000
0000
1003
0000
0000
0010
0000
0000
1000
0000
0000
0000
0000
0000
0010
0000
0100
0000
0010
0000
1000
0000
0000
0010
0000
0000
0100
0000
0000
0010
0000
0000
,
1000
0100
0010
0001
0010
0000
0000
0000
0100
1000
0001
0100
0010
1000
0100
0010
0001
0010
0100
1000
0001
0010
0001
1000
0010
0100
0001
0010
0001
1000
0100
0010
,
0001
0010
0100
1000
0001
0000
0000
0000
1000
0100
0010
0001
1000
0010
0100
0001
0010
0001
1000
0100
0010
0100
1000
0001
0100
0000
0000
0000
0000
0000
0000
0000
,
0010
1000
0001
0010
0100
0000
0000
0000
1000
0100
0010
0001
0010
0100
1000
0001
0010
0001
0100
0010
1000
0001
0010
0100
1000
0001
0010
0001
1000
0010
0100
0001
,
1000
0010
0100
0001
0100
0000
0000
0000
0010
1000
0001
0010
0100
1000
0001
0010
0001
1000
0100
0010
0001
0010
0100
1000
0010
0000
0000
0000
0000
0000
0000
0000
,
1000
0100
0010
0001
1000
0000
0000
0000
0001
0010
0100
1000
0001
0010
0001
1000
0100
0010
0001
0010
0100
1000
0001
0100
0010
0100
0001
0010
0001
1000
0100
0010
,
0001
0010
0100
1000
0001
0000
0000
0000
0100
0010
0100
0001
0010
0001
1000
0100
0010
0001
0100
0010
1000
0001
0010
0100
1000
0000
0000
0000
0000
0000
0000
0000
,
004M
0000
4M30
3002
04M3
0320
M430
0320
,
M430
0000
0340
0000
4030
0000
3010
0100
,
0004
0000
0000
0000
0003
0000
0100
0010
0100
0000
0010
0000
1000
0000
0001
0000
0100
0000
0000
0000
0040
0000
0000
0000
1030
0000
0000
0000
0400
0000
0000
0000
,
0310
0000
0001
0000
0100
0000
0010
0000
1000
0000
0001
0100
0010
0000
0100
0000
0020
0000
0000
0000
0230
0000
0000
0000
0310
0000
1000
0000
0001
0000
0100
0000
,
0040
0000
0000
0000
0000
0000
1030
0001
0100
0000
0010
0000
1000
0000
0001
0000
0040
0000
0000
0000
0130
0000
0000
0000
0040
0000
0000
0000
0130
0000
0000
0000
,
0010
0000
0001
0000
0100
0000
0000
0000
0010
0000
1000
0010
0100
0000
0001
0000
0100
0000
0000
0000
0010
0000
1000
0000
0100
0000
1000
0000
0001
0000
0010
0000
,
0100
0000
0000
0000
1000
0000
0010
0100
0010
0000
0100
0000
0001
0000
1000
0000
0020
0000
0000
0000
0130
0000
0000
0000
0020
0000
0000
0000
1030
0000
0000
0000
,
0100
0000
0010
0000
0001
0000
0010
0000
0100
0000
1000
0001
0100
0000
0010
0000
0100
0000
0000
0000
0010
0000
0000
0000
1000
0000
0100
0000
0010
0000
0001
0000
,
1000
0000
0000
0000
0000
0000
0010
0100
0010
0000
0100
0000
0010
0000
0100
0000
0020
0000
0000
0000
0230
0000
0000
0000
0302
0000
0000
0000
0003
0000
0000
0000
,
0020
0000
0230
0000
0302
0000
0203
0000
0320
0000
2030
0000
3100
0010
0001
0100
,
0001
0000
0000
1000
0000
0001
0000
0000
0000
0010
0000
0000
0000
0000
0100
0000
0000
0100
1000
0000
0100
1000
0000
0100
,
1000
0000
0000
0010
0000
0100
0000
0000
0001
0100
0000
0000
0000
0000
0010
0000
0000
1000
0100
0000
0010
0100
0000
1000
,
0001
0000
0000
0010
0000
0100
0000
0000
1000
0010
0000
0000
0000
0000
0100
0000
0000
0001
0100
0000
0010
1000
0000
0100
,
0010
0000
0000
0001
0000
0100
0000
0000
0010
0000
0000
0000
0000
0000
1000
0000
0000
0010
0100
0000
0000
0001
0000
0000
,
0100
0000
0000
0010
0000
1000
0000
0000
0100
0000
0000
0000
0000
0000
0010
0000
0000
0001
0100
0000
0010
1000
0000
0100
,
0010
0000
0000
0001
0000
0100
0000
0000
0010
1000
0000
0000
0000
0000
1001
0000
0000
0010
0100
0000
0010
0100
0000
0010
,
0100
0000
0000
0001
0000
0200
0000
0000
0310
0100
0000
0000
0000
0000
0011
0000
0000
0100
0010
0000
0100
0001
0000
0100
,
0020
0000
0000
0130
0000
0010
0000
0000
1000
0000
0000
0000
0000
0000
0010
0000
0000
0100
0001
0000
0100
0010
0000
0100
,
0040
0000
0000
0130
0000
0010
0000
0000
2000
0000
3000
0000
0000
0000
0002
0000
0003
1000
0100
0000
0010
0001
0000
0100
,
0010
0000
0000
1000
0000
0020
0000
0030
0100
0000
0000
0000
0000
0000
0001
0000
0000
0100
0010
0000
1000
0100
0000
0010
,
0001
0000
0000
1000
0000
0000
0010
0000
0000
0100
0000
0000
0001
0000
0000
0000
0100
0000
0010
0000
0000
0000
1000
0000
0100
0000
0000
0000
0010
0000
0001
0000
0000
0000
0100
0000
0010
0000
0000
0000
1000
0000
0001
0000
0000
0000
0100
0000
,
0010
0000
1000
0000
0000
0010
0000
0000
0100
0001
0000
0100
0010
0000
0100
0000
0000
0010
1000
0001
1000
0001
1000
0001
,
0100
0000
0000
0010
0000
0010
0000
0000
0101
0000
0000
0000
0000
0000
0110
0000
0000
1000
0100
0000
0010
0001
0000
0100
,
0020
0000
0030
0100
0000
0100
0000
0000
1001
0000
0000
0000
0000
0000
1001
0000
0000
0001
0100
0000
0010
1000
0000
0000
,
0020
0000
0000
0000
0000
0130
0000
0000
0000
0010
0000
0000
0000
0000
2000
0000
0000
0000
3002
0000
0000
0203
0000
0000
,
0310
0000
0000
0000
0000
0000
0000
0000
0000
1000
0000
0000
0000
0000
0000
0000
0000
0000
0020
0000
0000
0000
0000
0000
0000
0000
0000
0230
0000
0000
0000
0000
0000
0000
0000
0000
0301
0000
0000
0000
0010
0000
0100
0000
0000
0000
0010
0000
,
0001
0000
1000
0100
0010
0000
0100
0010
0001
0000
0010
0100
1000
0000
0001
0010
,
0100
0000
1000
0010
0100
0000
0001
0100
0010
0000
1000
0100
0010
0000
0001
0100
,
0010
0000
1000
0100
0000
0000
0010
0001
0000
0000
0100
0010
0000
0000
1000
0001
,
0000
0000
1000
0010
0000
0000
0100
0001
0000
0000
0000
0000
0000
0000
0000
0000
,
2000
0000
3002
0203
0320
2030
3200
0320
,
0230
0000
2300
3002
0203
0320
0230
0000
,
0320
0000
2030
3200
2300
3002
0203
0320
,
2030
0000
3200
0320
0230
2300
3002
0003
,
0200
0000
0320
2030
3200
0320
0032
0203
,
0320
0000
2030
3200
2300
3002
0203
0000
,
0302
0000
2003
3200
0320
0032
0203
0320
,
2030
0000
3002
0003
0020
0030
0002
0003
,
2001
0000
3020
0230
0302
2003
3200
0320
,
0032
0000
2003
3020
0230
0302
0203
0000
,
0320
0000
2030
3200
0320
0032
0203
0320
,
2030
3000
0002
0203
0320
2030
3020
0030
,
1000
0100
0010
0001
0010
0100
1000
0001
0100
0010
1000
0001
0010
0001
1000
0100
0010
0001
0010
0100
1000
0001
0100
0010
1000
0001
0010
0001
1000
0100
0010
0001
,
0010
0100
1000
0001
0010
0001
0100
0010
1000
0001
0010
0100
1000
0001
0010
0001
1000
0100
0010
0001
0010
0100
1000
0001
0010
0001
1000
0100
1000
0001
0010
0100
,
1000
0001
0100
0010
0100
0001
0010
0001
1000
0001
0010
0100
1000
0001
0010
0001
1000
0010
0100
0001
0010
0001
1000
0100
0010
0001
0010
0100
1000
0001
0100
0010
,
1000
0001
0010
0100
1000
0001
0010
0001
1000
0010
0100
0001
0010
0001
1000
0100
0010
0001
0010
0100
1000
0001
0010
0001
0100
0010
1000
0001
0010
0100
1000
0001
,
0010
0001
1000
0010
0100
0001
0010
0100
1000
0001
0010
0001
1000
0010
0100
0001
0010
0001
1000
0100
0010
0001
0010
0100
1000
0001
0100
0010
1000
0001
0100
0000
,
0000
0000
1001
0000
1001
0000
1001
0000
1001
0000
1001
0000
,
4000
0000
3004
0403
0340
4030
3400
0340
,
0034
0000
0403
0320
4030
3020
0230
0300
,
0004
0000
1003
0010
0400
0000
0304
0000
0403
0000
0340
0000
4030
0000
3400
0000
,
0340
0000
0000
0030
0000
0000
4001
0000
0000
3020
0000
0000
0430
0000
0000
0310
1000
0010
1000
0000
0000
0001
0000
0000
,
4000
3000
4010
3040
0430
0304
0403
0340
,
4030
3000
1004
0203
0340
2030
3010
0000
,
010M
0000
0010
0010
M100
0000
0010
0000
010M
0000
0001
0000
M100
0000
0001
0000
,
02M0
0000
0000
0000
0340
0000
0000
0000
0430
0000
0000
0300
0010
0000
0010
0000
,
0020
0000
0000
0000
0130
0000
0001
0100
0010
0000
1000
0000
0010
0000
0100
0000
0002
0000
0003
0000
2000
0000
0000
0000
3020
0000
0000
0000
0130
0000
0000
0000
,
0001
0000
0100
0000
0020
0000
0000
0000
1030
0000
0100
0010
0100
0000
1000
0000
0001
0000
0100
0000
0010
0000
0100
0000
0001
0000
1000
0000
0010
0000
0100
0000
,
0004
0000
0000
0000
0003
0000
0100
0010
0100
0000
0001
0000
0100
0000
0010
0000
2000
0000
0000
0000
3200
0000
0000
0000
0320
0000
0000
0000
0130
0000
0000
0000
,
0010
0000
0001
0000
1000
0000
0000
0000
0010
0000
0100
0001
0100
0000
0010
0000
2000
0000
0000
0000
3020
0000
0000
0000
0130
0000
0001
0000
1000
0000
0010
0000
,
2000
0000
0000
0000
3010
0000
0100
0001
0100
0000
0010
0000
1000
0000
0100
0000
0020
0000
0000
0000
0130
0000
0000
0000
0110
0000
0000
0000
0010
0000
0000
0000
,
0002
0000
0000
0000
1003
0000
0000
0000
0010
0000
0100
0001
0100
0000
0010
0000
1000
0000
0000
0000
0010
0000
0000
0000
0100
0000
0001
0000
0100
0000
0010
0000
,
1000
0000
0001
1000
0100
0010
0100
1000
0001
0000
0100
0000
2010
0000
0000
0000
,
3010
0100
0002
0103
0020
1030
0200
0310
,
1002
0000
0203
0320
2030
3200
0320
0230
,
2300
3000
1002
0203
0320
2030
3200
0000
,
0310
0000
0001
1000
0100
0010
0100
0000
0020
0000
2030
0000
3002
0000
0003
0000
,
0200
0320
2030
3200
0310
0000
0001
0000
,
0100
0010
0100
0001
1000
0100
0010
0000
,
0001
0100
0010
1000
0001
0000
0000
0000
;
