#TITLE:Riverside Cafe;
#SUBTITLE:;
#ARTIST:Litmus*;
#TITLETRANSLIT:;
#SUBTITLETRANSLIT:;
#ARTISTTRANSLIT:;
#CREDIT:;
#BANNER:../Banner.png;
#BACKGROUND:../BG.png;
#LYRICSPATH:;
#CDTITLE:../CDTitleRP.png;
#MUSIC:Riverside Cafe.ogg;
#OFFSET:-0.313;
#SAMPLESTART:100.000;
#SAMPLELENGTH:12.000;
#SELECTABLE:YES;
#BPMS:0.000=192.000;
#STOPS:;
#BGCHANGES:;
// cache tags:
#FIRSTBEAT:4.000;
#LASTBEAT:383.000;
#SONGFILENAME:Songs/Index Fusion - Part 2/Riverside Cafe - [Rparty]/Riverside Cafe.sm;
#HASMUSIC:1;
#HASBANNER:1;
#MUSICLENGTH:124.458;
// end cache tags

//---------------dance-single - ----------------
#NOTES:
     dance-single:
     :
     Hard:
     12:
     0.992,1.000,0.844,0.104,0.438,746.000,105.000,13.000,0.000,0.000:
0000
0000
0000
0000
,
1000
0100
0011
0000
0000
0010
0001
0100
,
1010
0000
0000
0000
0000
0000
0100
0000
0001
0000
0010
0000
1100
0000
0100
0010
,
0001
0010
0100
1000
0011
0000
0000
0000
,
0100
0001
1010
0000
0000
1000
0100
0010
,
0101
0000
0000
0001
0010
0100
1010
0000
,
0100
0000
0010
0100
0001
0000
0010
0000
1100
0000
0000
0000
0000
0000
0000
0000
,
1000
0100
0011
0000
0100
0011
0100
1000
,
0101
0010
1100
0010
1001
0010
1100
0001
,
0100
0011
1100
0010
1001
0100
0011
1000
,
1000
0110
0101
0010
0100
1000
0011
0100
,
1001
0010
1000
0100
0011
1000
0101
0010
,
0100
0001
1100
0010
0101
0010
1001
0010
,
0010
1000
0110
0000
0000
0110
1001
0000
,
0110
0110
1001
0110
,
0000
0110
1001
0000
0110
0000
0110
1000
,
1000
0000
0100
0000
0011
0000
1000
0100
0010
0000
0100
0000
0001
0000
0010
0000
,
0100
0010
1000
0100
0001
0000
0010
0000
0100
0000
1000
0000
0010
0000
0100
0010
,
1000
0000
0001
0000
0100
0000
0010
0000
1000
0100
0001
0010
0001
0000
0100
0000
,
0010
0000
1000
0000
0001
0000
0100
0010
1000
0000
0001
0000
0100
0000
1000
0000
,
0010
1000
0001
0100
1000
0000
0010
0000
0001
0000
0100
0000
0010
0000
0100
1000
,
0010
0000
0001
0000
0010
0000
0100
0000
1000
0010
0100
0010
0001
0000
0000
0000
,
0010
0000
0100
0000
0001
0000
0100
0001
0010
0000
0100
0000
0001
0000
1000
0000
,
0100
1000
0010
0001
0100
0000
0010
0000
0001
0000
0010
0000
0100
0000
0001
1000
,
0100
0000
0010
0000
0100
0000
0001
0000
1000
0010
0100
1000
0001
0000
0010
0000
,
0100
0000
1000
0000
0001
0000
0100
1000
0010
0000
0001
0000
0100
0000
0010
0000
,
0001
0100
0010
0100
1000
0000
0010
0000
0100
0000
0001
0000
0010
1000
0100
0000
,
0010
0000
0001
0000
0100
0000
1000
0000
0100
0000
0010
0001
0100
0000
0000
0000
,
0010
0001
0101
0000
1000
0010
0100
1000
,
0011
0100
1001
1010
,
0100
1000
0010
0001
0110
0000
1001
0010
,
0010
0001
1100
0000
0010
0100
0001
1000
,
0110
0000
1000
0100
0010
0000
0100
0000
0001
0000
0010
0000
0100
0010
0100
0010
,
0100
0010
0100
0010
0001
0000
0010
0000
1100
0000
0000
0000
0011
0000
0100
0000
,
0100
0000
1001
0000
0100
1000
0001
0010
,
1100
0000
0101
0000
1010
0000
0011
0100
,
1000
0000
0010
0000
1000
0000
0100
0000
0011
0000
0001
0010
1100
0000
0010
0000
,
0010
1000
0100
0000
0001
0100
0010
1000
,
0011
0000
0100
1000
0010
0100
0011
0000
,
0100
0010
1000
0100
0011
0000
0010
0000
,
1100
0000
1001
0100
0010
0100
0001
0010
,
0100
0001
1000
0010
0100
0000
0010
0000
0100
0000
1000
0000
0001
0000
0100
1000
,
0010
0000
0001
0000
1000
0000
0010
0000
0100
1000
0010
0100
0001
0000
0010
0000
,
0100
0000
1000
0000
0100
0000
0001
0010
0100
0000
1000
0000
0010
0100
0001
0100
,
1000
0010
0100
0010
0001
0100
2000
0000
,
3002
0010
0103
1000
0100
0010
0002
1000
,
1003
0000
0010
0000
0100
0000
0010
0100
0001
0000
0100
0000
1000
0000
0100
0000
,
0010
0001
1000
0010
0100
0000
0010
0000
0100
0000
1000
0000
0010
0000
0100
1000
,
0001
0000
0100
0000
0010
0000
0001
0000
0010
0100
0001
0100
1000
0000
0100
0000
,
0010
0000
0001
0000
1000
0000
0010
1000
0100
0000
0010
0000
0001
0000
0100
0000
,
0010
0000
0100
1000
0010
0000
0100
0000
0010
0000
1000
0000
0001
0010
0100
1000
,
0100
0010
0100
0001
0010
0100
1000
0100
0010
1000
0100
0010
0002
0000
1000
0000
,
1003
0000
1001
0010
0100
1000
0100
0010
,
0002
0000
0000
0000
1003
0000
0001
0010
1100
0000
0010
0000
1000
0000
0100
0000
,
0010
0000
0100
0000
1000
0000
0010
0000
0001
0100
0010
0000
0100
0000
1000
0000
,
0100
0010
0001
1000
0010
0100
0001
0010
,
0100
0000
1000
0000
0010
0000
0100
0000
0001
0000
0010
0000
1000
0100
0010
0100
,
1000
0000
0010
0000
0100
0000
0010
0000
0001
0000
0010
0100
1000
0000
0010
0000
,
0010
0100
1001
0010
0100
1000
0100
0010
,
0002
0000
0000
0000
1003
0000
0001
0010
1100
0000
0010
0000
1000
0000
0100
0000
,
0010
0000
0100
0000
1000
0000
0010
0000
0001
0100
0010
0000
0100
0000
1000
0000
,
0100
0010
0001
1000
0010
0100
0001
0010
,
0100
0000
1000
0000
0010
0000
0100
0000
0001
0000
0010
0000
1000
0100
0010
0100
,
1000
0000
0010
0000
0100
0000
0010
0000
0001
0000
0010
0100
1000
0000
0010
0000
,
0010
0100
1001
0100
0010
0001
0100
0010
,
1000
0100
0010
0001
0100
0010
0100
1000
0001
0000
0000
0000
0110
0000
0001
0000
,
0010
0000
0100
0000
1000
0000
0010
0000
0100
0001
0010
0100
0010
0001
1000
0010
,
1000
0000
0000
0000
1100
0000
0010
1000
0100
0000
0010
0000
0001
0000
0100
0000
,
0010
0000
0100
0001
0100
0000
0010
0000
0100
0000
1000
0000
0001
0000
0100
1000
,
0100
0000
0010
0000
0100
0000
0001
0000
0010
0000
0100
0001
1000
0000
0010
0000
,
0010
0000
0100
0000
1001
0000
0010
1000
0100
0000
0010
0000
0001
1000
0010
0001
,
0100
0000
0010
0100
1000
0010
0001
0100
0010
1000
0001
0000
1000
0100
0010
0100
,
0010
0001
0010
0100
0010
0100
1000
0100
0010
0001
0010
0100
1000
0000
0010
0000
,
0100
0000
0010
0000
1001
0000
0010
0001
0100
0000
0010
0000
0100
0010
1000
0001
,
0100
0000
0010
0100
1000
0000
0010
0000
0100
0000
0001
0000
1000
0100
0010
0001
,
0010
0100
1000
0010
0100
0010
1000
0100
0010
0001
1000
0100
0002
0000
1000
0000
,
1003
0100
0011
0000
0100
0010
1001
0100
,
1010
0000
0000
0000
0101
0000
1000
0000
0011
0000
0000
0000
1100
0000
0001
0010
,
1100
0010
0001
0100
1010
0000
0101
0010
,
1010
0100
0011
0000
1000
0100
0010
0001
,
1100
0011
1010
1100
,
0001
0000
0010
1000
0100
0000
0010
0000
0101
0000
0100
1000
0020
0000
0100
0000
,
0130
0010
1001
0000
1000
0100
0010
0001
,
1010
0101
1001
0011
,
1000
0000
0100
0000
0011
0000
0100
0000
1010
0000
0100
0001
0020
0000
0100
0000
,
0130
0010
1001
0000
0010
0001
0010
0100
,
1010
0000
0110
0001
1000
0100
0011
0000
,
0100
0001
0010
0100
1001
0100
0020
1000
,
1000
0130
0011
0000
0000
0000
0000
0000
,
1100
0000
0000
0101
,
0000
0000
0110
0000
,
0000
1010
0000
0000
,
1100
0000
0000
0022
,
0000
0000
0000
0000
,
0033
0000
0000
0000
1000
0100
0020
0000
0000
0000
0000
0000
0000
0000
0000
0000
,
0000
0000
0000
0030
;
