#TITLE:Trolls in the Dark;
#SUBTITLE:;
#ARTIST:Rhapsody;
#TITLETRANSLIT:;
#SUBTITLETRANSLIT:;
#ARTISTTRANSLIT:;
#CREDIT:;
#BANNER:Trollsban.png;
#BACKGROUND:Trollsbg.jpg;
#LYRICSPATH:;
#CDTITLE:!ObsTitle.png;
#MUSIC:Rhapsody - Trolls In The Dark.mp3;
#OFFSET:-10.052;
#SAMPLESTART:95.104;
#SAMPLELENGTH:12.000;
#SELECTABLE:YES;
#BPMS:0.000=90.030,18.000=180.060;
#STOPS:;
#BGCHANGES:;
// cache tags:
#FIRSTBEAT:0.000;
#LASTBEAT:402.000;
#SONGFILENAME:Songs/Fresh Flock of Fantastic Files F4/(Observer) Trolls In The Dark/Trolls.sm;
#HASMUSIC:1;
#HASBANNER:1;
#MUSICLENGTH:152.301;
// end cache tags

//---------------dance-single - ----------------
#NOTES:
     dance-single:
     :
     Hard:
     11:
     1.000,1.000,0.939,0.282,0.909,917.000,143.000,43.000,0.000,0.000:
1000
0001
0100
0010
2000
3000
0001
0100
,
0010
1000
0100
0001
0200
0300
0110
1000
,
0001
0100
0010
1000
0020
0030
0001
0010
,
1000
0010
0200
0300
2002
0000
0000
0000
,
3003
0000
0000
0000
0000
0000
0000
0110
1001
0000
0100
0000
0101
0000
0100
0000
,
0110
0000
0001
0100
0011
0010
1010
1000
,
1001
0000
0010
1100
0011
1000
0010
0100
,
1000
0000
0100
0001
0110
0100
1100
0100
,
0101
0000
0000
0000
1001
0000
0100
0010
2000
0000
0000
0000
3000
0000
0001
0000
,
0010
1000
0010
0000
1002
0000
0003
0010
,
0100
0000
1000
0000
0010
0000
1100
0000
0010
0100
0010
0000
0001
0000
1100
0000
,
0010
0100
0010
0000
1000
0000
0010
0000
1000
0100
0010
0000
0100
0010
0001
0000
,
2002
0000
3003
1000
0011
0001
0101
0100
,
1020
1030
1000
0100
0001
0010
1000
0010
,
0002
0103
0010
0100
0010
0100
0001
0100
,
0002
0103
0010
0001
0010
0100
0010
0001
,
0020
0000
0130
0000
0001
0000
0010
0100
2000
0000
0010
0000
3100
0000
0010
0000
,
1001
0010
0100
0010
1002
0100
1003
0001
,
1010
0000
0100
0000
0001
0000
1100
0000
0001
0010
0100
0000
0110
0000
1001
0000
,
0100
1000
0010
0000
1100
0000
0011
0000
1000
0100
0010
0000
0010
0100
1000
0000
,
2002
0000
3003
0000
,
0110
0000
0000
0000
0000
0000
0101
0000
0000
0000
0000
0000
1000
0100
0010
0000
0000
0000
0001
0010
0100
0000
0000
0000
,
0001
0100
0010
0000
0000
0000
1000
0010
0100
0000
0000
0000
0010
0001
0100
0000
0000
0000
0100
0010
1000
0000
0000
0000
,
1001
0000
0000
0010
0000
0000
0100
0000
0000
0001
0000
0000
0100
0010
0100
0000
0000
0000
0100
0010
1000
0000
0000
0000
,
0001
0000
0000
0100
0000
0000
0001
0000
0000
0100
0000
0000
0001
0100
0010
0000
0000
0000
0010
0100
1000
0000
0000
0000
,
0010
0000
0000
0100
0000
0000
0010
0000
0000
0100
0000
0000
0010
0100
1000
0000
0000
0000
0010
0100
0010
0000
0000
0000
,
0100
0001
0010
0000
0000
0000
1000
0100
1000
0000
0000
0000
0010
0100
0001
0000
0000
0000
0100
1000
0010
0000
0000
0000
,
1000
0000
0000
0100
0000
0000
0010
0000
0000
0001
0000
0000
0001
0010
0001
0000
0000
0000
1000
0010
0100
0000
0000
0000
,
0100
0010
0100
0000
0000
0000
0010
0100
0010
0000
0000
0000
0001
0000
0000
0100
0000
0000
0010
0000
0000
1000
0000
0000
,
0001
0000
0100
0000
0010
0000
0100
0000
0101
0000
1000
0100
0010
0000
1001
0000
,
0110
0000
0001
0010
1000
0000
0011
0000
1010
0000
0100
0010
0001
0000
0100
0000
,
0011
1000
0100
0010
1100
0010
0100
0001
,
0110
0000
1000
0000
0001
0000
0010
0000
1000
0010
0100
0000
0001
0000
0100
0000
,
2002
0000
0000
0000
3003
0000
0010
0000
0100
0000
0001
0010
0100
0000
1100
0000
,
1010
0000
0001
0100
0010
0000
1100
0000
0101
0000
0010
0100
1000
0000
0001
0000
,
1010
0000
0100
0010
0001
0000
0010
0000
0101
0000
0010
0000
1100
0000
0110
0000
,
0011
0000
0100
1000
0010
0000
1100
0000
1001
0000
0100
0001
0010
0000
1100
0000
,
0001
0100
0010
0000
1100
0000
0101
0000
2002
0000
0000
0000
3003
0000
0000
0000
,
1000
0000
0000
0100
0000
0000
0010
0000
0000
0001
0000
0000
0010
0100
1000
0000
0000
0000
0001
0100
0010
0000
0000
0000
,
0010
0001
0100
0000
0000
0000
0100
0010
1000
0000
0000
0000
0010
0001
0010
0000
0000
0000
0001
0010
0100
0000
0000
0000
,
0100
0000
0000
0010
0000
0000
0100
0000
0000
0001
0000
0000
0100
0010
0100
0000
0000
0000
1000
0100
1000
0000
0000
0000
,
0010
0100
0010
0000
0000
0000
0100
0010
0001
0000
0000
0000
0100
1000
0010
0000
0000
0000
0001
0100
0010
0000
0000
0000
,
0010
0000
0000
0100
0000
0000
0001
0000
0000
1000
0000
0000
0010
0100
1000
0000
0000
0000
0001
0010
0100
0000
0000
0000
,
0100
0010
0001
0000
0000
0000
1000
0100
0010
0000
0000
0000
0010
0100
0010
0000
0000
0000
0100
1000
0100
0000
0000
0000
,
0001
0000
0000
0010
0000
0000
0100
0000
0000
1000
0000
0000
0001
0100
0010
0000
0000
0000
1000
0100
1000
0000
0000
0000
,
0001
0010
0100
0000
0000
0000
0100
0010
0001
0000
0000
0000
0010
0000
0000
0100
0000
0000
0010
0000
0000
1000
0000
0000
,
0100
0000
0001
0000
0010
0000
1000
0000
1000
0100
0010
0001
1000
0100
0010
0001
,
1000
0001
0100
0010
1000
0001
0100
0010
1000
0100
0001
0010
1000
0100
0001
0010
,
0100
1000
0010
0001
0100
1000
0010
0001
1000
0100
0010
0001
1000
0100
0001
0100
,
1000
0100
0010
0001
1000
0010
0100
0001
0100
0010
1000
0001
0100
0010
1000
0001
,
1000
0100
0010
0001
2002
0000
0000
0000
,
0000
0000
3003
0100
1001
0100
0010
0001
,
0010
0000
0100
0001
1001
0010
0100
0010
,
1100
0000
0011
0100
1001
0100
1010
0100
,
0011
0000
0110
0010
0101
1000
0110
1000
,
0101
0000
0000
0000
0010
0000
0100
0010
1002
0000
0000
0000
0003
0000
0100
0000
,
0010
0100
0001
0000
1020
0000
0030
0100
,
0010
0000
1000
0000
0001
0000
0100
0000
0010
0001
0010
0000
1100
0000
0110
0000
,
1000
0100
0010
0000
0101
0000
1100
0000
0001
0010
0100
0000
0010
0100
1000
0000
,
0220
0000
0330
0100
1001
0010
1100
0001
,
0110
0001
1010
0100
0011
0100
1100
0100
,
0120
0130
1001
0010
1100
0001
0110
1000
,
0011
0100
1010
0100
0001
0010
0100
0010
,
2100
0000
3100
0000
0011
0000
1000
0100
0012
0000
0000
0000
0003
0000
0011
0000
,
0110
0011
0110
0000
0200
0000
0300
0011
,
1100
0000
0010
0000
1100
0000
0001
0000
0100
0010
1000
0000
0110
0000
0101
0000
,
0100
0010
0100
0000
1010
0000
0101
0000
1000
0100
0010
0000
0100
0010
0001
0000
,
0220
0000
0000
0330
,
1100
0000
0000
0000
0000
0000
0101
0000
0000
0000
0000
0000
0001
0010
0100
0000
0000
0000
0010
0100
1000
0000
0000
0000
,
0100
0010
0001
0000
0000
0000
0001
0100
0010
0000
0000
0000
0010
0001
0100
0000
0000
0000
0100
1000
0010
0000
0000
0000
,
0001
0000
0000
0100
0000
0000
0010
0000
0000
1000
0000
0000
0100
0010
0100
0000
0000
0000
0001
0010
0001
0000
0000
0000
,
0100
1000
0100
0000
0000
0000
0010
0100
0010
0000
0000
0000
0001
0010
0100
0000
0000
0000
0100
0010
0001
0000
0000
0000
,
0010
0000
0000
0100
0000
0000
0001
0000
0000
1000
0000
0000
0010
0100
1000
0000
0000
0000
0100
0001
0010
0000
0000
0000
,
0010
0100
0010
0000
0000
0000
0001
0100
0001
0000
0000
0000
0100
0010
0100
0000
0000
0000
0010
1000
0010
0000
0000
0000
,
0100
0000
0000
0010
0000
0000
0100
0000
0000
0001
0000
0000
0010
0100
0001
0000
0000
0000
0100
0001
0010
0000
0000
0000
,
0010
0100
1000
0000
0000
0000
0001
0010
0100
0000
0000
0000
0001
0000
0000
0100
0000
0000
0001
0000
0000
0100
0000
0000
,
1001
0000
1000
0000
1100
0000
0100
0000
0110
0000
0001
0010
1000
0000
1100
0000
,
0101
0000
1000
0100
0001
0000
0001
0000
0110
0000
0100
0010
0100
0000
0010
0000
,
1001
0000
0100
0000
0110
0000
0001
0000
0110
0000
1000
0100
0010
0000
0110
0000
,
0101
0000
0100
0000
1010
0000
0100
0000
0010
0100
1000
0000
0110
0000
1001
0000
,
0220
0000
0000
0000
0330
0000
0001
0000
0100
0000
0001
0010
0100
0000
0011
0000
,
1100
0000
0001
0100
0010
0000
1100
0000
1001
0000
0100
0010
1000
0000
0101
0000
,
1010
0000
0100
0001
0010
0000
1100
0000
0110
0000
0011
0000
0110
0000
1100
0000
,
1001
0000
0100
0010
0100
0000
0110
0000
1001
0000
1000
0001
1000
0000
0011
0000
,
1000
0100
0010
0000
0001
0000
0100
0000
2002
0000
0000
0000
0000
0000
3003
0000
,
1000
0000
0000
0100
0000
0000
0010
0000
0000
0001
0000
0000
1000
0100
0010
0000
0000
0000
0010
0100
1000
0000
0000
0000
,
0001
0010
0100
0000
0000
0000
0100
0010
0001
0000
0000
0000
0010
0001
0100
0000
0000
0000
0001
0100
0010
0000
0000
0000
,
0100
0000
0000
0010
0000
0000
1000
0000
0000
0001
0000
0000
0100
0010
0100
0000
0000
0000
1000
0100
1000
0000
0000
0000
,
0010
0100
0010
0000
0000
0000
0010
0001
0010
0000
0000
0000
0001
0100
0001
0000
0000
0000
0010
1000
0010
0000
0000
0000
,
0001
0000
0000
0010
0000
0000
0100
0000
0000
1000
0000
0000
0100
0001
0010
0000
0000
0000
0100
1000
0010
0000
0000
0000
,
0010
0001
0100
0000
0000
0000
0001
0100
0010
0000
0000
0000
0010
0100
1000
0000
0000
0000
0001
0010
0100
0000
0000
0000
,
0100
0000
0000
0010
0000
0000
0100
0000
0000
0001
0000
0000
0010
0100
0001
0000
0000
0000
0001
1000
0100
0000
0000
0000
,
0010
0001
1000
0000
0000
0000
0100
0010
1000
0000
0000
0000
0010
0000
0000
0100
0000
0000
0001
0000
0000
0100
0000
0000
,
0010
0000
0100
0000
0001
0000
0100
0000
1000
0100
0010
0001
1000
0100
0010
0001
,
1000
0010
0100
0001
1000
0010
0100
0001
1000
0100
0001
0010
1000
0100
0001
0010
,
1000
0001
0100
0010
1000
0100
0010
0100
1000
0100
0001
0100
1000
0010
0100
0001
,
0100
0010
1000
0100
0001
0010
0001
0010
0001
0010
0100
1000
0100
0010
0100
0010
,
1000
0010
0100
0010
2002
0000
3003
1000
,
1000
0100
1000
0000
0200
0000
0000
0000
0310
0000
0110
0000
0000
0000
0101
0000
,
0020
0000
0230
0000
0310
0110
0000
1001
,
1000
0100
0010
0001
0010
0100
1000
0100
0011
0000
0000
0000
0000
0000
0000
0000
;
