#TITLE:Still Into You;
#SUBTITLE:Sexuality Violation;
#ARTIST:Paramore;
#TITLETRANSLIT:;
#SUBTITLETRANSLIT:;
#ARTISTTRANSLIT:;
#CREDIT:;
#BANNER:still into tits bn.png;
#BACKGROUND:still into tits bg.png;
#LYRICSPATH:;
#CDTITLE:;
#MUSIC:Still Into You.ogg;
#OFFSET:-11.481;
#SAMPLESTART:45.050;
#SAMPLELENGTH:12.000;
#SELECTABLE:YES;
#DISPLAYBPM:136.000;
#BPMS:0.000=136.000,64.000=68.000,70.000=136.000,346.000=68.000,360.000=136.000;
#STOPS:;
#BGCHANGES:;
// cache tags:
#FIRSTBEAT:0.000;
#LASTBEAT:436.000;
#SONGFILENAME:Songs/Sexuality Violation 2/Still Into You - [Tyler]/Still Into You.sm;
#HASMUSIC:1;
#HASBANNER:1;
#MUSICLENGTH:216.058;
// end cache tags

//---------------dance-single - T. Moore----------------
#NOTES:
     dance-single:
     T. Moore:
     Challenge:
     15:
     1.000,1.000,0.481,0.056,1.000,1731.000,104.000,12.000,6.000,0.000:
1001
0000
0101
0100
0010
1000
1100
0000
,
0011
0000
1001
1000
0010
0100
0101
0001
,
1001
0000
1100
0100
0010
0011
0101
0000
,
1010
0000
1001
0001
0010
0100
1100
1000
,
2001
0000
3010
1000
0001
0010
0110
0000
,
1100
0000
1001
0001
0100
0010
1010
1000
,
1001
0000
0011
0010
0100
1100
1001
0000
,
0101
0000
0001
0100
0001
0000
0100
0000
0010
0000
1010
0000
1000
0000
0001
0000
,
0011
0010
0100
1000
0010
0100
0101
0000
,
1001
0000
1100
0100
0010
0001
1001
1000
,
1010
0000
0101
0001
0010
0110
1100
0000
,
1001
0000
1000
0001
1000
0000
0001
0000
0100
0000
0010
0000
1010
0000
1000
0000
,
1001
0000
0001
0011
0010
0100
1100
0000
,
1000
1010
0010
0100
0101
0001
1001
0000
,
1100
0000
1001
0001
0100
0110
1010
0000
,
1001
0000
0001
0010
0001
0000
1000
0000
0010
0000
0110
0000
0100
0000
0001
0000
,
M020
0001
0001
0001
0001
0001
0031
1000
0020
1000
1000
1000
2030
0001
3001
0010
,
0020
0001
0001
0001
0001
0001
0001
0001
0M31
0000
1000
0010
0100
0000
0001
0000
,
0010
0000
0000
0100
0000
0000
1000
0000
0000
0000
0000
0000
0001
0000
0000
1000
0000
0000
0001
0000
0000
1000
0000
0000
0001
0000
1000
0000
0100
0000
0010
0000
0100
0000
1000
0000
0001
0000
0010
0000
0100
0000
1000
0000
0001
0000
0010
0000
,
0001
1000
0100
0010
0001
1000
0001
0100
0010
1000
0010
0100
0001
1000
0001
0100
0001
1000
0001
1000
0100
1000
0001
0010
,
0001
0100
0001
1000
0010
0100
0010
1000
0001
0100
0001
1000
0100
0010
0100
1000
0001
0010
0001
1000
0100
0010
0001
1000
,
0001
0100
0010
1000
0001
0100
0001
1000
0010
0100
0001
1000
0100
0010
0100
1000
0001
0010
0001
0100
0001
1000
0010
1000
,
0001
0100
0001
0010
0100
1000
0001
1000
0100
0010
0001
1000
0001
0100
0010
1000
0001
0100
0001
1000
0010
0100
0001
1000
,
0001
0100
0001
0010
0100
1000
0001
1000
0100
0010
0001
1000
0001
0100
0010
1000
0001
1000
0010
0100
0001
1000
0100
1000
,
0010
0100
0001
0010
0001
0100
0010
1000
0100
0010
0001
1000
0001
0010
0100
1000
0001
0010
0001
1000
0001
0100
0010
1000
,
0001
1000
0010
0100
0001
1000
0010
1000
0001
1000
0100
1000
0001
0010
0001
0100
0001
1000
0010
1000
0001
0100
0001
1000
,
0100
1000
0001
0010
0001
1000
0001
0100
0010
1000
0010
0100
0001
0010
0100
1000
0010
0100
0001
0010
0100
1000
0100
0010
,
0001
0100
0010
1000
0100
0010
0001
1000
0001
0010
0100
0010
0001
1000
0001
0100
0010
0100
0001
1000
0001
0100
0010
1000
,
0001
1000
0100
0010
0001
0010
0100
1000
0001
0010
0001
1000
0001
0100
0010
1000
0001
1000
0001
0100
0010
1000
0001
1000
,
0001
0100
0001
1000
0010
0100
0001
1000
0001
1000
0100
0010
0001
1000
0001
0010
0100
1000
0001
0100
0001
1000
0010
1000
,
0001
0010
0100
1000
0100
0010
0001
1000
0001
0100
0010
1000
0001
1000
0100
1000
0001
0010
0001
1000
0001
0100
0010
1000
,
0001
1000
0010
0100
0001
1000
0100
1000
0001
0010
0001
1000
0002
0000
0000
0003
0000
0000
0000
0000
0000
0000
0000
0000
,
2000
0000
0000
3010
1010
0000
1100
0100
,
0010
0001
0101
0000
1001
0000
1100
0100
,
0010
0001
0101
0100
0010
0000
1001
1000
,
0100
0000
0110
0000
0011
0000
0000
0000
0101
0000
0010
1000
0000
0100
0010
0000
,
0001
0100
0010
1000
0100
0000
0000
0000
1001
0000
0000
0000
1010
0000
0010
0000
,
0100
0001
0011
0000
1100
0000
1010
0010
,
0100
0001
0011
0010
1100
0000
1001
0001
,
0100
0101
1010
0000
1001
0000
1010
0010
,
0100
0001
0011
0001
1001
0000
1010
0010
,
0100
0001
0011
0000
1100
0000
1001
1000
,
0010
0100
0101
0001
1001
0000
1001
1000
,
0100
0000
0110
0000
0011
0000
0000
0000
1001
0000
1000
0010
1000
0000
0010
0000
,
0100
0101
0001
0010
0110
0100
1000
0010
,
0100
0001
0011
0000
1100
0000
1010
0010
,
0100
0001
0011
0001
1100
0000
1010
0010
,
0100
0000
0101
0000
0011
0000
0000
0000
1001
0000
0001
1000
0001
0000
0100
0000
,
0010
1000
0100
0010
0011
0000
0001
0101
,
0100
0010
1010
0000
1000
1100
0100
0010
,
0011
0000
0001
0000
1000
0000
0010
0000
0110
0000
0100
0001
0100
0000
0010
0000
,
1000
0000
1010
0000
1002
0000
0000
0003
1001
0000
1000
0001
1000
0000
0010
0000
,
0100
0101
0001
0010
0120
0100
0100
0100
,
0100
0100
0130
1000
2000
0001
0001
3001
,
2000
0001
3001
0100
0200
0010
0010
0010
,
0010
0000
0010
0000
0010
0000
0010
0000
0310
0000
1000
0001
0010
0100
1000
0000
,
0001
0000
0000
1000
0000
0000
0001
0000
0000
0000
0000
0000
1000
0000
0000
0001
0000
0000
1000
0000
0000
0001
0000
0000
1000
0000
0100
0000
0010
0000
0001
0000
0010
0000
0001
0000
1000
0000
0100
0000
0010
0000
0001
0000
1000
0000
0100
0000
,
1000
0001
0010
0100
1000
0001
1000
0010
0100
0001
0100
0010
1000
0001
1000
0010
1000
0001
1000
0001
0010
0001
1000
0100
,
1000
0010
1000
0001
0100
0010
0100
0001
1000
0010
1000
0001
0010
0100
0010
0001
1000
0100
1000
0001
0010
0100
1000
0001
,
1000
0010
0100
0001
1000
0010
1000
0001
0100
0010
1000
0001
0010
0100
0010
0001
1000
0100
1000
0010
1000
0001
0100
0001
,
1000
0010
1000
0100
0010
0001
1000
0001
0010
0100
1000
0001
1000
0010
0100
0001
1000
0010
1000
0001
0100
0010
1000
0001
,
1000
0010
1000
0100
0010
0001
1000
0001
0010
0100
1000
0001
1000
0010
0100
0001
1000
0001
0100
0010
1000
0001
0010
0001
,
0100
0010
1000
0100
1000
0010
0100
0001
0010
0100
1000
0001
1000
0100
0010
0001
1000
0100
1000
0001
1000
0010
0100
0001
,
1000
0001
0100
0010
1000
0001
0100
0001
1000
0001
0010
0001
1000
0100
1000
0010
1000
0001
0100
0001
1000
0010
1000
0001
,
0010
0001
1000
0100
1000
0001
1000
0010
0100
0001
0100
0010
1000
0100
0010
0001
0100
0010
1000
0100
0010
0001
0010
0100
,
1000
0010
0100
0001
0010
0100
1000
0001
1000
0100
0010
0100
1000
0001
1000
0010
0100
0010
1000
0001
1000
0010
0100
0001
,
1000
0001
0010
0100
1000
0100
0010
0001
1000
0100
1000
0001
1000
0010
0100
0001
1000
0001
1000
0010
0100
0001
1000
0001
,
1000
0010
1000
0001
0100
0010
1000
0001
1000
0001
0010
0100
1000
0001
1000
0100
0010
0001
1000
0010
1000
0001
0100
0001
,
1000
0100
0010
0001
0010
0100
1000
0001
1000
0010
0100
0001
1000
0001
0010
0001
1000
0100
1000
0001
1000
0010
0100
0001
,
1000
0001
0100
0010
1000
0001
0010
0001
1000
0100
1000
0001
0100
0001
1000
0010
1000
0001
0100
0010
1000
0001
1000
0100
,
0010
0000
0001
0000
0010
0000
0100
0000
1000
0000
0001
0000
0010
0000
0001
0000
1000
0000
0010
0000
0100
0000
0001
0000
1000
0000
0000
0100
0000
0000
0010
0000
0000
0010
0000
0000
1000
0000
0000
0100
0000
0000
0100
0000
0000
0001
0000
0000
,
1000
0010
0100
0100
1000
0010
0010
0001
1000
0010
0100
0100
1000
0010
0010
0100
,
1000
0010
0100
0100
1000
0010
0010
0001
1000
0010
0100
0100
1000
0010
0010
0100
,
1000
0010
0100
0100
1000
0010
0010
0001
1000
0010
0100
0100
1000
0010
0010
0001
,
0100
0010
1000
0100
0100
0000
0001
0000
1001
0000
1000
0001
0100
0010
0010
0001
,
1000
0010
0100
0100
1000
0010
0010
0001
1000
0010
0100
0100
1000
0010
0010
0100
,
1000
0010
0100
0100
1000
0010
0010
0001
1000
0010
0100
0100
1000
0010
0010
0100
,
1000
0010
0100
0100
1000
0010
0010
0001
1000
0010
0100
0100
1000
0010
0010
0001
,
0100
0010
1000
0100
0100
0000
0010
0010
0001
1000
0010
0010
0001
0010
0010
1000
,
0001
0100
0010
0010
0001
0100
0100
1000
0001
0100
0010
0010
0001
0100
0100
0010
,
0001
0100
0010
0010
0001
0100
0100
1000
0001
0100
0010
0010
0001
0100
0100
0010
,
0001
0100
0010
0010
0001
0100
0100
1000
0001
0100
0010
0010
0001
0100
0100
1000
,
0010
0100
0001
0010
0010
1000
0100
0100
0001
0010
0100
0100
0001
0100
0100
1000
,
0001
0010
0100
0100
0001
0010
0010
1000
0001
0010
0100
0100
0001
0010
0010
0100
,
0001
0010
0100
0100
0001
0010
0010
1000
0001
0100
0010
0010
0001
0100
0100
0010
,
0001
0100
0010
0010
0001
0100
0100
1000
0001
0100
0010
0010
0001
0100
0100
1000
,
0010
0010
0001
1000
0010
0010
0100
1000
0MM1
1000
0001
1000
0001
1000
0001
1000
,
0010
1000
0010
0100
0001
1000
0100
0010
0001
0010
0100
1000
0100
0010
0001
1000
,
0001
0100
0010
0100
0001
1000
0100
1000
0001
0100
0001
1000
0100
0010
0001
0100
,
0001
0100
0010
1000
0001
0100
0001
1000
0100
0100
0100
0100
0100
0100
0100
0100
,
10MM
0100
0010
0001
1000
0000
0001
0010
0100
1000
0001
1000
0001
0100
0010
1000
,
0001
1000
0100
0010
0100
1000
0001
0010
0100
1000
0001
0010
0001
1000
0100
0010
0001
1000
0001
0100
0010
1000
0010
0100
,
0001
1000
0001
0100
0001
1000
0001
1000
0100
1000
0001
0010
0001
0100
0001
1000
0010
0100
0010
1000
0001
0100
0001
1000
,
0100
0010
0100
1000
0001
0010
0001
1000
0100
0010
0001
1000
0001
0100
0010
1000
0001
0100
0001
1000
0010
0100
0001
1000
,
0100
0010
0100
1000
0001
0010
0001
0100
0001
1000
0010
1000
0001
0100
0001
0010
0100
1000
0001
1000
0100
0010
0001
1000
,
0001
0100
0010
1000
0001
0100
0001
1000
0010
0100
0001
1000
0001
0100
0001
0010
0100
1000
0001
1000
0100
0010
0001
1000
,
0001
0100
0010
1000
0001
1000
0010
0100
0001
1000
0100
1000
0010
0100
0001
0010
0001
0100
0010
1000
0100
0010
0001
1000
,
0001
0010
0100
1000
0001
0010
0001
1000
0001
0100
0010
1000
0001
1000
0010
0100
0001
1000
0010
1000
0001
1000
0100
1000
,
0001
0010
0001
0100
0001
1000
0010
1000
0001
0100
0001
1000
0100
1000
0001
0010
0001
1000
0001
0100
0010
1000
0010
0100
,
0001
0010
0100
1000
0010
0100
0001
0010
0100
1000
0100
0010
0001
0100
0010
1000
0100
0010
0001
1000
0001
0010
0100
0010
,
0001
1000
0001
0100
0010
0100
0001
1000
0001
0100
0010
1000
0001
1000
0100
0010
0001
0010
0100
1000
0001
0010
0001
1000
,
0001
0100
0010
1000
0001
1000
0001
0100
0010
1000
0001
1000
0001
0100
0001
1000
0010
0100
0001
1000
0001
1000
0100
0010
,
0001
1000
0001
0010
0100
1000
0001
0100
0001
1000
0010
1000
0001
0010
0100
1000
0100
0010
0001
1000
0001
0100
0010
1000
,
0001
1000
0100
1000
0001
0010
0001
1000
0001
0100
0010
1000
0001
1000
0010
0100
0001
1000
0100
1000
0001
0010
0001
1000
,
0010
1000
0001
0100
0001
1000
0010
0100
0001
1000
0001
0010
0100
1000
0100
0010
0001
1000
0100
1000
0001
0100
0010
1000
,
0001
0010
0100
1000
0001
0010
0001
1000
0100
0010
0001
1000
0010
0100
0001
1000
0001
0100
0010
1000
0001
0100
0001
1000
,
0100
0010
0001
1000
0001
0010
0100
1000
0001
0010
0001
1000
0001
0100
0010
1000
0001
1000
0010
0100
0001
1000
0100
1000
,
0001
0010
0100
1000
0001
0010
0001
1000
0001
0100
0010
1000
0100
0010
0001
0100
0001
0010
0100
1000
0010
0100
0001
0010
,
0001
1000
0010
0100
0001
1000
0001
0100
0010
1000
0001
1000
0100
0010
0001
1000
0001
0010
0100
1000
0001
1000
0000
0000
;

//---------------dance-single - T. Moore----------------
#NOTES:
     dance-single:
     T. Moore:
     Hard:
     12:
     0.984,0.858,0.481,0.056,1.000,1372.000,104.000,12.000,5.000,0.000:
1001
0000
0101
0100
0010
1000
1100
0000
,
0011
0000
1001
1000
0010
0100
0101
0001
,
1001
0000
1100
0100
0010
0011
0101
0000
,
1010
0000
1001
0001
0010
0100
1100
1000
,
2001
0000
3010
1000
0001
0010
0110
0000
,
1100
0000
1001
0001
0100
0010
1010
1000
,
1001
0000
0011
0010
0100
1100
1001
0000
,
0101
0000
0001
0100
0001
0000
0100
0000
0010
0000
1010
0000
1000
0000
0001
0000
,
0011
0010
0100
1000
0010
0100
0101
0000
,
1001
0000
1100
0100
0010
0001
1001
1000
,
1010
0000
0101
0001
0010
0110
1100
0000
,
1001
0000
1000
0001
1000
0000
0001
0000
0100
0000
0010
0000
1010
0000
1000
0000
,
1001
0000
0001
0011
0010
0100
1100
0000
,
1000
1010
0010
0100
0101
0001
1001
0000
,
1100
0000
1001
0001
0100
0110
1010
0000
,
1001
0000
0001
0010
0001
0000
1000
0000
0010
0000
0110
0000
0100
0000
0001
0000
,
M020
0001
0001
0001
0001
0001
0031
1000
0020
1000
1000
1000
2030
0001
3001
0010
,
0020
0001
0001
0001
0001
0001
0001
0001
0M31
0000
1000
0010
0100
0000
0001
0000
,
0010
0100
1000
0000
0001
1000
0001
1000
0010
0100
0001
0100
0010
1000
0001
1000
,
0010
0100
1000
0100
0010
1000
0001
1000
0100
0010
0001
0010
0100
1000
0010
0100
,
1000
0100
0010
1000
0001
1000
0100
0010
1000
0010
0100
1000
0001
1000
0010
0100
,
1000
0100
0010
1000
0001
1000
0100
0010
1000
0010
0001
1000
0010
0100
0001
0010
,
1000
0001
1000
0010
0100
1000
0001
0100
0010
1000
0001
1000
0010
0100
0001
1000
,
0010
0100
1000
0001
0010
0100
0001
1000
0001
0010
0100
0010
0001
1000
0010
0100
,
1000
0001
0010
0100
0010
1000
0001
1000
0001
0010
0100
1000
0001
0010
0100
0001
,
0100
0010
0001
1000
0001
0100
0010
0100
1000
0100
0010
1000
0001
1000
0010
0100
,
0001
1000
0100
1000
0001
0010
0100
0001
1000
0010
1000
0010
1000
0010
0100
1000
,
0100
1000
0100
1000
0001
0100
0001
0100
0001
1000
0010
0100
1000
0100
0010
0100
,
1000
0100
0010
1000
0010
1000
0001
0010
1000
0010
0100
1000
0001
0100
0010
1000
,
0001
1000
0010
0100
0001
1000
0100
0010
0001
0010
0100
1000
0001
1000
0010
0100
,
0001
0100
0010
1000
0100
0010
0001
1000
0010
0100
0001
0100
0010
1000
0100
0010
,
0001
0010
0100
1000
0010
0100
0001
1000
0002
0000
0003
0000
0000
0000
0000
0000
,
2000
0000
0000
3010
1010
0000
1100
0100
,
0010
0001
0101
0000
1001
0000
1100
0100
,
0010
0001
0101
0100
0010
0000
1001
1000
,
0100
0000
0110
0000
0011
0000
0000
0000
0101
0000
0010
1000
0000
0100
0010
0000
,
0001
0100
0010
1000
0100
0000
0000
0000
1001
0000
0000
0000
1010
0000
0010
0000
,
0100
0001
0011
0000
1100
0000
1010
0010
,
0100
0001
0011
0010
1100
0000
1001
0001
,
0100
0101
1010
0000
1001
0000
1010
0010
,
0100
0001
0011
0001
1001
0000
1010
0010
,
0100
0001
0011
0000
1100
0000
1001
1000
,
0010
0100
0101
0001
1001
0000
1001
1000
,
0100
0000
0110
0000
0011
0000
0000
0000
1001
0000
1000
0010
1000
0000
0010
0000
,
0100
0101
0001
0010
0110
0100
1000
0010
,
0100
0001
0011
0000
1100
0000
1010
0010
,
0100
0001
0011
0001
1100
0000
1010
0010
,
0100
0000
0101
0000
0011
0000
0000
0000
1001
0000
0001
1000
0001
0000
0100
0000
,
0010
1000
0100
0010
0011
0000
0001
0101
,
0100
0010
1010
0000
1000
1100
0100
0010
,
0011
0000
0001
0000
1000
0000
0010
0000
0110
0000
0100
0001
0100
0000
0010
0000
,
1000
0000
1010
0000
1002
0000
0000
0003
1001
0000
1000
0001
1000
0000
0010
0000
,
0100
0101
0001
0010
0120
0100
0100
0100
,
0100
0100
0130
1000
2000
0001
0001
3001
,
2000
0001
3001
0100
0200
0010
0010
0010
,
0010
0000
0010
0000
0010
0000
0010
0000
0310
0000
1000
0010
0100
0000
0001
0000
,
0010
0100
1000
0000
0001
1000
0001
1000
0100
0010
0001
0010
0100
1000
0001
1000
,
0100
0010
1000
0010
0100
1000
0001
1000
0010
0100
0001
0100
0010
1000
0100
0010
,
1000
0010
0100
1000
0001
1000
0010
0100
1000
0100
0010
1000
0001
1000
0100
0010
,
1000
0010
0100
1000
0001
1000
0010
0100
1000
0100
0001
1000
0100
0010
0001
0100
,
1000
0001
1000
0100
0010
1000
0001
0010
0100
1000
0001
1000
0100
0010
0001
1000
,
0100
0010
1000
0001
0100
0010
0001
1000
0001
0100
0010
0100
0001
1000
0100
0010
,
1000
0001
0100
0010
0100
1000
0001
1000
0001
0100
0010
1000
0001
0100
0010
0001
,
0010
0100
0001
1000
0001
0010
0100
0010
1000
0010
0100
1000
0001
1000
0100
0010
,
0001
1000
0010
1000
0001
0100
0010
0001
1000
0100
1000
0100
1000
0100
0010
1000
,
0010
1000
0010
1000
0001
0010
0001
0010
0001
1000
0100
0010
1000
0010
0100
0010
,
1000
0010
0100
1000
0100
1000
0001
0100
1000
0100
0010
1000
0001
0010
0100
1000
,
0001
1000
0100
0010
0001
1000
0010
0100
0001
0100
0010
1000
0001
1000
0100
0010
,
0001
0010
0100
1000
0010
0100
0001
1000
0100
0010
0001
0010
0100
1000
0010
0100
,
0001
0100
0010
1000
0100
0010
0001
0100
0010
1000
0001
1000
0010
0100
0001
0010
,
0100
1000
0100
0010
0001
0100
0010
1000
0010
1000
0100
0100
0001
0010
0010
1000
,
0001
0100
0010
0010
0001
0100
0100
1000
0001
0100
0010
0010
0001
0100
0100
0010
,
0001
0100
0010
0010
0001
0100
0100
1000
0001
0100
0010
0010
0001
0100
0100
0010
,
0001
0100
0010
0010
0001
0100
0100
1000
0001
0100
0010
0010
0001
0100
0100
1000
,
0010
0100
0001
0010
0010
0000
1000
0000
1001
0000
0001
1000
0010
0100
0100
1000
,
0001
0100
0010
0010
0001
0100
0100
1000
0001
0100
0010
0010
0001
0100
0100
0010
,
0001
0100
0010
0010
0001
0100
0100
1000
0001
0100
0010
0010
0001
0100
0100
0010
,
0001
0100
0010
0010
0001
0100
0100
1000
0001
0100
0010
0010
0001
0100
0100
1000
,
0010
0100
0001
0010
0010
0000
0100
0100
1000
0001
0100
0100
1000
0100
0100
0001
,
1000
0010
0100
0100
1000
0010
0010
0001
1000
0010
0100
0100
1000
0010
0010
0100
,
1000
0010
0100
0100
1000
0010
0010
0001
1000
0010
0100
0100
1000
0010
0010
0100
,
1000
0010
0100
0100
1000
0010
0010
0001
1000
0010
0100
0100
1000
0010
0010
0001
,
0100
0010
1000
0100
0100
0001
0010
0010
1000
0100
0010
0010
1000
0010
0010
0001
,
1000
0100
0010
0010
1000
0100
0100
0001
1000
0100
0010
0010
1000
0100
0100
0010
,
1000
0100
0010
0010
1000
0100
0100
0001
1000
0010
0100
0100
1000
0010
0010
0100
,
1000
0010
0100
0100
1000
0010
0010
0001
1000
0010
0100
0100
1000
0010
0010
0001
,
0100
0100
1000
0001
0100
0100
0010
0001
1MM0
0001
1000
0001
1000
0001
1000
0001
,
0100
0001
0100
0010
1000
0001
0010
0100
1000
0100
0010
0001
0010
0100
1000
0001
,
1000
0010
0100
0010
1000
0001
0010
0001
1000
0010
1000
0001
0010
0100
1000
0010
,
1000
0010
0100
0001
1000
0010
1000
0001
0010
0010
0010
0010
0010
0010
0010
0010
,
0M10
0001
1000
0010
0100
0000
0001
0010
0100
1000
0001
0000
1000
0001
1000
0001
,
0100
0010
1000
0010
0100
0001
1000
0001
0100
0010
0001
0010
0100
0001
1000
0001
,
0010
0100
1000
0100
0010
0001
0100
0010
0001
0010
0100
0001
1000
0001
0010
0100
,
0001
0100
0010
0001
1000
0001
0100
0010
0001
0010
0100
0001
1000
0001
0010
0100
,
0001
0100
1000
0001
0100
0010
1000
0100
0001
1000
0001
0100
0010
0001
1000
0010
,
0100
0001
1000
0001
0100
0010
1000
0001
0100
0010
0001
1000
0100
0010
1000
0001
,
1000
0100
0010
0100
1000
0001
0100
0010
0001
1000
0100
0010
0100
0001
1000
0001
,
1000
0100
0010
0001
1000
0100
0010
1000
0010
0100
1000
0001
1000
0010
0100
0010
,
0001
0010
0100
0001
1000
0001
0100
0010
1000
0001
0010
0001
1000
0100
0010
1000
,
0001
0100
0001
0100
0001
0100
0010
0001
0010
0001
0010
0001
1000
0010
1000
0010
,
1000
0001
0100
0010
0001
0010
0100
0010
0001
0010
0100
0001
0100
0001
1000
0100
,
0001
0100
0010
0001
1000
0010
0100
0001
1000
0001
0100
0010
1000
0001
0010
0100
,
1000
0100
0010
0001
1000
0001
0100
0010
1000
0010
0100
0001
0010
0100
1000
0001
,
0100
0010
1000
0010
0100
0001
0010
0100
1000
0100
0010
0001
0100
0010
1000
0001
,
1000
0100
0010
0100
1000
0001
0010
0100
0001
0100
0010
0001
1000
0010
0100
1000
,
0100
1000
0100
0010
1000
0001
1000
0100
0001
0100
0010
0001
1000
0001
0010
0100
,
0001
0100
0010
0001
1000
0001
0100
0010
0001
0010
0100
0001
1000
0001
0010
0100
,
0010
0001
1000
0010
0100
0001
0010
0100
0001
1000
0001
1000
0001
1000
0001
1000
,
0010
0100
1000
0001
0010
0001
1000
0010
0100
0001
1000
0001
0100
0010
1000
0001
,
1000
0000
0000
0000
;
