#TITLE:He Was Alone;
#SUBTITLE:;
#ARTIST:DJ Sharpnel;
#TITLETRANSLIT:;
#SUBTITLETRANSLIT:;
#ARTISTTRANSLIT:;
#CREDIT:;
#BANNER:he was alone bn.png;
#BACKGROUND:he was alone bg.png;
#LYRICSPATH:;
#CDTITLE:;
#MUSIC:he was alone.ogg;
#OFFSET:0.010;
#SAMPLESTART:161.142;
#SAMPLELENGTH:18.285;
#SELECTABLE:YES;
#DISPLAYBPM:210.000;
#BPMS:0.000=210.000;
#STOPS:;
#BGCHANGES:;
// cache tags:
#FIRSTBEAT:32.000;
#LASTBEAT:701.750;
#SONGFILENAME:Songs/SHARPNELSTREAMZ v2/He Was Alone/he was alone.sm;
#HASMUSIC:1;
#HASBANNER:1;
#MUSICLENGTH:201.923;
// end cache tags

//---------------dance-single - 15 (TYLR)----------------
#NOTES:
     dance-single:
     15 (TYLR):
     Challenge:
     15:
     1.000,1.000,0.253,0.233,1.000,1436.000,51.000,47.000,102.000,0.000:
0000
0000
0000
0000
,
0000
0000
0000
0000
,
0000
0000
0000
0000
,
0000
0000
0000
0000
,
0000
0000
0000
0000
,
0000
0000
0000
0000
,
0000
0000
0000
0000
,
0000
0000
0000
0000
,
1001
0000
0000
1001
0000
0000
00M0
0000
,
1100
0000
0000
1100
0000
0000
0M00
0000
,
0011
0000
0000
0011
0000
0000
M000
0000
,
0101
0000
0000
0101
0000
0000
00M0
0000
,
1001
0000
0000
1001
0000
0000
0M00
0000
,
1010
0000
0000
1010
0000
0000
0M00
0000
,
0011
0000
0000
0011
0000
0000
M000
0000
,
0110
0000
0000
0110
0000
0000
000M
0000
,
1001
0000
0000
1001
0000
0000
0M00
0000
,
1010
0000
0000
0404
0000
0303
00M0
0000
,
1001
0000
0000
1001
0000
0000
0M00
0000
,
0011
0000
0000
0011
0000
0000
M000
0000
,
1010
0000
0000
1010
0000
0000
000M
0000
,
1100
0000
0000
1100
0000
00M0
0000
0000
,
1001
0000
0000
1001
0000
0000
0M00
0000
,
0110
0000
0000
2002
0000
3003
2002
3003
,
1100
0000
0000
1100
0000
0000
00M0
0000
,
1001
0000
0000
1001
0000
0000
0M00
0000
,
1010
0000
0000
1010
0000
0000
000M
0000
,
0110
0000
0000
0110
0000
0000
M000
0000
,
0101
0000
0000
0101
0000
0000
M000
0000
,
1100
0000
0000
1100
0000
0000
00M0
0000
,
1001
0000
0000
1001
0000
0000
0M00
0000
,
1010
0000
0000
1010
0000
0000
000M
0000
,
1001
0000
0000
0000
,
1001
0000
0001
0000
0010
0000
0100
1000
0000
0100
1000
0000
0001
1000
0100
0000
,
0010
0000
0001
0000
1000
0000
0001
0100
0000
0001
0100
0000
0010
1000
0001
0000
,
1000
0000
0100
0000
0010
0000
0001
1000
0000
0001
1000
0000
0001
0100
0010
0000
,
1000
0000
0001
0000
0010
0000
0100
1000
0000
0100
1000
0000
0001
1000
0100
0000
,
0010
0000
0001
0000
1000
0000
0001
0100
0000
0001
0100
0000
0010
1000
0001
0000
,
1000
0000
0100
0000
0010
0000
0100
1000
0000
0100
1000
0000
0001
0100
0010
0000
,
1000
0000
0001
0000
0010
0000
0001
1000
0000
0001
1000
0000
0001
0100
0010
0000
,
1000
0000
1000
0001
0010
0000
0010
0100
1000
0000
1000
0000
0001
0100
0001
0100
,
0010
0000
1000
0000
0100
0000
0010
0001
1000
0001
0010
0000
0100
1000
0100
0000
,
0010
0000
0001
0000
1000
0000
0010
1000
0001
1000
0010
0000
0100
0001
0100
0000
,
0010
0000
1000
0000
0100
0000
1000
0001
0100
0001
1000
0000
0100
1000
0100
0000
,
0010
0000
0001
0000
0100
0000
0001
1000
0100
1000
0001
0000
0100
0001
0100
0000
,
0010
0000
1000
0000
0001
0000
0010
0100
1000
0100
0010
0000
0001
1000
0010
0000
,
0100
0000
0001
0000
1000
0000
0001
0010
0100
0010
0001
0000
1000
0001
0100
0000
,
0010
0000
1000
0000
0100
0000
1000
0001
0100
0001
1000
0000
0100
0010
0001
0000
,
1000
0000
0000
0000
0000
0000
1000
0000
0000
0001
0000
0000
0100
0000
0000
0000
0000
0000
0100
0000
0000
0010
0000
0000
1000
0000
0000
0000
0000
0000
1000
0000
0000
0000
0000
0000
0001
0000
0000
0000
0000
0000
1000
0000
0100
0000
1000
0000
,
0100
0000
0010
0000
0001
0000
0010
0100
1000
0001
1000
0100
0010
0001
1000
0000
,
0001
0000
0100
0000
0010
0000
1000
0010
0100
0001
1000
0001
0100
0010
1000
0000
,
0001
0000
1000
0000
0100
0000
1000
0001
0010
0100
1000
0100
0010
0001
1000
0000
,
0001
0000
0100
0000
0010
0000
1000
0010
0100
0001
1000
0001
0100
0010
1000
0000
,
0001
0000
0010
0000
0100
0000
1000
0100
0010
0001
1000
0001
0100
0010
1000
0000
,
0001
0000
1000
0000
0100
0000
0010
0001
1000
0001
0010
0100
1000
0001
0100
0000
,
0010
0000
1000
0000
0001
0000
1000
0010
0100
0001
1000
0100
0010
0001
1000
0000
,
0001
0000
0001
0100
0010
0000
0010
1000
0001
0000
0001
0000
0010
0100
0010
0100
,
1000
0000
0100
0000
0010
0000
0100
1000
0001
1000
0001
0100
0010
1000
0001
0000
,
1000
0000
0010
0000
0100
0000
0001
1000
0001
0010
0001
1000
0010
0100
0001
0000
,
1000
0000
0001
0000
0010
0000
0100
1000
0001
0100
0001
1000
0100
0010
0001
0000
,
1000
0000
0001
0000
0100
0000
0010
1000
0001
0010
0001
1000
0010
0100
0001
0000
,
0010
0000
0100
0000
1000
0000
0100
0010
0001
1000
0001
0100
0010
1000
0001
0000
,
1000
0000
0100
0000
0010
0000
0001
1000
0001
0100
0001
1000
0100
0010
0001
0000
,
1000
0000
0001
0000
0100
0000
0010
1000
0001
0010
0001
1000
0010
0100
0001
0000
,
1000
0000
0000
0000
0000
0000
1000
0000
0000
0100
0000
0000
0010
0000
0000
0000
0000
0000
0010
0000
0000
0001
0000
0000
1000
0000
0000
0000
0000
0000
1000
0000
0000
0000
0000
0000
1000
0000
0000
0000
0000
0000
0001
0000
1000
0000
0001
0000
,
2000
0000
0000
3002
,
0203
0302
0003
0000
,
2000
0000
0000
3002
,
0203
0000
0000
0000
0302
0000
0000
0000
0003
0000
0000
0000
2000
3000
2000
3000
,
0002
0000
0000
0000
0203
0000
0000
0000
0301
0000
0000
0000
2000
3000
2000
3000
,
0002
0203
0301
0020
,
0230
0320
0000
0032
,
0023
0000
0000
0000
,
0032
0100
0010
2003
,
3020
2030
3001
0010
,
0002
0100
0010
2003
,
3020
0000
0000
0000
2030
0000
0000
0000
3001
0000
0000
0000
2000
3000
2000
3000
,
0020
0000
0000
0000
2030
0000
0000
0000
3100
0000
0000
0000
2000
3000
2000
3000
,
0020
2030
3100
2000
,
3020
0230
0302
10M0
,
2000
0000
3003
0000
,
1000
0100
0010
0001
1000
0001
0100
0010
0100
0001
1000
0001
0100
0010
1000
0001
,
1000
0010
0100
0001
1000
0001
0010
0100
0010
0001
1000
0001
0010
0100
1000
0001
,
1000
0100
0010
0001
1000
0001
0100
0010
0100
0001
1000
0001
0100
0010
1000
0001
,
1000
0010
0100
0001
1000
0001
0010
0100
0010
0001
1000
0001
0010
0100
1000
0001
,
1000
0100
0010
0001
1000
0001
0100
0010
0100
0001
1000
0001
0100
0010
1000
0001
,
1000
0010
0100
0001
1000
0001
0010
0100
0010
0001
1000
0001
0010
0100
1000
0001
,
1000
0000
0001
0000
0100
0000
0010
1000
0001
1000
0010
0000
0100
0000
0001
0000
,
1000
0000
1000
0100
0010
0000
0010
0001
0100
0000
0100
0000
0010
1000
0010
1000
,
0001
0010
0100
1000
0001
1000
0010
0100
0010
1000
0001
1000
0010
0100
0001
1000
,
0001
0100
0010
1000
0001
1000
0100
0010
0100
1000
0001
1000
0100
0010
0001
1000
,
0001
0010
0100
1000
0001
1000
0010
0100
0010
1000
0001
1000
0010
0100
0001
1000
,
0001
0100
0010
1000
0001
1000
0100
0010
0100
1000
0001
1000
0100
0010
0001
1000
,
0001
0010
0100
1000
0001
1000
0010
0100
0010
1000
0001
1000
0010
0100
0001
1000
,
0001
0100
0010
1000
0001
1000
0100
0010
0100
1000
0001
1000
0100
0010
0001
1000
,
0001
0000
1000
0000
0010
0000
0100
0001
1000
0001
0100
0000
0010
0000
1000
0000
,
0001
0000
0001
0010
0100
0000
0100
1000
0010
0000
0010
0000
0100
0001
0100
0001
,
1000
0100
0010
0001
1000
0001
0100
0010
0100
0001
1000
0001
0100
0010
1000
0001
,
1000
0010
0100
0001
1000
0001
0010
0100
0010
0001
1000
0001
0010
0100
1000
0001
,
1000
0100
0010
0001
1000
0001
0100
0010
0100
0001
1000
0001
0100
0010
1000
0001
,
1000
0010
0100
0001
1000
0001
0010
0100
0010
0001
1000
0001
0010
0100
1000
0001
,
1000
0100
0010
0001
1000
0001
0100
0010
0100
0001
1000
0001
0100
0010
1000
0001
,
1000
0010
0100
0001
1000
0001
0010
0100
0010
0001
1000
0001
0010
0100
1000
0001
,
1000
0000
0001
0000
0100
0000
0010
1000
0001
1000
0010
0000
0100
0000
0001
0000
,
1000
0000
1000
0100
0010
0000
0010
0001
0100
0000
0100
0000
0010
1000
0010
1000
,
0001
0010
0100
1000
0001
1000
0010
0100
0010
1000
0001
1000
0010
0100
0001
1000
,
0001
0100
0010
1000
0001
1000
0100
0010
0100
1000
0001
1000
0100
0010
0001
1000
,
0001
0010
0100
1000
0001
1000
0010
0100
0010
1000
0001
1000
0010
0100
0001
1000
,
0001
0100
0010
1000
0001
1000
0100
0010
0100
1000
0001
1000
0100
0010
0001
1000
,
0001
0010
0100
1000
0001
1000
0010
0100
0010
1000
0001
1000
0010
0100
0001
1000
,
0001
0100
0010
1000
0001
1000
0100
0010
0100
1000
0001
1000
0100
0010
0001
1000
,
0001
0000
1000
0000
0010
0000
0100
0001
1000
0001
0100
0000
0010
0000
1000
0000
,
0001
0000
0001
0010
0100
0000
0100
1000
0010
0000
0010
0000
0100
0001
0100
0001
,
2000
0000
0000
0000
,
300M
0000
0000
0000
,
0000
000M
0000
0000
0000
0000
0000
0000
0000
0000
0000
0000
0000
0000
0000
0000
0000
0000
0000
0000
0000
0000
0000
0000
0000
0000
0000
0000
0000
0000
0000
0000
,
0000
00M0
0000
0000
0000
0000
0000
0000
0000
0000
0000
0000
0000
0000
0000
0000
0000
0000
0000
0000
0000
0000
0000
0000
0000
0000
0000
0000
0000
0000
0000
0000
,
0000
00M0
0000
0000
0000
0000
0000
0000
0000
0000
0000
0000
0000
0000
0000
0000
0000
0000
0000
0000
0000
0000
0000
0000
0000
0000
0000
0000
0000
0000
0000
0000
,
0000
0M00
0000
0000
0000
0000
0000
0000
0000
0000
0000
0000
0000
0000
0000
0000
,
0000
0M00
0000
0000
0000
0000
0000
0000
,
M000
0000
000M
0000
,
0M00
0000
00M0
0000
,
M000
0000
0M00
0000
,
000M
0000
0M00
0000
,
00M0
0000
M000
0000
,
0M00
0000
000M
0000
,
00M0
0000
M000
0000
,
000M
0000
0M00
0000
,
00M0
0000
M000
0000
,
0M00
0000
000M
0000
,
00M0
0000
M000
0000
,
000M
0000
0M00
0000
,
00M0
0000
M000
0000
,
000M
0000
00M0
0000
,
0M00
0000
M000
0000
,
00M0
0000
0000
0000
0000
0000
0000
0000
000M
0000
0000
MMM0
0000
0000
0000
0000
,
M000
0000
00M0
0000
,
0000
0000
0000
0000
0000
0000
0000
0000
0000
0000
0000
0000
0000
0000
0000
0000
0000
0000
00MM
0000
0000
0000
0000
MM00
,
0000
0000
0000
0000
0M0M
0000
0000
0000
M00M
0000
0000
0000
0000
0000
0000
M0M0
0000
0000
0000
0000
0000
0000
0000
MM00
,
0000
M00M
0000
0000
,
0000
0000
0000
0000
0000
0000
0000
MMMM
0000
0000
0000
0000
0000
0000
0000
0000
,
0001
1000
0100
0010
0001
1000
0001
0100
0010
0100
0001
1000
0010
1000
0001
1000
,
0100
0010
0001
1000
0001
0100
0010
1000
0001
1000
0010
0100
0001
1000
0001
0010
,
0100
1000
0001
0010
0001
1000
0001
0100
0010
0100
0001
1000
0010
1000
0001
1000
,
0100
0010
0001
1000
0010
1000
0001
0010
0100
0010
0001
1000
0001
0100
0010
1000
,
0001
1000
0100
0010
0001
1000
0001
0100
0010
0100
0001
1000
0010
1000
0001
1000
,
0100
0010
0001
1000
0001
0100
0010
1000
0001
1000
0010
0100
0001
1000
0001
0010
,
0100
1000
0001
0010
0001
1000
0001
0100
0010
0100
0001
1000
0010
1000
0001
1000
,
0100
0000
0100
0010
0001
0000
0001
1000
0010
0000
0010
0000
0100
0001
0100
0001
,
1000
0001
0010
0100
1000
0001
1000
0010
0100
0010
1000
0001
0100
0001
1000
0001
,
0010
0100
1000
0001
1000
0010
0100
0001
1000
0001
0100
0010
1000
0001
1000
0100
,
0010
0001
1000
0100
1000
0001
1000
0010
0100
0010
1000
0001
0100
0001
1000
0001
,
0010
0100
1000
0001
0100
0001
1000
0100
0010
0100
1000
0001
1000
0010
0100
0001
,
1000
0001
0010
0100
1000
0001
1000
0010
0100
0010
1000
0001
0100
0001
1000
0001
,
0010
0100
1000
0001
1000
0010
0100
0001
1000
0001
0100
0010
1000
0001
1000
0100
,
0010
0001
1000
0100
1000
0001
1000
0010
0100
0010
1000
0001
0100
0001
1000
0001
,
0010
0000
0010
0100
1000
0000
1000
0001
0100
0000
0100
0000
0010
1000
0010
1000
,
0001
1000
0100
0010
0001
1000
0001
0100
0010
0100
0001
1000
0010
1000
0001
1000
,
0100
0010
0001
1000
0001
0100
0010
1000
0001
1000
0010
0100
0001
1000
0001
0010
,
0100
1000
0001
0010
0001
1000
0001
0100
0010
0100
0001
1000
0010
1000
0001
1000
,
0100
0010
0001
1000
0010
1000
0001
0010
0100
0010
0001
1000
0001
0100
0010
1000
,
0001
1000
0100
0010
0001
1000
0001
0100
0010
0100
0001
1000
0010
1000
0001
1000
,
0100
0010
0001
1000
0001
0100
0010
1000
0001
1000
0010
0100
0001
1000
0001
0010
,
0100
1000
0001
0010
0001
1000
0001
0100
0010
0100
0001
1000
0010
1000
0001
1000
,
0100
0000
0100
0010
0001
0000
0001
1000
0010
0000
0010
0000
0100
0001
0100
0001
,
1000
0001
0010
0100
1000
0001
1000
0010
0100
0010
1000
0001
0100
0001
1000
0001
,
0010
0100
1000
0001
1000
0010
0100
0001
1000
0001
0100
0010
1000
0001
1000
0100
,
0010
0001
1000
0100
1000
0001
1000
0010
0100
0010
1000
0001
0100
0001
1000
0001
,
0010
0100
1000
0001
0100
0001
1000
0100
0010
0100
1000
0001
1000
0010
0100
0001
,
1000
0001
0010
0100
1000
0001
1000
0010
0100
0010
1000
0001
0100
0001
1000
0001
,
0010
0100
1000
0001
1000
0010
0100
0001
1000
0001
0100
0010
1000
0001
1000
0100
,
0010
0001
1000
0100
1000
0001
1000
0010
0100
0010
1000
0001
0100
0001
1000
0001
,
0010
0000
0000
0100
0000
0000
1000
0000
0000
0010
0000
0000
0100
0000
0000
0001
0000
0000
1000
0000
0000
0100
0000
0000
0010
0000
0000
0001
0000
0000
0100
0000
0000
0010
0000
0000
100M
0000
0000
0000
0000
0000
0000
0000
0000
0000
0MM0
0000
,
0000
0000
0000
0000
M00M
0000
0000
0000
0MM0
0000
0000
0000
0000
0000
0000
M0M0
0000
0000
0000
0000
0000
0000
0000
0M0M
,
0000
MM00
0000
0000
,
0000
0000
0000
0000
0000
0000
0000
MMMM
0000
0000
0000
0000
0000
0000
0000
0000
;
