#TITLE:桜;
#SUBTITLE:(Summer Festival Remix);
#ARTIST:byakko_of_the_west;
#TITLETRANSLIT:Sakura;
#SUBTITLETRANSLIT:;
#ARTISTTRANSLIT:;
#CREDIT:;
#BANNER:;
#BACKGROUND:;
#LYRICSPATH:;
#CDTITLE:;
#MUSIC:Sakura (Summer Festival Remix).ogg;
#OFFSET:0.000;
#SAMPLESTART:42.799;
#SAMPLELENGTH:12.000;
#SELECTABLE:YES;
#BPMS:0.000=150.000,92.000=138.000,93.000=127.000,94.000=116.000,95.000=100.000,95.500=69.000,96.000=62.500,100.000=300.000,148.000=300.200,164.000=300.100,228.000=320.000,324.000=300.000,326.000=275.000,328.000=250.000,330.000=225.000,331.000=200.000,332.000=141.000,332.500=130.000,333.000=120.000,333.500=109.000,334.000=99.000,334.500=89.000,335.000=63.000;
#STOPS:;
#BGCHANGES:;
// cache tags:
#FIRSTBEAT:0.000;
#LASTBEAT:335.000;
#SONGFILENAME:Songs/toune 2/Sakura (Summer Festival Remix)/Sakura (Summer Festival Remix).sm;
#HASMUSIC:1;
#HASBANNER:0;
#MUSICLENGTH:93.277;
// end cache tags

//---------------dance-single - ----------------
#NOTES:
     dance-single:
     :
     Challenge:
     9:
     0.669,0.763,0.322,0.000,0.118,407.000,30.000,0.000,0.000,0.000:
1000
0001
1000
0010
1000
0100
1000
0010
,
0100
0001
0100
0010
0100
1000
0100
1000
,
0010
0001
0010
1000
0010
0100
0010
0100
,
0001
0010
0001
1000
0001
0100
0001
0010
,
0100
1000
0100
0001
0100
0010
0100
1000
,
0010
0100
0010
1000
0010
0001
0010
1000
,
0001
0100
0001
1000
0001
0010
0001
0100
,
1000
0010
1000
0100
1000
0001
1000
0100
,
0010
0000
0000
1001
0000
0000
0010
0000
1001
0000
0000
0001
,
0010
0000
0010
0000
0000
1000
0001
0000
0001
0010
0000
0010
,
1000
0000
0000
1100
0000
0000
1000
0000
1100
0000
0000
0010
,
0000
0000
0010
0100
0000
0010
0001
0000
0010
1000
0000
0000
,
0001
0000
0000
0110
0000
0000
0001
0000
0110
0000
0000
0010
,
1000
0000
0100
0000
0000
0001
1000
0000
1000
0100
0000
0100
,
0010
0000
0000
0101
0000
0000
0010
0000
0101
0000
0000
1000
,
0000
0000
1000
0100
0000
1000
0010
0000
0000
1001
0000
0000
,
0010
0100
0010
0001
0010
1000
0010
0001
,
1000
0010
0100
0010
1000
0100
0001
0100
,
1000
0010
0001
0010
1000
0100
0010
0100
,
1000
0001
0010
0001
0100
0010
0100
0001
,
0010
1000
0001
1000
0010
0100
0001
0100
,
0010
1000
0100
0001
0100
1000
0010
1000
,
0100
0001
0100
1000
0010
1000
0100
0001
,
0010
0001
0100
1000
0100
0001
0010
0001
,
0100
0000
0000
0000
0100
0000
0000
0000
0000
0000
0000
0000
,
1000
0000
0000
0001
0000
0000
0000
0000
,
1000
0000
0010
0000
1000
0000
0010
0001
,
1000
0000
0000
0110
0000
0000
0000
0000
,
0001
0000
0010
0000
0001
0000
0010
1000
,
0001
0000
0000
1001
0000
0000
0000
0000
,
1000
0100
0001
0100
,
0001
0000
0000
1001
0000
0000
0110
0000
,
0000
1100
0000
0000
0101
0000
0001
0000
,
0100
0010
1000
0010
,
0100
0001
1000
0001
,
0100
0010
0001
0010
,
0100
0000
0000
0000
,
0100
0001
1000
0001
,
0100
0010
1000
0010
,
0100
1000
0010
1000
,
0100
0001
1001
0000
,
0010
1000
0010
1000
,
0010
0001
0010
0001
,
0010
1000
0100
1000
,
0010
0001
1000
0001
,
0010
1000
0100
1000
,
0010
0100
0001
0100
,
0010
1000
0001
1000
,
0010
0100
0010
0100
,
0010
1000
0010
1000
,
0010
0100
1000
0100
,
0010
0001
0010
0001
,
0010
0100
0001
0100
,
0010
1000
0100
1000
,
0010
0100
0001
0100
,
0010
0001
1001
1100
,
0101
0110
1001
1001
,
0010
1000
0010
0000
0000
0000
0001
0000
,
1000
0000
0101
1000
,
0010
0001
0010
0000
0000
0000
1000
0000
,
0100
0000
1001
0000
,
0001
0100
1000
0100
,
1000
0010
0001
0010
,
0100
0001
1000
0100
,
0010
0001
1000
0010
,
0100
0010
0001
0010
0100
0000
0100
0000
,
1001
0000
1001
0000
,
0010
1000
0001
0000
0000
0100
1000
0000
,
0010
0000
0101
0000
,
0010
0001
0100
0000
0000
0010
1000
0000
,
0100
0000
0011
0000
,
0100
1000
0010
0100
,
0001
1000
0100
0010
,
1000
0100
0001
0010
,
0100
0010
1000
0100
,
0001
0100
0001
0100
,
1000
0100
1000
0010
,
0100
0001
0010
1000
,
0001
0100
1000
0010
,
0100
0000
0000
0101
0000
0000
0001
1000
,
0001
0000
0000
0110
0000
0000
1000
0001
,
0100
0010
1000
0010
0001
0010
0001
0100
,
1000
0010
0100
0001
0100
0001
0010
1000
,
0010
0100
0001
0010
1000
0100
0001
0000
;

//---------------dance-single - ----------------
#NOTES:
     dance-single:
     :
     Hard:
     10:
     0.754,0.943,0.343,0.000,0.284,460.000,32.000,0.000,0.000,0.000:
1000
0000
0010
0000
0001
0000
0100
0010
1000
0000
0001
0100
1000
0000
0010
0000
,
0001
0000
0100
0000
1000
0000
0010
0100
0001
0000
0010
1000
0100
0000
0010
0000
,
0001
0000
0000
0001
0010
0000
0000
0010
1000
0000
0000
1000
0001
0000
0000
0001
,
0010
0100
0010
1000
0001
0010
1000
0100
,
0010
0000
1000
0000
0100
0000
0001
0010
1000
0000
0001
0100
1000
0000
0010
0000
,
0100
0000
0001
0000
0010
0000
1000
0100
0010
0000
0100
0001
1000
0000
0010
0000
,
0100
0000
0000
0100
0001
0000
0000
0001
0010
0000
0000
0010
1000
0000
0000
1000
,
0100
0010
0001
0100
1000
0010
0100
0010
,
0001
0000
0010
0001
0000
1000
0001
0000
0101
0000
0000
0100
,
1000
0000
0010
0001
0000
0010
1000
0000
0100
0010
0000
0010
,
0001
0000
0001
1000
0000
0100
0010
0000
1001
0000
0000
0010
,
0100
0000
0010
0001
0000
0100
1000
0000
0100
0001
0010
0100
,
1000
0000
0100
0001
0000
0010
1000
0000
0011
0000
0000
0100
,
1000
0000
0010
0001
0000
0100
0001
0000
0010
1000
0000
0100
,
0001
0000
0010
0100
0000
0010
0001
0000
1010
0000
0000
0100
,
0001
0000
0010
1000
0000
0100
1000
0000
0100
0001
0100
0010
,
1000
0001
1001
0100
0001
0100
0010
0100
,
1000
0010
0110
0001
0010
1000
0100
0001
,
0100
0001
0011
1000
0010
0100
0010
1000
,
0100
0001
0010
0001
0010
0100
0010
1000
,
0001
0100
0010
0100
1000
0100
0001
0100
,
0010
1000
0100
1000
0001
0100
0010
0100
,
1000
0100
1000
0100
0001
0100
0001
0010
,
1000
0000
0100
0000
0001
0000
0100
0000
0010
0001
0100
1000
0001
0000
0010
0000
,
1000
0000
0000
0010
1001
0000
0000
0000
0000
0000
0000
0000
,
0110
0000
0000
1001
0000
0000
0010
0000
,
1000
0000
0100
0000
0001
0000
0100
1000
,
0010
0000
0000
1100
0000
0000
0010
0000
,
1000
0000
0010
0000
0100
0000
0001
0010
,
1000
0000
0000
0101
0000
0000
1000
0000
,
0100
0000
0001
0000
0100
0000
0010
1000
,
0001
0000
0000
0110
0000
0000
1000
0001
,
1000
0001
1000
0000
0100
0010
0100
0000
,
0010
1000
0100
0001
,
0100
0010
1000
0001
,
0100
0010
1000
0100
,
0010
0000
0000
0000
,
1000
0010
0100
0001
,
0010
1000
0100
0001
,
0100
0001
1000
0010
,
0100
0000
0001
1000
0010
0000
0100
0000
,
1000
0010
0100
0001
,
0010
0100
1100
0010
,
0100
0010
1000
0001
,
0100
0010
1001
0100
,
0010
1000
0001
0100
,
0010
1000
0100
0001
,
0010
0100
1000
0010
,
0100
0000
0011
0000
1100
0000
1000
0010
,
0001
0100
0010
1000
,
0001
0100
1010
1000
,
0100
0001
0010
1000
,
0010
1000
0011
0100
,
0010
1000
0010
0100
,
0001
1000
0010
0100
,
0001
0100
1000
0010
,
0100
1001
0110
0110
,
0001
1000
0100
0000
0000
0010
1000
0000
,
0100
0010
1001
0000
,
0010
0001
0100
0000
0000
0010
1000
0000
,
0100
0001
1010
0000
,
0010
1000
0000
0000
0010
0001
0000
0000
,
0100
1000
0000
0000
0100
0001
0000
0000
,
0010
1000
0001
1000
0010
0000
0100
0000
,
1000
0101
0011
1000
,
0100
0010
1000
0010
0100
0001
0000
0010
,
1000
0001
0110
0000
,
1000
0100
0001
0000
0000
0100
1000
0000
,
0010
0100
1001
0000
,
0010
0001
1000
0000
0010
1000
0100
0000
,
0100
0010
0001
0000
0100
0001
1000
0000
,
0010
0100
0001
1000
,
0010
0100
0010
0001
,
0100
1000
0010
0100
,
0001
0010
1000
0100
,
0010
1000
0100
0001
,
0100
0001
0010
1000
,
0010
0001
0100
0000
1000
0000
0100
0000
,
1000
0010
0100
0001
,
0110
0000
0000
1001
0000
0000
0001
1000
,
0100
0000
0000
0011
0000
0000
0001
0010
,
1000
0100
0001
0100
0010
1000
0100
0001
,
0100
0010
1000
0010
1000
0100
0001
0100
,
0010
0001
0010
0001
0100
1000
1001
0000
;

//---------------dance-single - ----------------
#NOTES:
     dance-single:
     :
     Medium:
     7:
     0.512,0.539,0.193,0.075,0.043,309.000,18.000,7.000,0.000,0.000:
1000
0100
0001
0100
,
1000
0010
0001
0010
,
1000
0100
0001
0100
,
1000
1000
0001
0010
0000
0100
1000
0001
,
0001
0100
1000
0100
,
0001
0010
1000
0010
,
0001
0100
1000
0100
,
0001
0001
0100
1000
0000
0001
0010
1000
,
2000
0000
0000
3100
0000
0000
0100
0000
1001
0000
0000
0000
,
0010
0000
0000
0000
0000
0010
1000
0000
0000
0100
0000
0000
,
0002
0000
0000
0013
0000
0000
0010
0000
1001
0000
0000
0000
,
0100
0000
0000
0000
0000
0100
0001
0000
0000
0010
0000
0000
,
2000
0000
0000
3100
0000
0000
0100
0000
1001
0000
0000
0000
,
0010
0000
0000
0000
0000
0010
1000
0000
0000
0100
0000
0000
,
0002
0000
0000
0013
0000
0000
0010
0000
1001
0000
0000
0000
,
0100
0000
0000
0000
0000
0100
0001
0000
0000
0010
0000
0000
,
1000
0100
1000
0100
1000
0000
0000
0001
,
0100
0000
0101
0000
0000
0000
0000
0001
,
0100
0101
0100
1000
,
0100
0001
0010
0001
,
0100
1000
0010
1000
,
0100
0001
1000
0001
,
0100
0010
0001
0010
,
0100
0000
0010
0000
0100
0010
0001
0100
,
1000
0000
0000
0000
,
0001
0000
0000
0001
0000
0000
0000
0000
,
1000
0100
1000
0100
,
0001
0000
0000
0001
0000
0000
0000
0000
,
1000
0100
1000
0010
,
0001
0000
0000
0001
0000
0000
0000
0000
,
1000
0100
1000
0010
,
0001
0000
0000
0010
0000
0000
0100
0000
,
0000
1000
0000
0000
1001
0000
0000
0000
,
0100
0001
0100
0001
,
0100
1000
0100
1000
,
0100
0010
1000
0010
,
0100
0000
0000
0000
,
0100
1000
0100
1000
,
0100
1000
0001
1000
,
0100
0001
0100
0001
,
0100
0001
0010
0001
,
0100
1000
0010
1000
,
0100
0001
0100
0001
,
0100
1000
0100
1000
,
0100
0010
0100
0010
,
0100
1000
0100
1000
,
0100
0001
0100
0001
,
0100
1000
0001
1000
,
0100
0000
0001
0000
0010
0000
0001
1000
,
0100
0001
0010
0001
,
0100
1000
0001
1000
,
0100
1000
0010
1000
,
0100
0001
1000
0001
,
0010
0100
1000
0100
,
0010
0001
0010
0100
,
1000
0100
0010
0001
,
0010
1000
0100
1000
,
0001
1000
0001
0000
0000
0000
0010
0000
,
0010
0000
1001
0000
,
1000
0001
1000
0000
0000
0000
0010
0000
,
0010
0000
1001
0000
,
0001
0001
0010
0010
,
0100
0100
1000
1000
,
0010
0010
0100
0100
,
0001
0001
1000
1000
,
0220
0000
0000
0000
,
0330
0000
1001
0000
,
0010
0100
0010
0000
0000
0000
1000
0000
,
0001
0000
1001
0000
,
1000
1000
0010
0010
,
0100
0100
0001
0001
,
1001
0000
0110
0000
,
1001
0000
0110
0000
,
1000
0100
0001
0100
,
0001
0010
0001
0010
,
1000
0100
0001
0100
,
1000
0001
0010
0001
,
1000
0100
0010
0100
,
1000
0001
0100
0001
,
0100
0000
0000
1001
0000
0000
0100
0000
,
0100
0000
0000
1001
0000
0000
0100
0000
,
0200
0000
0000
0000
,
0000
0000
0000
0000
0000
0000
0000
0300
,
0100
0100
0001
0100
1000
0100
0001
0000
;

//---------------dance-single - ----------------
#NOTES:
     dance-single:
     :
     Easy:
     5:
     0.449,0.449,0.021,0.096,0.000,282.000,2.000,9.000,0.000,0.000:
1000
0010
0001
0010
,
1000
0100
0001
0100
,
1000
0010
0001
0010
,
1000
0100
1000
0100
,
1000
0100
0001
0100
,
1000
0010
0001
0010
,
1000
0100
0001
0100
,
1000
0010
1000
0010
,
2000
0000
3100
0000
,
0200
0301
0002
1003
,
0020
0000
0130
1001
,
1000
0010
0100
0001
,
2000
0000
3001
0000
,
0020
0031
2000
3001
,
0200
0000
0301
1001
,
0010
1000
0100
0001
,
0010
0010
0010
0000
1000
0000
0001
0000
,
1000
0010
0100
0010
,
1000
0100
0010
0001
,
1000
0100
0010
0100
,
1000
0010
0100
0010
,
1000
0001
1000
0010
,
0100
0001
0100
0010
,
0100
0100
0100
0100
,
0100
0000
0000
0000
,
0010
0000
0000
0010
0000
0000
0000
0000
,
1000
0001
1000
0100
,
0001
0000
0000
0001
0000
0000
0000
0000
,
0010
1000
0001
0010
,
1000
0000
0000
1000
0000
0000
0000
0000
,
0010
0100
0001
1000
,
0100
0000
0000
0100
0000
0000
0010
0000
,
0000
0010
0000
0000
1000
0000
0000
0000
,
1000
0010
0100
0010
,
1000
0000
0100
0000
,
1000
0001
0010
0001
,
1000
0000
0010
0000
,
1000
0100
0001
0100
,
1000
0000
0001
0000
,
1000
0010
0001
0010
,
1000
0000
0100
0000
,
1000
0010
0100
0010
,
1000
0100
0001
0000
,
0010
1000
0100
1000
,
0010
0001
0010
0000
,
0001
0100
1000
0100
,
0001
1000
0100
0010
,
0001
0100
0010
1000
,
0001
1000
0001
1000
,
0001
0000
0100
0000
,
0001
0010
1000
0010
,
0001
0000
1000
0000
,
0001
0010
0100
0010
,
0001
0000
0010
0000
,
0001
0000
1000
0000
,
0100
0000
1000
0000
,
0010
0000
0100
0000
,
0001
0001
0000
1000
,
0100
0100
1000
0010
,
1000
1000
0000
0100
,
0010
0010
0100
1000
,
0100
0100
0000
0001
,
0010
0010
0001
1000
,
0001
0001
0010
0100
,
1000
1000
0100
0010
,
0002
0000
0000
0000
,
1003
1000
0000
0010
,
0100
0100
0010
0001
,
0010
0010
0000
1000
,
0001
0100
0100
0001
,
1000
0000
0100
0000
,
1000
0010
0100
0010
,
1000
0100
0010
0100
,
1000
0010
0001
0010
,
1000
0001
1000
0001
,
1000
0010
1000
0010
,
1000
0010
0100
0010
,
0100
0001
0100
0001
,
0100
0010
0100
0010
,
0100
0000
0000
0100
0000
0000
1000
0000
,
0001
0000
0000
0001
0000
0000
0010
0000
,
1000
0000
0100
0000
,
1000
0000
0100
0001
,
1000
0010
0100
0001
;

//---------------dance-single - ----------------
#NOTES:
     dance-single:
     :
     Beginner:
     4:
     0.286,0.404,0.161,0.000,0.000,172.000,15.000,0.000,0.000,0.000:
1000
0000
1000
0000
,
1000
0000
1000
0000
,
1000
0000
1000
0000
,
1000
0000
1001
0000
,
0001
0000
0001
0000
,
0001
0000
0001
0000
,
0001
0000
0001
0000
,
0001
0000
1001
0000
,
1000
0000
0100
0000
,
1000
1000
1000
0000
,
0001
0000
0010
0000
,
0001
1000
0001
1000
,
0001
0000
0010
0000
,
0001
0001
0001
0000
,
1000
0001
1000
0001
,
1000
1000
1000
0100
,
0010
0000
0010
0000
,
0010
0000
0010
0000
,
0010
0000
0010
0000
,
0010
0000
0010
0000
,
0010
0000
0010
0100
,
1000
0100
0010
1000
,
0010
0100
1000
0100
,
0010
0010
0010
0010
,
0010
0000
0000
0000
,
0010
0000
0000
0010
0000
0000
0000
0000
,
1001
0000
0000
0000
,
0010
0000
0000
0010
0000
0000
0000
0000
,
1001
0000
0000
0000
,
0100
0000
0000
0100
0000
0000
0000
0000
,
1001
0000
0000
0000
,
0100
0000
0000
0100
0000
0000
0000
0000
,
1001
0000
0000
0000
,
0010
0000
1000
0000
,
0010
0000
0001
0000
,
0010
0000
1000
0000
,
0010
0000
0000
0000
,
0100
0000
1000
0000
,
0100
0000
0001
0000
,
0100
0000
1000
0000
,
0100
0000
0000
0000
,
1000
0000
0001
0000
,
0100
0000
0001
0000
,
1000
0000
0010
0000
,
0100
0000
0010
0000
,
1000
0000
0010
0000
,
1000
0000
0001
0000
,
1000
0000
0010
0000
,
1000
0000
0001
0000
,
0100
0000
0001
0000
,
1000
0000
0100
0000
,
0010
0000
0001
0000
,
0010
0000
0100
0000
,
1000
0000
0100
0000
,
1000
0000
0100
0000
,
1000
0000
0010
0000
,
1000
0000
0010
0000
,
1001
0000
0000
0000
,
1001
0000
0000
0000
,
1001
0000
0000
0000
,
1001
0000
0000
0000
,
0010
0000
0010
0000
,
0010
0000
0010
0000
,
0010
0000
0100
0010
,
0100
0000
0100
0000
,
1001
0000
0000
0000
,
1001
0000
0000
0000
,
1001
0000
0000
0000
,
1001
0000
0000
0000
,
0100
0000
0100
0000
,
0100
0000
0100
0000
,
0100
0000
0010
0100
,
0010
0000
0010
0000
,
1001
0000
1000
0000
,
0001
0000
1000
0000
,
0001
0000
1000
0000
,
0001
0000
1000
0000
,
0001
0000
1000
0000
,
0001
0000
1000
0000
,
0001
0000
0000
0001
0000
0000
0000
0000
,
1000
0000
0000
1000
0000
0000
0000
0000
,
0010
0000
0010
0000
,
1000
0000
1000
0000
,
0100
0100
0001
0001
;
