#TITLE:VerTex;
#SUBTITLE:;
#ARTIST:ZiGZaG;
#TITLETRANSLIT:;
#SUBTITLETRANSLIT:;
#ARTISTTRANSLIT:;
#CREDIT:;
#BANNER:vertex.png;
#BACKGROUND:vertex-bg.png;
#LYRICSPATH:;
#CDTITLE:;
#MUSIC:vertex.mp3;
#OFFSET:-0.179;
#SAMPLESTART:40.370;
#SAMPLELENGTH:11.590;
#SELECTABLE:YES;
#BPMS:0.000=250.000,160.000=118.979,168.000=250.000,176.000=118.979,184.000=250.000,193.000=214.500,195.000=172.500,198.000=138.000,200.000=126.620,201.000=85.499,201.500=60.499,202.000=257.920,204.000=249.999,302.000=239.959,302.500=237.719,303.000=249.499,304.000=112.000,336.000=254.000,340.000=254.420,344.000=255.020,346.000=256.000,349.000=255.000,352.000=265.500,354.000=267.000,356.000=268.000,360.000=268.500,361.000=269.500,362.000=271.600,364.000=273.500,366.000=275.000,368.000=278.000,372.000=281.500,376.000=283.500,380.000=284.000,382.000=285.000,384.000=291.500,388.000=296.000,392.000=299.500,396.000=301.500,404.000=302.000,416.000=306.000,432.000=611.996;
#STOPS:202.000=0.380
;
#BGCHANGES:;
// cache tags:
#FIRSTBEAT:16.000;
#LASTBEAT:504.000;
#SONGFILENAME:Songs/dragon force/vertex3/VerTex.sm;
#HASMUSIC:1;
#HASBANNER:1;
#MUSICLENGTH:125.088;
// end cache tags

//---------------dance-single - ----------------
#NOTES:
     dance-single:
     :
     Hard:
     10:
     0.755,1.000,0.168,0.296,0.400,603.000,21.000,37.000,135.000,0.000:
0000
0000
0000
0000
,
0000
0000
0000
0000
,
0000
0000
0000
0000
,
0000
0000
0000
0000
,
1000
0000
0001
0000
1000
0100
1000
0000
,
0001
0000
1000
0000
0001
0010
0001
0000
,
1000
0000
0001
0000
0100
0010
0100
0000
,
0001
1000
0010
0010
,
1000
0000
0010
0100
0010
0000
1000
0000
,
0001
1000
0100
1000
0010
0000
1000
0000
,
0010
0000
0100
0010
0100
0000
0010
0000
,
0010
1000
0000
0001
1000
0000
0100
0000
,
1000
0000
0010
0100
0010
0000
1000
0000
,
0001
1000
0100
1000
0010
0000
1000
0000
,
0010
0100
0000
0001
0100
0000
0010
0100
,
0000
0010
1000
0001
1000
0001
1000
0001
,
0000
0000
0010
0100
0010
0100
1000
000M
,
0000
0000
0001
1000
0001
0000
1000
0M00
,
1000
0001
0100
0001
0100
0000
0010
0000
,
1000
0001
0100
0010
,
000M
0000
0010
0100
0010
0000
0010
0000
,
0M00
0000
0100
0010
0100
0000
0100
0000
,
0001
1000
0000
0010
0100
0000
0001
1000
,
0000
0001
1000
0001
1000
0000
1001
0000
,
1000
0M00
0001
0000
1000
0000
0020
0000
0000
0000
0000
0000
0130
0000
00M0
0000
,
0100
0000
0010
0000
1000
0001
1000
0000
,
0010
M000
0100
0000
0010
0000
2000
0000
0000
0000
0000
0000
3100
0000
M000
0000
,
1000
0000
0010
0000
1000
0001
1000
0000
,
0001
0000
0100
0000
0001
0000
0020
0000
0000
0000
0000
0000
0031
0000
1000
00M0
,
0001
0000
0100
0000
0001
1000
0001
0000
,
0001
M000
0100
0000
0010
0000
2000
0000
0000
0000
0000
0000
3010
0000
0000
0000
,
0010
0000
0100
0000
0002
0000
0000
0003
,
1000
0000
0010
0M00
1000
0000
0000
0000
0001
0000
0010
0000
0001
0000
0000
0000
,
1000
0000
0010
000M
0100
0000
0000
0000
0001
0000
0100
0000
0010
0000
0000
0000
,
1000
0000
0100
000M
1000
0000
0000
0000
0010
0000
0100
0000
0010
0000
0000
0000
,
1000
0000
0010
0M00
1000
0000
0001
0000
0010
0000
0001
0000
1000
0000
0000
0000
,
0010
M000
0100
000M
0010
0000
0000
0000
1000
0000
0010
0000
1000
0000
0000
0000
,
1000
0000
0100
000M
1000
0000
0000
0000
0010
0000
0100
0000
0001
0000
0000
0000
,
2000
0000
0000
0000
30M0
M000
0000
0000
0020
0000
0000
0000
0030
0000
0000
00M0
,
1000
0000
0000
0000
M100
0000
0000
000M
0010
0000
M000
0000
0001
0000
M0M0
0000
,
1000
000M
0000
1000
0001
0000
0000
0001
1000
0000
0000
1000
0010
0100
0010
0000
,
1000
0000
0000
1000
0001
0000
0000
0001
1000
0000
0000
1000
0010
0M00
0010
0000
,
1000
0000
0010
0000
0100
0001
0010
0000
,
0001
0000
0100
0000
0010
1000
0100
0000
,
1000
0000
0000
1000
0001
0000
0000
0001
1000
0000
0000
1000
0010
0100
0010
0000
,
1000
0000
0000
1000
0001
0000
0000
0001
1000
0000
0000
M000
0010
0100
0010
0000
,
1000
0000
0001
0000
1000
0000
0001
0000
1000
0000
0000
0000
0001
00M0
0M00
0000
,
1000
0000
0010
0M0M
1000
0000
0010
0000
1000
0000
0M0M
0000
0010
0000
0M00
0000
,
2002
0000
0000
0000
,
0000
0000
0000
0000
,
0000
0000
0000
0000
3003
M00M
0000
0000
,
1000
0000
0010
0100
0010
0000
1000
0000
,
0001
1000
0100
1000
0010
0000
1000
0000
,
0010
0000
0100
0010
0100
0000
0010
0000
,
0010
1000
0000
0001
1000
0000
0100
0000
,
1000
0000
0010
0100
0010
0000
1000
0000
,
0001
1000
0100
1000
0010
0000
1000
0000
,
0010
0100
0000
0001
0100
0000
0010
0100
,
0000
0010
1000
0001
1000
0001
1000
0001
,
1000
0000
1000
0100
1000
00M0
0001
0100
,
0010
0000
000M
0000
1000
0000
0100
0000
1000
00M0
0000
0000
0001
00M0
0100
0000
,
0001
0000
0000
0000
0010
M000
0100
0000
0010
0000
0000
M000
0001
0000
0000
0000
,
0010
0100
0010
0100
0010
M00M
0001
0000
,
1000
000M
0000
0000
0010
0000
0100
M000
0001
0000
0000
0000
1000
0000
0100
0000
,
1000
0000
0000
0000
0010
0000
0100
M000
0001
0000
0000
0000
1000
000M
0100
0000
,
1000
0000
000M
0000
0010
0000
0100
0000
0001
0000
0000
0000
1000
000M
0000
0000
,
1000
0000
0100
0000
1000
000M
0100
0000
1000
0000
0000
0000
1000
0000
00M0
0000
,
0001
0000
0000
0000
0100
0000
0010
0000
1000
0M00
0000
0000
0001
0000
0010
0M00
,
0001
0000
0000
0000
0100
0000
0010
0000
1000
0M00
0000
0000
0001
0000
0010
0000
,
0001
0000
0100
0010
1000
0M00
0001
M000
,
0010
0000
0000
0000
0010
0000
0001
0M00
0010
0000
0001
M000
0010
0000
0M00
0000
,
0001
0000
0000
0000
0100
0000
0010
000M
1000
0000
0000
0000
0001
0000
0010
0M00
,
0001
0000
0000
0000
0010
0000
0001
0M00
1000
0000
0000
0000
0001
M000
0010
0000
,
0001
0000
0000
0000
0010
0000
0001
00M0
1000
0000
0000
0000
1000
0000
0100
00M0
,
1000
0000
0001
0M00
1000
0000
0001
0000
0100
000M
0000
0000
0010
0M00
0000
0000
,
1000
0001
1000
0001
02M0
0000
03MM
0000
,
1100
0000
1100
0000
1100
0000
1100
0000
1100
0000
0100
1000
0000
0000
0010
0000
,
0011
0000
0011
0000
0011
0000
0011
0000
0011
0000
0010
0001
0000
0000
0100
0000
,
0010
0000
0000
1000
0000
0000
0010
0000
0000
1000
0000
0000
0001
0000
0000
0001
,
1000
0000
0000
0001
0000
0000
0100
0000
0110
0000
0110
0000
0110
0000
0000
0000
,
1000
0001
0100
0001
1000
0001
0100
0001
0010
0001
0000
0000
,
0001
1000
0010
1000
0001
1000
0010
1000
0100
1000
0000
0000
,
M000
0000
0000
0000
0001
0000
0M00
0000
0000
0000
0000
0000
0001
0000
0000
M000
0000
0000
0000
0000
0001
0000
0000
0000
0M00
0000
0000
0000
0001
0000
0000
0000
0000
0000
0000
0000
1000
0000
0000
0000
0000
0000
0000
0000
0000
0000
0000
0000
,
000M
0000
0000
0000
1000
0000
0M00
0000
0000
0000
0000
0000
1000
0000
0000
000M
0000
0000
0000
0000
1000
0000
0000
0000
0020
0000
0000
0M00
0000
0000
0000
0000
0000
000M
0000
0000
2030
0000
0000
0M00
0000
0000
0000
0000
0000
0000
0000
0000
,
3001
0000
0010
0M00
0001
0000
1000
0000
0001
0000
0100
0000
0001
0000
1000
0000
,
0010
0100
0010
0100
0010
1000
0001
0000
,
1000
0001
0100
0001
0100
0000
0001
1000
,
0001
0000
0000
0000
0100
0000
0000
0000
0010
0000
0000
0000
00M0
0000
0000
000M
,
1000
0010
1000
0001
1000
0100
1000
0001
,
0100
0000
0010
0000
0100
0000
0001
0000
1000
0000
0010
0000
1000
000M
0000
0000
,
1000
0001
1000
0010
1000
0001
1000
0001
,
1000
0000
0000
0000
0MM0
M000
000M
0000
0110
0000
000M
M000
000M
0MM0
0000
0M0M
,
2000
0010
0020
3030
,
0020
0001
0002
0033
,
0002
0100
0200
0303
,
0200
1000
2000
3300
,
1000
0010
1000
0001
1000
000M
1000
0000
,
0001
0100
0001
1000
0001
M000
0001
0000
,
1000
0000
0100
0000
1000
0000
0001
0000
1000
0000
0001
0000
1000
0000
0001
0M00
,
1000
0000
00M0
0000
0000
000M
0000
0M00
0010
M000
000M
0000
0M00
0000
000M
0M00
,
2010
0010
0010
3010
,
0021
0001
0001
0031
,
0102
0100
0100
0103
,
1200
0000
1000
0000
2000
0000
3300
M000
,
1000
0010
0100
0001
0100
0010
1000
0001
,
0100
0000
0010
0000
0100
M000
0001
0000
1000
0000
00M0
0000
0010
0000
0100
0000
,
0001
0000
0100
0000
0001
0100
0001
M000
,
1000
0001
102M
0M00
,
2030
3000
0002
M003
,
0200
030M
0020
0M30
,
2000
30M0
0002
M003
,
0200
030M
0020
0M30
,
1000
0001
1000
0001
,
1000
00M0
0001
00M0
,
2000
0000
3010
0000
,
0200
0000
0000
0000
0301
0000
0000
M00M
,
1000
0000
0001
0000
,
0100
0000
0010
0000
,
1000
0000
0000
0M00
0001
0000
0000
0000
,
0100
0000
0010
000M
,
1000
0001
1000
0001
,
1000
0000
0000
0000
0001
M000
0000
0000
,
0100
0010
0100
0010
,
0100
00M0
0010
000M
,
2000
0000
0000
0000
0000
00M0
0000
0000
0000
0000
0000
0000
0000
0000
0000
0000
,
3000
0000
0000
0000
M000
M000
M000
0000
0000
0000
0000
0000
0000
0000
0000
0000
;

//---------------dance-single - ----------------
#NOTES:
     dance-single:
     :
     Medium:
     7:
     0.498,0.806,0.336,0.256,0.000,362.000,42.000,32.000,29.000,0.000:
0000
0000
0000
0000
,
0000
0000
0000
0000
,
0000
0000
0000
0000
,
0000
0000
0000
0000
,
0010
0100
0002
0003
,
0010
0001
2000
3000
,
0001
0000
0001
0000
,
0100
0010
2000
3000
,
1000
0010
0100
0010
,
1000
0001
0100
0010
,
1000
0001
0100
0001
,
1000
0000
0000
0010
0000
0000
0100
0000
,
0001
1000
0001
0100
,
0001
0100
0010
1000
,
0001
0100
0010
0100
,
0001
0100
0010
0100
0010
0000
0000
0001
,
1000
0010
0100
0010
,
1000
0001
0100
0001
,
1000
0010
0100
0100
,
0001
0000
0000
1000
0000
0000
0001
0000
,
1000
0010
0100
0010
,
1000
0010
1000
0001
,
0100
0010
1000
0100
,
1000
0001
0010
0000
0001
0000
0000
0000
,
0001
1000
0001
0000
0001
1000
0001
0000
,
0200
0000
0000
0300
0020
0000
0000
0030
,
1000
0001
1000
0000
1000
0001
1000
0000
,
2000
0000
0000
3000
0002
0000
0000
0003
,
0001
1000
0001
0000
0001
1000
0001
0000
,
1000
0001
0100
0010
,
1000
0001
1000
0000
1000
0001
1000
0000
,
1000
0010
0100
0001
,
0101
0000
1010
0000
,
0101
0000
1010
0001
,
0110
0000
1001
0000
,
0110
0000
1001
1000
,
1010
0000
0101
0000
,
1010
0000
0101
0001
,
0110
0000
1001
0000
,
0110
0000
1001
0000
,
1000
0000
0001
0100
0010
0100
0010
0000
,
1000
0000
0001
1000
0001
1000
0001
0000
,
0110
0000
0110
0000
,
1001
0000
1001
0000
,
0010
0000
1000
0010
1000
0010
1000
0000
,
0010
0000
0100
0001
0100
0001
0100
0000
,
1001
0000
1001
0000
,
0110
0000
1001
0000
,
2002
0000
0000
0000
,
0000
0000
0000
0000
,
0000
0000
3003
0000
,
1000
0010
0100
0010
,
1000
0100
0010
0001
,
1000
0010
0100
0010
,
1000
0000
0000
0010
M000
0000
1000
0000
,
0001
0100
0010
0100
,
0001
0010
0100
1000
,
0001
0000
0000
0100
0000
0000
0100
0000
,
0001
0000
0000
0000
0110
M00M
0000
0000
,
1000
0000
0000
0000
0001
0000
0000
0001
,
0100
0000
0000
0000
0010
0000
0000
1000
,
0010
0000
0000
0000
0010
M000
0000
0110
,
0000
00M0
0000
0000
,
0001
0000
0000
0000
1000
0000
0000
1000
,
0001
0000
0000
0000
0001
0000
0000
0001
,
1000
0000
0000
0000
0010
0000
0000
0110
,
0000
0000
0000
00M0
0M00
00M0
0M00
0000
,
1000
0000
0000
0000
0001
0000
0000
0001
,
0100
0000
0000
0000
0010
0000
0000
1000
,
0010
0000
0000
0000
0010
M000
0000
0110
,
0000
00M0
0000
0000
,
0001
0000
0000
0000
1000
0000
0000
1000
,
0001
0000
0000
0000
0001
0000
0000
0001
,
1000
0000
0000
0000
0010
0000
0000
0110
,
0000
0000
0000
00M0
0M00
00M0
0M00
0000
,
1000
0010
1000
0001
,
1000
0100
1000
0000
0010
0000
1000
0000
,
0001
0010
0001
0000
1000
0000
0010
0000
,
0100
0100
0001
0000
0100
0100
0001
0000
,
0100
0100
0010
0000
0000
1000
0001
0000
,
1000
0010
0100
0001
1000
0001
0010
0000
,
0001
0100
0010
1000
0001
1000
0100
0000
,
1000
0010
0100
0001
1001
0000
1001
0000
,
1000
0100
1000
0000
0110
0000
0110
0000
,
0200
0000
0301
0000
,
0002
0000
0103
0000
,
2000
0000
3001
0000
,
0020
0000
0130
0000
,
0200
0000
0301
0000
,
2000
0000
3010
0000
,
0220
0000
0000
0330
,
1100
00MM
0011
MM00
,
0200
0001
0000
0301
,
2000
0001
0000
3001
,
0020
0000
0001
0000
0000
0000
0001
0030
,
0100
0000
11MM
0000
,
1000
0001
0000
0100
,
0001
0010
0000
0001
,
001M
0001
0000
1000
,
11MM
0000
MM11
0000
,
1000
0010
M000
1000
,
0001
0010
0000
0001
,
1000
0001
0000
0001
,
1000
000M
0100
00M0
1000
0000
0000
0000
,
2200
0000
0000
3300
,
0022
0000
0000
0033
,
1000
0001
0100
0010
,
1000
0000
0001
0000
0200
0000
0000
0300
,
0002
0000
0000
0000
0000
0000
0000
0003
,
2000
0000
0000
0000
0000
0000
0000
3000
,
0020
0000
0000
0000
0000
0000
0000
0030
,
2000
0000
0000
0000
0000
0000
0000
3000
,
0002
0000
0000
0000
0000
0000
0000
0003
,
2000
0000
0000
0000
0000
0000
0000
3000
,
0010
0000
1000
0000
,
0010
0000
0000
0000
,
1000
0000
1000
0000
,
0001
0000
0001
0000
,
0100
0000
0100
0000
,
0010
0000
0010
0000
,
1000
0000
1000
0000
,
0001
0000
0001
0000
,
1000
0000
0001
0000
,
1000
0001
1000
0000
,
0020
0000
0000
0000
,
0000
0000
0000
0000
,
0030
0000
0000
0000
;

//---------------dance-single - ----------------
#NOTES:
     dance-single:
     :
     Easy:
     6:
     0.368,0.554,0.344,0.288,0.000,243.000,43.000,36.000,3.000,0.000:
0000
0000
0000
0000
,
0000
0000
0000
0000
,
0000
0000
0000
0000
,
0000
0000
0000
0000
,
0010
0000
0000
0000
,
0100
0000
0000
0000
,
0001
0000
0000
0000
,
1000
0100
1000
0000
,
1000
0000
0010
0000
,
1000
0000
0010
0000
,
0010
0000
1000
0000
,
0010
0000
0000
1000
0000
0000
0001
0000
,
1000
0000
0010
0000
,
0100
0000
0001
0000
,
0100
0000
0010
0000
,
1000
0001
0001
1000
,
0001
0000
1000
0000
,
0001
0000
1000
0000
,
0010
0000
1000
0000
,
0001
0000
0000
0001
0000
0000
1000
0000
,
0010
0000
0010
0000
,
0100
0000
0001
0000
,
0010
0000
0100
0000
,
0001
0100
0001
0100
,
0001
1000
0001
0000
,
0110
0000
1001
0000
,
1000
0001
1000
0000
,
1001
0000
0110
0000
,
0001
1000
0001
0000
,
0110
0000
1001
0000
,
1000
0001
1000
0000
,
1001
0000
0110
0000
,
0011
0000
1100
0000
,
0011
0000
1100
0000
,
0011
0000
1100
0000
,
0110
0000
1001
0000
,
1100
0000
0011
0000
,
1100
0000
0011
0000
,
1100
0000
0011
0000
,
1001
0000
0110
0000
,
1000
0000
0010
0000
,
1000
0000
0000
0000
0001
0000
1000
0010
,
1000
0001
0100
0010
,
1000
0001
0100
0001
,
1000
0000
0010
0000
,
1000
0000
0000
0000
0001
0000
1000
0010
,
1000
0001
0100
0010
,
1000
0000
0000
0001
0000
0000
1000
0000
,
1001
0000
0000
0000
,
0000
0000
0000
0000
,
0000
0000
0000
0000
,
1000
1000
0001
0001
,
0100
0100
0010
0010
,
0100
0010
1000
0001
,
1000
0000
0000
0010
0000
0000
1000
0000
,
0001
0001
1000
1000
,
0010
0010
1000
1000
,
0010
0000
0000
0100
0000
0000
0001
0000
,
1000
0000
0010
0010
,
1000
0000
0001
0000
,
0100
0000
0010
0000
,
0010
0000
0000
0000
1000
0000
0000
0010
,
0000
0000
00M0
0000
,
1000
0000
1000
0000
,
0010
0000
0100
0000
,
0010
0000
0000
0000
1000
0000
0000
0010
,
0000
0000
00M0
0000
,
1000
0000
0001
0000
,
0100
0000
0010
0000
,
0100
0000
0000
0000
0001
0000
0000
0100
,
0000
0000
0M00
0000
,
0001
0000
1000
0000
,
0010
0000
0100
0000
,
0010
0000
1000
0000
,
0020
0000
0000
0000
,
0000
0000
0000
0030
,
1000
1000
0100
1000
,
1000
0000
0001
0000
0010
0000
0001
1000
,
0001
0001
0100
0010
,
1000
0000
0002
0000
1003
0000
0001
1000
,
0001
0100
0010
1000
,
0100
0000
1000
0000
0001
1000
0001
1000
,
0010
1000
0010
1000
,
0001
0000
1000
0000
0010
1000
0001
0000
,
2000
0000
0000
3000
,
0020
0000
0000
0030
,
2000
0000
0000
3000
,
0200
0000
0000
0300
,
2000
0000
0000
3000
,
0002
0000
0000
0003
,
2000
0000
0000
3000
,
1001
0000
1001
0000
,
2020
0000
0000
3030
,
0022
0000
0000
0033
,
0202
0000
0000
0303
,
2200
0000
0000
3300
,
0000
0000
0110
0000
,
0000
0000
1001
0000
,
0000
0000
0110
0000
,
1001
0000
1001
0000
,
2020
0000
0000
3030
,
2200
0000
0000
3300
,
0202
0000
0000
0303
,
0022
0000
0000
0033
,
2002
0000
0000
3003
,
0220
0000
0000
0330
,
1000
0000
0100
0000
,
1000
0000
0002
0000
,
2003
0000
0000
0000
,
0000
0000
3000
0000
,
0002
0000
0000
0000
,
0000
0000
0003
0000
,
0200
0000
0000
0000
,
0000
0000
0300
0000
,
0020
0000
0000
0000
,
0000
0000
0030
0000
,
1000
0000
0000
0000
,
1000
0000
0000
0000
,
0001
0000
0000
0000
,
0001
0000
0000
0000
,
0100
0000
0000
0000
,
0010
0000
0000
0000
,
0100
0000
0000
0000
,
0100
0000
0000
0000
,
2002
0000
0000
0000
,
0000
0000
0000
0000
,
3003
0000
0000
0000
;

//---------------dance-single - ----------------
#NOTES:
     dance-single:
     :
     Challenge:
     12:
     0.980,1.000,0.224,0.360,0.664,785.000,28.000,45.000,247.000,0.000:
0000
0000
0000
0000
,
0000
0000
0000
0000
,
0000
0000
0000
0000
,
0000
0000
0000
0000
,
1000
0100
0010
0001
0100
0010
1000
0001
,
0010
0001
0100
0010
1000
0010
1000
0001
,
0100
0010
1000
0010
0100
0001
0100
0010
,
1000
0000
0001
0000
0100
0000
0000
0000
0001
0000
0000
M000
0110
000M
0000
0000
,
2000
0000
3010
1000
0100
0010
0001
0100
,
0002
0000
0103
0010
1000
0100
0010
0001
,
1000
0100
M000
1000
0100
1000
0M00
0001
,
0010
0001
1000
0001
0100
0010
1000
M100
,
2000
0000
3010
1000
0100
1000
0001
001M
,
0002
0000
0103
0010
1000
0010
0100
0001
,
1000
0000
0010
0000
0000
000M
0100
0000
0010
0000
0100
0000
00M0
0000
0001
0000
,
0100
0000
0010
0000
1000
0000
0010
0000
0100
0000
0001
0000
1000
0000
0001
1000
,
0002
0000
0000
0000
0103
0000
0010
0000
1000
0000
0010
0000
1000
0000
0001
1000
,
0002
0000
0000
0000
0103
0000
0010
0000
1000
0000
0010
0000
1000
0000
0001
1000
,
0002
0000
0013
0001
0100
0001
0100
0001
,
1000
0000
0010
0000
0100
0000
0010
0000
0100
0000
0001
0000
1000
000M
0000
M000
,
0001
0000
1000
00M0
0001
0000
0100
0000
0010
0000
1000
0000
0100
0000
1000
0001
,
1000
000M
0010
M000
0100
0000
0001
0000
0010
0000
0001
0000
1000
0000
0001
1000
,
0001
0000
0100
0000
0001
00M0
0100
0000
0001
0000
0010
M000
0100
0000
1000
0000
,
0001
0000
0100
0000
0010
0M00
1000
00M0
0001
0000
0000
0000
0001
0M00
0000
000M
,
1000
0100
0001
0100
1000
0100
0001
0100
,
1000
0100
0001
0100
1000
0001
1000
0000
,
0001
0100
1000
0100
0001
0100
1000
0100
,
0001
0100
1000
0100
0000
0100
0010
0000
,
1000
0001
0100
0001
1000
0001
0100
0001
,
1000
0001
0100
0001
1000
0100
1000
0000
,
1000
0001
1000
0001
0100
0001
1000
0001
,
0100
0001
1000
0000
0110
0000
0011
0000
,
1M0M
0000
0100
M0M0
0000
0M0M
M010
0000
0001
0M00
0000
000M
0100
0000
0010
M000
,
0000
00M0
1000
0000
010M
0000
1000
0M00
0010
000M
0100
M0M0
0001
0M00
0000
000M
,
1000
0000
0010
MM00
0000
00MM
M100
0000
0010
000M
0M00
00M0
M000
0000
0001
00M0
,
0000
0M0M
1000
0000
0M10
000M
1000
00M0
M002
0M00
0000
M000
0103
00M0
0000
0M00
,
1000
000M
0010
M000
0000
00M0
0100
M000
0010
0M00
000M
00M0
0100
0000
00M1
M000
,
0000
0000
0000
0M00
0000
0000
1000
0000
0000
000M
0000
0000
0010
0000
0000
M000
0000
0000
0000
0000
0000
00M0
0000
0000
0100
0000
0000
0000
0000
0000
M001
0000
00M0
0000
0M00
0000
1000
0000
0000
000M
0000
0000
0010
0000
0000
M000
0000
0000
,
0100
00MM
0000
M000
0010
0000
0M00
000M
1000
0M00
0010
M00M
0100
0000
0001
00M0
,
2000
000M
0000
0000
3010
0000
M000
0000
020M
0000
00M0
M000
0301
0000
0M00
0000
,
11MM
0011
1100
0011
1100
1100
0101
0M0M
,
0101
0000
0100
0000
0011
0000
0100
0000
0010
0100
0010
0100
0010
0000
0100
0000
,
0001
0000
0010
000M
0100
00M0
1000
0M00
0001
M000
0100
000M
0010
0M00
1000
00M0
,
0001
M000
0010
0000
0100
000M
1000
0M00
00M1
0000
1000
00M0
0M01
0000
0000
MM00
,
0011
1100
0011
1100
0011
0011
1010
M0M0
,
1010
0000
0010
0000
1100
0000
0010
0000
0100
0010
0100
0010
0100
0000
0010
0000
,
2000
0000
000M
0000
0100
0000
00M0
0000
3100
0000
0000
00M0
0002
0M00
M000
0000
,
0010
0M00
0000
0000
0013
0000
0M00
0000
2000
0000
000M
00M0
0100
0000
000M
0000
,
3200
0000
00MM
0000
0000
0000
030M
0M00
0000
0200
0000
00M0
0000
0000
0000
0000
,
00MM
0000
0000
0000
0300
0000
0M00
0000
00M0
0000
0000
0200
0000
0000
0000
0000
0000
0000
000M
0000
0000
0000
0000
0000
0000
0000
00M0
0000
0000
0300
0000
0M00
,
0000
0000
000M
0200
0000
0000
0000
0000
00M0
0000
0000
0000
0000
M000
0000
0000
0000
0000
0000
0000
0000
0000
0000
0300
M00M
0000
0M00
0000
00M0
0000
0000
0000
,
1000
0010
0100
M0M0
0001
0010
0001
0MM0
,
1000
0100
1000
0MM0
0010
0100
0001
M0M0
,
0100
0010
1000
0MM0
0001
0100
0001
MM00
,
1000
0000
0010
0000
0100
00M0
0001
0M00
1000
0000
0100
0000
0020
0000
000M
0000
,
0031
0100
0010
MM00
0100
0010
1000
00MM
,
0001
0100
0001
M0M0
1000
0010
1000
0MM0
,
0010
0100
0001
MM00
1000
0100
0010
0001
,
0010
0M00
0002
0000
0203
0000
001M
0000
,
M310
0100
0010
1000
0001
0100
0010
1000
,
0010
0100
0001
0100
0001
0010
0001
0100
,
0010
1000
0001
0100
0010
0100
0010
1000
,
0002
0000
1000
MMM0
1000
MMM0
1000
0000
,
0103
0010
0100
0001
1000
0010
0100
0001
,
0100
0010
1000
0010
1000
0100
1000
0010
,
0100
0001
1000
0010
0100
0010
2000
0000
,
30M1
0000
0100
0000
0001
M000
0100
0000
0002
0000
0000
0000
1003
0000
0000
000M
,
0010
M000
0100
0000
0010
0000
1000
0000
0001
0000
0100
0000
0010
0000
1000
0100
,
1000
0000
0010
0000
0100
0000
0001
0000
0100
0000
0010
0000
0100
0000
0001
0010
,
0001
0010
0001
0100
0010
0100
0010
1000
,
0002
0000
0000
0000
0103
0000
0000
0000
0010
000M
1000
0M00
0010
000M
0000
0000
,
010M
0000
0001
0000
0100
0000
0001
0000
0010
0000
0001
0000
0100
0000
0010
1000
,
0010
0000
0100
0000
0001
0000
0100
0000
0001
0000
1000
0000
0100
0000
1000
0100
,
1000
0001
0100
0010
1000
0001
1000
0001
,
2000
0000
0000
0000
0010
0000
000M
0000
3020
0000
0000
M000
0230
0000
0000
0000
,
03M1
0000
0000
0M00
1000
0000
000M
0000
0M20
M000
000M
0000
0130
0000
0000
0000
,
0001
0000
1000
0000
0001
0000
1000
0000
0000
0000
0000
0000
0010
0000
0000
0000
0000
0000
0100
0000
0000
0000
0000
0000
0001
0000
0000
0000
0000
0000
0100
0000
0000
0001
0000
0000
0000
0000
0000
0000
0000
0000
1000
0000
0000
0000
0000
0000
,
0001
0000
1000
0000
0001
0000
1000
0000
0000
0000
0000
0000
0010
0000
0000
0000
0000
0000
0100
0000
0000
0000
0000
0000
0010
0000
0000
0000
0000
0000
1000
0000
0000
0001
0000
0000
0000
0000
0000
0000
0000
0000
1000
0000
0000
0000
0000
0000
,
0002
0000
0003
020M
0000
0300
0020
0M00
0030
2000
00M0
0000
3002
0000
0000
1003
,
0200
000M
0000
0320
0000
0M00
0032
0000
00M3
0000
1000
0M00
0001
00M0
1000
0000
,
M001
0000
0000
0000
0100
0000
000M
0000
0010
0000
0000
0000
1000
0000
0000
0000
0001
0000
M000
0000
0100
000M
0000
0000
0010
0000
0000
000M
1000
0000
0000
0000
0010
0000
0000
0000
1100
0000
0000
00M0
0000
0000
0000
0000
0000
0M00
0000
0000
,
1000
0000
0000
000M
0100
0000
0000
0000
1000
0000
0000
0000
0010
0000
0000
M000
0100
0000
0000
0000
0001
0000
0000
0000
0100
0000
0000
0000
0010
0000
0M0M
0000
1000
0000
0000
0000
1100
0000
0000
0000
0000
0000
0MM0
0000
0000
M000
0000
0000
,
0001
0000
0100
0000
0001
0000
010M
0000
0010
0000
0100
0000
0011
0000
M100
0000
0010
0000
110M
0000
0000
MM00
00M0
0000
,
0001
M000
0100
0010
010M
0000
0010
0000
1000
0010
1M00
0000
0001
0000
0M00
000M
1000
0000
1001
0000
0000
0000
0000
0000
,
0001
1000
0100
1000
0010
0100
0001
0100
,
0010
1000
0001
0010
0100
1000
0001
0010
,
0001
0010
0100
1000
0100
0010
0001
1000
,
0100
0010
0001
0000
0010
0001
1000
0000
,
0001
1000
0100
1000
0010
0100
0001
0100
,
0010
1000
0001
0010
0100
1000
0001
0010
,
0001
0010
0001
1000
0100
1000
0001
1000
,
0100
0010
0001
0000
100M
0001
0100
0000
,
0M10
0100
0001
1000
0100
1000
0010
1000
,
0010
0100
0010
1000
0001
0100
0010
1000
,
0100
1000
0001
0100
0001
1000
0010
0100
,
0001
0000
1000
0000
0001
0000
0000
0000
1000
000M
0100
0000
1000
0000
0000
0000
,
0010
M000
0100
0000
0001
0000
1000
0000
0100
0000
1000
0000
0010
0000
1000
0000
,
0010
0100
0010
1000
0001
0100
0010
1000
,
0100
1000
0001
0100
0001
1000
0010
0100
,
0001
1000
0200
0000
1300
0001
2000
0000
,
3001
0010
0001
1000
0010
1000
0001
0100
,
0010
0100
0001
1000
0001
0100
0001
1000
,
0010
0100
0010
1000
0001
0010
0100
1000
,
0001
0100
0020
0000
1030
0010
2000
0000
,
3001
0100
0001
1000
0100
1000
0001
0100
,
0010
1000
0001
0100
0010
1000
0100
0010
,
0001
0100
0010
1000
0100
1000
0001
0010
,
0100
1000
0001
0100
0020
0000
0000
0000
,
1030
0001
1000
0001
,
1000
0001
2000
000M
,
3010
0100
0010
0100
,
0020
0000
0130
M000
,
0001
1000
0100
1000
,
0001
1000
0010
1000
,
0001
0M00
1000
0000
,
0001
0000
1001
0000
,
0001
M100
0010
010M
,
0001
M100
0001
0000
,
1000
0010
0100
0010
,
0100
0000
0010
0000
0100
0000
0000
0M00
,
0001
1000
0001
1000
,
0010
0000
0000
0000
0100
000M
0000
0000
M010
0000
0000
0000
0100
0000
0000
0000
,
0001
0000
1M00
0000
,
0010
0000
0000
0000
0100
0000
0000
0000
0010
0000
0000
0000
M00M
M00M
0000
0000
,
2002
0000
0000
0000
,
3003
0000
0000
0000
0000
0000
M00M
M00M
M00M
0000
0000
0000
0000
0000
0000
0000
0000
0000
0000
0000
0000
0000
0000
0000
;
