#TITLE:Dolly Song (Loituma Levas Polka Basshunter Dac remix);
#SUBTITLE:Feels The Arrow;
#ARTIST:Holly Dolly;
#TITLETRANSLIT:;
#SUBTITLETRANSLIT:;
#ARTISTTRANSLIT:;
#CREDIT:Ov3rHell3XoduZ;
#BANNER:../bn.png;
#BACKGROUND:../bg.png;
#LYRICSPATH:;
#CDTITLE:;
#MUSIC:Dolly Song (Loituma Levas Polka Basshunter Dac remix).ogg;
#OFFSET:-1.026;
#SAMPLESTART:42.989;
#SAMPLELENGTH:11.960;
#SELECTABLE:YES;
#BPMS:0.000=140.000;
#STOPS:;
#BGCHANGES:;
// cache tags:
#FIRSTBEAT:4.000;
#LASTBEAT:475.500;
#SONGFILENAME:Songs/EXoduz' Feels The Arrow/Dolly Song - [Ov3rHell3XoduZ]/Dolly Song (Loituma Levas Polka Basshunter Dac remix).sm;
#HASMUSIC:1;
#HASBANNER:1;
#MUSICLENGTH:206.101;
// end cache tags

//---------------dance-single - Ov3rHell3XoduZ----------------
#NOTES:
     dance-single:
     Ov3rHell3XoduZ:
     Challenge:
     15:
     1.000,1.000,0.354,0.306,1.000,1878.000,73.000,63.000,0.000,2.000:

0000
0000
0000
0000
,
2000
3000
0002
0003
0200
0300
0020
0030
,
2000
3000
0200
0300
0020
0031
1000
1100
,
0100
0010
0001
0101
0100
0010
1000
1001
,
0001
0100
0001
0110
0100
1000
0001
0110
,
0100
0001
0010
1100
1000
0001
0100
0110
,
0010
1000
0100
1100
1000
0001
0200
0310
,
1010
1000
0100
0010
0011
0001
0100
0010
,
1010
1000
0100
0010
0011
0001
0100
0001
,
0011
0010
0100
1000
1010
0010
0100
0001
,
1001
1000
0100
0010
0022
0033
0002
0203
,
0310
1000
0001
0000
0010
0000
0110
0000
0100
1000
0001
0000
0100
0000
0110
0000
,
0010
1000
0001
0000
0010
0000
0110
0000
0100
1000
0001
0000
0100
0000
0110
0000
,
0010
1000
0001
0000
0010
0000
0011
0000
0001
1000
0010
0000
0100
0000
0101
0000
,
0001
0010
0100
0000
1000
0000
1001
0000
0100
0010
1000
0000
0200
0000
0320
0000
,
0031
0100
0001
0000
1000
0000
1100
0000
0100
0010
0001
0000
0100
0000
1010
0000
,
1000
0100
1000
0000
0001
0000
0101
0000
0100
0010
1000
0000
0001
0000
0011
0000
,
0010
0100
1000
0000
0001
0000
0101
0000
0100
0010
1000
0000
0001
0000
0011
0000
,
0010
0100
1000
0000
0002
0000
0000
0000
2003
0000
3200
0000
0320
0000
0032
0000
,
2003
0000
3002
0000
1003
0200
0000
0310
,
0001
0000
0000
1000
0000
0000
0002
0000
0000
0000
0000
0000
0103
0000
0010
0000
1000
0000
0001
0000
0000
1000
0000
0000
0001
0000
0000
0100
0000
0000
0001
0000
0000
0000
0000
0000
1000
0000
0100
0000
0010
0000
0001
0000
0000
0000
0000
0000
,
1000
0100
2000
0000
3001
0010
0100
1000
0001
0100
0002
0000
1003
0001
0100
0000
,
0110
0000
0000
0010
0000
0000
1010
0000
0000
1000
0000
0000
1100
0000
0000
0200
0000
0000
0000
0000
0000
0310
0001
1000
,
0001
0000
0000
0000
0000
0000
1000
0000
0000
0000
0000
0000
0000
0000
0000
0100
0000
0000
0010
0000
0000
0000
0000
0000
0001
0000
0000
0100
0000
0000
0000
0000
0000
0000
0000
0000
0010
0000
1000
0000
0100
0000
1000
0000
0001
0000
0100
0000
,
0001
1000
0100
0010
0000
0000
0011
0000
0000
0001
0000
0000
0101
0000
0000
0100
0000
0000
0010
1000
0001
0010
0000
0000
,
0110
0000
0000
0000
0000
0000
0100
0000
0000
0000
0000
0000
1100
0000
0000
0000
0000
0000
1000
0000
0000
0000
0000
0000
0001
0000
0000
0200
0000
0000
0000
0000
0000
0000
0000
0000
0310
0000
1000
0000
0001
0000
0100
0000
0001
0000
1000
0000
,
0100
0000
0010
0000
0001
0000
1000
0000
0001
0000
0100
0000
0001
0000
0010
0000
0100
0000
2000
0000
0000
0000
0000
0000
3001
0000
0000
0200
0000
0000
0000
0000
0000
0000
0000
0000
0000
0000
0000
0000
0000
0000
0310
0000
1000
0000
0000
0000
,
0001
0000
0000
0000
0000
0000
0011
0000
0000
0000
0000
0000
0010
0000
0000
0000
0000
0000
0110
0000
0000
0000
0000
0000
0100
0000
0000
0000
0000
0000
1000
0000
0000
0001
0000
0000
0100
0000
0010
0000
1000
0000
0100
0000
1000
0000
0001
0000
,
0100
0000
0001
0000
0100
0000
0010
0000
1000
0000
0001
0000
0010
0000
0100
0000
1000
0000
0001
0000
0000
0000
0000
0000
1000
0000
0000
0100
0000
0000
2000
0000
0000
0000
0000
0000
0000
0000
0000
0000
0000
0000
3001
0000
0100
0000
0000
0000
,
0010
0000
0000
2000
0000
0000
0000
0000
0000
3001
0010
0100
1000
0001
0100
0001
0000
0000
1000
0100
0010
0001
0000
0000
,
1000
0000
0000
1100
0000
0000
0100
0000
0000
0110
0000
0000
0010
0000
0000
0011
0000
0000
0000
0001
1000
0001
0000
0000
,
0100
0000
0000
0110
0000
0000
0000
0000
0010
1000
0000
0000
0001
0100
0000
0000
0000
0010
1000
0100
0010
0001
1000
0100
,
1000
0001
0010
0100
0000
0000
1100
0000
0000
1000
0000
0000
1010
0000
0000
0010
0000
0000
0000
0100
0001
0010
0000
0000
,
0110
0000
0000
0100
0000
0000
1100
0000
0000
1000
0000
0000
0010
0100
0001
0000
0000
0000
1000
0100
0010
0001
1000
0001
,
0100
0000
0001
0000
0100
0000
0010
0000
1000
0000
0100
0000
0010
0000
0001
0000
1000
0000
0001
0000
0000
0000
0000
0000
1000
0000
0000
0200
0000
0000
0000
0000
0000
0000
0000
0000
0000
0000
0000
0300
0000
0000
0011
0000
0000
0000
0000
0000
,
0001
0000
0000
0101
0000
0000
0100
0000
0000
0110
0000
0000
0010
0000
0000
1010
0000
0000
1000
0000
0000
0001
0100
0001
,
1000
0000
0100
0000
1000
0000
0001
0000
0010
0000
0100
0000
1000
0000
0001
0000
1000
0000
0100
0000
0000
0000
0000
0000
0010
0000
0000
0001
0000
0000
0000
0000
0000
0000
0000
0000
0000
0000
1000
0000
0001
0000
0100
0000
0000
0000
0000
0000
,
0010
0000
0000
1010
0000
0000
0000
0000
1000
0100
0010
0001
1000
0010
0100
0001
0000
0000
0010
0100
1000
0001
0000
0000
,
0101
0000
0000
0100
0000
0000
0110
0000
0000
0010
0000
0000
1010
0000
0000
2000
0000
0000
0000
0000
0000
3001
0100
0001
,
1000
0001
0010
0100
0000
0000
0000
1000
0001
0100
0000
0000
0010
1000
0000
0000
0000
0000
0100
0010
0001
1000
0100
1000
,
0001
0100
0001
0010
0000
0000
0110
0000
0000
0100
0000
0000
1100
0000
0000
1000
0000
0000
0001
0100
0001
0010
0000
0000
,
0100
0000
0000
0000
0000
0000
1100
0000
0000
0000
0000
0000
1000
0000
0000
0000
0000
0000
1001
0000
0000
0000
0000
0000
0001
0000
0000
1000
0000
0000
0000
0000
0000
0000
0000
0000
0100
0000
0010
0000
0001
0000
1000
0000
0100
0000
1000
0000
,
0001
0000
0100
0000
0001
0000
1000
0000
0100
0000
1000
0000
0001
0000
0100
0000
0001
0000
1000
0000
0000
0000
0000
0000
0100
0000
0000
0020
0000
0000
0000
0000
0000
0000
0000
0000
0000
0000
0000
0000
0000
0000
0031
0000
0000
0000
0000
0000
,
0101
0000
0000
0100
0000
0000
0110
0000
0000
0010
0000
0000
1010
0000
0000
1000
0100
0010
0001
1000
0100
1000
0001
0100
,
0001
0000
0010
0000
0100
0000
1000
0000
0001
0000
0100
0000
0001
0000
1000
0000
0100
0000
0010
0000
0000
0000
0000
0000
0001
0000
0000
0200
0000
0000
0000
0000
0000
0000
0000
0000
0000
0000
0000
0000
0000
0000
0310
0000
0000
0010
0000
0000
,
0010
0010
1000
0000
0100
0000
0010
0000
0001
0000
1000
0000
0100
0000
1000
0000
,
0001
0000
0000
0100
0000
0000
0001
0000
0000
0020
0000
0000
0000
0000
0000
0130
0000
0000
1100
0000
0000
1000
0001
0100
,
0001
1000
0010
1000
0010
0100
0010
1000
0100
1000
0100
0010
0001
1000
0001
0100
0001
0100
0010
1000
0100
0010
0001
1000
,
0001
0100
0001
0010
0001
0010
0100
1000
0010
0100
0010
1000
0100
1000
0100
0010
0001
1000
0001
0100
0001
0010
0100
1000
,
0001
0100
0001
0100
0010
1000
0100
0010
0001
1000
0001
1000
0100
1000
0001
1000
0001
0100
0001
0010
0001
0010
0100
1000
,
0010
0100
0010
1000
0100
0010
0001
1000
0001
0100
0001
0100
0010
1000
0100
0010
0100
1000
0001
0010
0001
0010
0100
1000
,
0010
0100
0010
1000
0100
0010
0001
1000
0001
0100
0001
0010
0001
0010
0100
1000
0010
0100
0010
1000
0100
1000
0100
0010
,
0001
1000
0001
0100
0001
0010
0100
0010
0001
1000
0100
1000
0100
0010
0001
1000
0010
0100
0010
1000
0001
0100
0001
0100
,
0010
1000
0100
0010
0001
1000
0001
0010
0001
0010
0100
1000
0010
0100
0010
1000
0100
1000
0100
0010
0001
1000
0001
0100
,
0001
0010
0100
1000
0010
0100
0010
1000
0100
1000
0100
0010
0001
1000
0001
0200
0000
0000
0000
0000
0000
0310
1000
0100
,
1000
0001
0100
0001
0100
0010
1000
0001
0010
0001
0010
0100
1000
0001
0100
0001
1000
0100
0010
0001
1000
0001
0100
0010
,
1000
0010
1000
0001
0100
0010
1000
0001
0010
0001
0010
0100
1000
0001
0100
0001
1000
0100
0010
0001
0010
0001
1000
0010
,
0100
0010
1000
0001
0100
0001
0100
0010
1000
0001
0010
0100
1000
0001
0100
0001
1000
0100
1000
0100
0010
0001
1000
0010
,
0100
0010
1000
0001
0010
0001
0010
0100
1000
0001
0100
0010
1000
0001
0100
0001
0100
0010
1000
0100
0010
0001
1000
0001
,
0010
0001
0010
0100
1000
0010
0100
0010
1000
0100
0010
0001
1000
0001
0100
0010
1000
0100
1000
0100
0010
0001
1000
0010
,
0100
0001
0010
0001
0010
0100
1000
0001
0100
0010
1000
0001
0010
0001
0010
0100
1000
0010
0100
0010
1000
0100
0010
0001
,
1000
0001
0100
0001
1000
0100
1000
0010
0100
0001
0010
0001
0010
0100
1000
0001
0100
0001
1000
0100
0010
0001
1000
0010
,
1000
0100
1000
0010
0100
0001
0010
0001
0010
0100
1000
0001
0100
0001
1000
0100
0010
0001
1000
0010
0100
0002
0000
0000
,
2003
0000
3002
0000
2003
0000
3001
1000
,
0200
0310
0002
1003
0020
0130
0002
0013
,
0100
1000
0001
0000
1000
0010
1000
0000
0001
0100
0001
0000
1000
0100
0010
0000
,
0100
1000
0001
0000
1000
0010
1000
0000
0001
0100
0001
0000
1000
0100
0010
0000
,
0001
1000
0001
0000
1000
0100
1000
0000
0010
0100
0001
0000
0010
0100
1000
0000
,
0001
0100
0001
0000
1000
0010
1000
0000
0001
0100
0001
0000
1000
0100
0010
0000
,
0001
0100
0010
0000
1000
0001
1000
0000
0001
0100
0001
0000
1000
0100
0010
0000
,
0001
1000
0001
0000
1000
0100
1000
0000
0010
0100
0001
0000
1000
0100
1000
0000
,
0001
0100
0001
0000
1000
0010
0100
0000
0001
1000
0001
0000
0010
0100
1000
0000
,
0001
0100
0001
0000
1000
0100
1000
0000
0010
0100
0001
0000
1000
0100
1000
0000
,
0002
0000
0000
0000
0000
0000
0203
0000
0000
0000
0000
0000
0320
0000
0000
0000
0000
0000
1030
0000
0000
0100
0010
0001
,
1000
0001
0100
0001
0000
0000
0000
0000
1000
0100
0010
0001
1000
0001
0100
0001
0000
0000
1000
0000
0000
0100
0010
0001
,
1000
0001
0100
0001
0000
0000
0000
0000
1000
0100
0010
0001
1000
0001
0100
0010
0000
0000
1000
0001
0100
0010
0000
0000
,
1010
0000
0000
1000
0000
0000
1100
0000
0000
0100
0000
0000
0110
0000
0000
0010
0000
0000
0000
0000
0001
1000
0100
1000
,
0001
1000
0100
0020
0000
0000
0000
0000
0031
1000
0100
0000
0000
0010
0001
1000
0000
0000
0010
0100
0010
0100
0001
1000
,
0001
0100
0001
1000
0000
0000
1100
0000
0000
0100
0000
0000
0110
0000
0000
0010
0000
0000
0001
0100
0001
1000
0000
0000
,
1100
0000
0000
0000
0000
0000
0100
0000
0000
0000
0000
0000
0110
0000
0000
0000
0000
0000
0020
0000
0000
0000
0000
0000
0031
0000
0000
1000
0000
0000
0000
0000
0000
0000
0000
0000
0010
0000
0100
0000
0001
0000
1000
0000
0001
0000
0010
0000
,
0001
0000
0010
0000
0100
0000
1000
0000
0010
0000
0100
0000
0010
0000
1000
0000
0100
0000
1000
0000
0000
0000
0000
0000
0001
0000
0000
0020
0000
0000
0000
0000
0000
0000
0000
0000
0000
0000
0000
0000
0000
0000
0130
0000
0000
0000
0000
0000
,
1100
0000
0000
1000
0000
0000
1010
0000
0000
0010
0000
0000
0110
0000
0000
0100
0000
0000
0001
1000
0100
0010
0001
1000
,
0001
0000
0100
0000
0001
0000
0100
0000
0010
0000
1000
0000
0100
0000
1000
0000
0100
0000
0010
0000
0000
0000
0000
0000
0001
0000
0000
0100
0000
0000
0000
0000
0000
0000
0000
0000
0010
0000
0000
1000
0000
0000
0001
0000
0010
0000
0001
0000
,
0010
0100
1000
0001
0100
0001
1000
0100
0010
0001
1000
0001
0100
0001
1000
0001
1000
0100
1000
0010
0100
0001
0010
0001
,
0010
0100
1000
0010
0100
0010
1000
0100
0010
0001
0010
0001
1000
0001
0100
0001
0010
0100
1000
0010
0100
0010
1000
0100
,
1000
0100
0010
0001
1000
0001
0100
0001
0010
0001
0010
0100
1000
0010
0100
0010
1000
0100
1000
0100
0010
0001
1000
0001
,
0100
0001
0010
0100
1000
0010
1000
0010
0100
0001
1000
0100
1000
0100
0010
0001
1000
0001
0100
0010
1000
0100
1000
0001
,
0100
0001
0100
0010
1000
0100
0010
0001
1000
0001
1000
0001
0010
0001
0010
0100
1000
0010
0100
0010
1000
0100
0010
0001
,
1000
0001
0100
0001
1000
0100
1000
0100
0010
0001
1000
0010
1000
0010
0100
0001
0010
0100
1000
0001
0010
0100
1000
0001
,
0100
0001
1000
0100
0010
0001
1000
0001
0100
0001
1000
0010
0100
0010
1000
0001
0100
0001
0100
0010
1000
0001
0010
0100
,
1000
0001
0100
0001
1000
0100
0010
0001
1000
0010
1000
0100
0010
0001
1000
0002
0000
0000
0000
0000
0000
0103
0010
0100
,
0010
1000
0100
0010
0001
1000
0001
0100
0001
0010
0001
0010
0100
1000
0010
0100
0010
1000
0100
0010
0001
1000
0001
0100
,
0001
1000
0100
1000
0100
0010
0001
1000
0010
1000
0010
0100
0010
1000
0001
0100
0010
1000
0001
0010
0001
0010
0100
1000
,
0001
0100
0001
1000
0100
0010
0100
1000
0001
0100
0001
0010
0100
1000
0001
0010
0001
1000
0010
0100
0010
1000
0100
1000
,
0100
0010
0001
1000
0010
0100
0001
1000
0001
0010
0001
0010
0100
1000
0010
0100
0001
1000
0100
0010
0100
1000
0001
0010
,
0001
0010
0100
1000
0010
0100
0010
1000
0100
0010
0001
1000
0001
0100
0001
0010
0001
0010
0100
1000
0010
0100
0001
0010
,
0001
0010
0100
1000
0010
0100
0010
1000
0100
0010
0001
1000
0001
0100
0001
0010
0001
0010
0100
1000
0010
0100
0010
1000
,
0100
0010
0001
1000
0001
0100
0001
0010
0001
0010
0100
1000
0010
0100
0010
1000
0100
0010
0001
1000
0001
0100
0001
0010
,
0100
0000
1000
0000
0010
0000
0100
0000
0010
0000
1000
0000
0100
0000
0010
0000
0001
0000
1000
0000
0000
0000
0000
0000
0100
0000
0000
0010
0000
0000
0000
0000
0000
0000
0000
0000
0000
0000
0000
0000
0000
0000
0002
0000
0000
0000
0000
0000
,
0000
0203
0000
0320
0000
0000
1030
0002
,
0000
0000
0000
0000
0000
0000
0023
0000
0000
0000
0000
0000
0000
0000
0000
0000
0000
0000
0230
0000
0000
0000
0000
0000
0000
0000
0000
0000
0000
0000
1300
0000
0000
0001
0000
0000
1000
0000
0000
0001
0000
0000
1000
0000
0100
0000
0010
0000
,
0001
1000
0010
0100
0001
0010
0001
0010
0100
1000
0001
1000
0001
0100
0001
1000
0010
1000
0010
0100
0010
1000
0100
0010
,
0001
0010
0001
1000
0100
0010
0001
0010
0001
1000
0001
0100
0001
0010
0100
1000
0001
1000
0001
0100
0001
1000
0010
1000
,
0010
0100
0010
1000
0100
0010
0001
1000
0001
0100
0001
0010
0001
0010
0100
1000
0010
0100
0010
1000
0100
0010
0001
0010
,
0001
1000
0100
0010
0100
1000
0010
0100
0001
0010
0001
0010
0100
1000
0001
0100
0001
1000
0100
0010
0001
1000
0001
0100
,
0001
0010
0001
0010
0100
1000
0010
0100
0010
1000
0100
0010
0001
1000
0001
0100
0001
1000
0010
0100
0010
1000
0100
0010
,
0001
1000
0001
0100
0001
0010
0001
0010
0100
1000
0010
0100
0010
1000
0100
0010
0001
1000
0001
0100
0001
0010
0001
0010
,
0100
1000
0010
0100
0010
1000
0100
0010
0001
1000
0001
0100
0001
0010
0001
0010
0100
1000
0010
0100
0010
1000
0100
0010
,
0001
1000
0001
0100
0001
0010
0001
0010
0100
1000
0010
0100
0010
1000
0100
1000
0100
0010
0001
1000
0001
0100
0001
0010
,
0001
0010
0100
1000
0010
0100
0010
1000
0100
0010
0001
1000
0001
0100
0001
1000
0100
1000
0010
0100
0010
1000
0100
0010
,
0001
0010
0001
1000
0100
0010
0100
1000
0001
0100
0001
0010
0001
0010
0100
1000
0010
0100
0010
1000
0100
0010
0001
1000
,
0001
1000
0001
0100
0001
0010
0100
1000
0001
1000
0001
1000
0010
0100
0010
1000
0100
0010
0001
1000
0001
0100
0001
0010
,
0001
0010
0100
1000
0010
0100
0001
1000
0100
1000
0100
0010
0001
1000
0010
0100
0001
0010
0001
0010
0100
1000
0001
0100
,
0001
1000
0100
1000
0100
0010
0001
1000
0010
0100
0010
1000
0100
0010
0001
1000
0001
0100
0001
0010
0001
0010
0100
1000
,
0010
0100
0010
1000
0100
0010
0001
1000
0001
0100
0001
0010
0001
0010
0100
1000
0010
0100
0010
1000
0100
0010
0001
1000
,
0001
1000
0100
1000
0010
0100
0001
0010
0001
0010
0100
1000
0010
0100
0010
1000
0100
0010
0001
1000
0001
0100
0001
0010
,
0001
0010
0100
1000
0010
0100
0010
1000
0100
0010
0001
1000
0001
0100
0001
0010
0001
0010
0100
1000
0001
1000
0000
0000
,
0200
0000
0320
0000
0032
0000
0103
0010
,
2000
0000
0000
0002
0000
3103
0000
1101
;
