#TITLE:On The Beach;
#SUBTITLE:;
#ARTIST:DJ Sharpnel;
#TITLETRANSLIT:;
#SUBTITLETRANSLIT:;
#ARTISTTRANSLIT:;
#CREDIT:;
#BANNER:on the beach bn.png;
#BACKGROUND:on the beach bg.png;
#LYRICSPATH:;
#CDTITLE:;
#MUSIC:05 ON THE BEACH.ogg;
#OFFSET:-1.540;
#SAMPLESTART:68.040;
#SAMPLELENGTH:22.047;
#SELECTABLE:YES;
#DISPLAYBPM:174.160;
#BPMS:0.000=174.160,770.000=111.500,771.000=174.160;
#STOPS:;
#BGCHANGES:;
// cache tags:
#FIRSTBEAT:9.000;
#LASTBEAT:774.000;
#SONGFILENAME:Songs/SHARPNELSTREAMZ v2/On The Beach/On The Beach.sm;
#HASMUSIC:1;
#HASBANNER:1;
#MUSICLENGTH:270.244;
// end cache tags

//---------------dance-single - 16- (@@)----------------
#NOTES:
     dance-single:
     16- (@@):
     Challenge:
     16:
     1.000,1.000,0.078,0.000,1.000,2841.000,21.000,0.000,0.000,0.000:
0000
0000
0000
0000
,
0000
0000
0000
0000
,
0000
0000
1000
1000
1000
0000
0001
0001
,
0001
0000
1000
1000
0100
0100
0010
0001
,
0100
0010
1000
1000
1000
0000
0001
0001
,
0001
1000
1001
0000
0000
0000
0000
0001
,
0011
0000
0000
0000
0001
0010
0100
1000
0001
0010
0001
0010
0100
1000
0001
0100
,
0010
1000
0010
1000
0001
0010
0001
1000
0100
0010
0100
0010
0001
1000
0010
1000
,
0001
0100
0001
0100
0001
1000
0100
0010
0100
1000
0100
1000
0001
0100
0010
1000
,
0001
0010
0001
0100
0001
1000
0010
1000
0001
0100
0001
0100
0010
1000
0100
0010
,
0100
1000
0100
1000
0001
0100
0010
1000
0001
0100
0001
0100
0010
1000
0001
0010
,
0100
1000
0010
1000
0001
0100
0001
1000
0010
0100
0010
0100
0001
1000
0100
1000
,
0001
0010
0001
0010
0001
1000
0010
0100
0010
1000
0010
1000
0001
0010
0100
1000
,
0001
0100
0001
0010
0001
1000
0100
1000
0001
0010
0001
0010
0100
1000
0010
0100
,
0010
1000
0010
1000
0001
0010
0100
1000
0001
0010
0001
0010
0100
1000
0010
0100
,
0010
1000
0100
0010
0100
1000
0010
0100
0001
1000
0010
1000
0100
0010
0001
1000
,
0010
0100
0010
0100
0001
1000
0001
1000
0100
0010
0100
1000
0001
0100
0001
1000
,
0100
0010
0100
0010
0001
1000
0100
1000
0010
0100
0001
1000
0100
0010
0001
1000
,
0010
0100
0010
0100
0001
1000
0001
1000
0100
0010
0001
1000
0010
0100
0010
1000
,
0100
0010
0001
0100
0001
1000
0010
0100
0001
0010
0100
1000
0001
0100
0001
1000
,
0100
0010
0100
0010
0001
1000
0001
1000
0010
0100
0010
1000
0001
0010
0001
1000
,
0010
0100
0001
0010
0001
1000
0010
1000
0100
0010
0001
1000
0010
0100
0001
1000
,
0100
0010
0100
0010
0001
1000
0001
1000
0010
0100
0001
1000
0100
0010
0100
1000
,
0001
0100
0001
0100
0010
0000
0000
0000
1010
0000
0000
0000
0010
0000
0100
0000
,
0001
0000
0001
0000
1000
0001
1000
0001
0100
0010
0100
0001
1000
0100
1000
0001
,
0100
0010
0100
0010
1000
0001
0100
0001
0010
0100
1000
0001
0100
0010
1000
0001
,
0010
0100
0010
0100
1000
0001
1000
0001
0100
0010
1000
0001
0010
0100
0010
0001
,
0100
0010
1000
0100
1000
0001
0010
0100
1000
0010
0100
0001
1000
0100
1000
0001
,
0100
0010
0100
0010
1000
0001
1000
0001
0010
0100
0010
0001
1000
0010
1000
0001
,
0010
0100
1000
0010
1000
0001
0010
0001
0100
0010
1000
0001
0010
0100
1000
0001
,
0100
0010
0100
0010
1000
0001
1000
0001
0010
0100
1000
0001
0100
0010
0100
0001
,
1000
0100
1000
0100
0010
0000
0000
0000
0011
0000
0000
0000
0001
0000
0000
0000
,
1000
0000
1000
0000
0001
0100
0001
0100
0010
1000
0010
1000
0100
0010
0001
0100
,
0010
1000
0001
0010
0001
0010
0100
1000
0010
0100
0010
0100
0001
0010
0100
1000
,
0001
0010
0001
1000
0010
0100
0001
0100
0010
0100
0001
0010
0100
1000
0100
1000
,
0010
0100
0010
1000
0100
0010
0001
1000
0100
1000
0010
0100
0001
0100
0010
1000
,
0100
0010
0100
1000
0001
0010
0001
0010
0100
1000
0100
1000
0010
0100
0001
0010
,
0100
1000
0001
0100
0001
0100
0010
1000
0100
0010
0100
0010
0001
0100
0010
1000
,
0001
0100
0001
1000
0100
0010
0001
0010
0100
0010
0001
0100
0010
1000
0010
1000
,
0100
0010
0100
1000
0010
0100
0001
1000
0010
1000
0100
0010
0001
0010
0100
1000
,
0010
1000
0001
0100
0001
1000
0010
1000
0100
0010
0100
1000
0001
0100
0010
1000
,
0001
0010
0001
0010
0001
1000
0100
1000
0010
0100
0010
1000
0001
0010
0100
1000
,
0001
0100
0001
0100
0001
1000
0010
1000
0100
0010
0100
1000
0001
0100
0010
1000
,
0001
0010
0001
0010
0001
1000
0100
1000
0010
0100
0010
1000
0001
0010
0100
1000
,
0001
0100
0001
0100
0010
0000
0010
0000
0010
0000
0010
0000
1000
0000
1000
0000
,
1000
0000
1000
0000
0001
0010
0100
1000
0010
0100
0001
1000
0001
0000
1000
0000
,
0001
0000
1000
0000
0001
0010
0100
1000
0001
1000
0100
0010
0001
1000
0010
0100
,
0001
0100
0010
1000
0001
1000
0100
0010
0001
0010
0100
1000
0010
0000
0000
0000
,
0100
0000
0100
0000
0001
0010
0100
1000
0001
0010
0100
0010
0001
1000
0010
0100
,
0001
0010
0100
1000
0001
0100
0010
1000
0010
0100
0001
1000
0001
0100
0010
1000
,
0100
0010
0100
1000
0010
0100
0001
1000
0100
1000
0001
0100
0010
0100
0001
1000
,
0100
0010
0100
1000
0010
0100
0001
1000
0100
1000
0001
0100
0010
0100
0001
1000
,
0100
0010
0100
0010
0001
1000
0010
1000
0001
1000
0100
0010
0001
1000
0001
0100
,
0001
1000
0001
0010
0100
1000
0100
1000
0001
0010
0100
1000
0001
0100
0010
1000
,
0100
0010
0001
1000
0010
0100
0010
1000
0001
0100
0001
1000
0100
1000
0001
0100
,
0001
1000
0010
1000
0100
0010
0001
0010
0100
1000
0001
0100
0010
0100
0001
1000
,
0100
0010
0100
1000
0001
0100
0010
0100
0001
1000
0010
1000
0001
0010
0100
1000
,
0010
0100
0001
1000
0100
0010
0100
1000
0001
0010
0100
1000
0001
0010
0001
0100
,
0010
1000
0010
0100
0001
0010
0001
1000
0010
0100
0001
1000
0100
0010
0001
0100
,
0010
1000
0010
0100
0001
0010
0001
1000
0010
0100
0001
1000
0100
0010
0001
1000
,
0010
0100
0010
0100
0001
1000
0100
1000
0001
1000
0010
0100
0001
1000
0001
0010
,
0001
1000
0001
0100
0010
1000
0010
1000
0001
0100
0010
1000
0001
0010
0100
1000
,
0010
1000
0001
0100
0001
1000
0100
1000
0001
0010
0001
1000
0010
1000
0001
0010
,
0100
0010
0001
0100
0010
1000
0001
1000
0010
0100
0001
1000
0100
1000
0001
0010
,
0100
1000
0001
0010
0001
1000
0010
1000
0001
0100
0010
0100
0001
1000
0100
0010
,
0001
0100
0010
1000
0001
0010
0100
1000
0100
0010
0001
1000
0001
0010
0100
1000
,
0010
0100
0010
1000
0100
0010
0001
1000
0010
1000
0001
0010
0100
0010
0001
1000
,
0010
0100
0010
1000
0100
0010
0001
1000
0010
1000
0001
0010
0100
0010
0001
1000
,
0010
0100
0010
0100
0001
1000
0100
1000
0001
1000
0010
0100
0001
1000
0001
0010
,
0001
1000
0001
0100
0010
1000
0010
1000
0001
0100
0010
1000
0001
0010
0100
1000
,
0010
0100
0001
1000
0100
0010
0100
1000
0001
0010
0001
1000
0010
1000
0001
0010
,
0001
1000
0100
1000
0010
0100
0001
0100
0010
1000
0001
0010
0100
0010
0001
1000
,
0010
0100
0010
1000
0001
0010
0100
0010
0001
1000
0100
1000
0001
0100
0010
1000
,
0100
0010
0001
1000
0010
0100
0010
1000
0001
0100
0010
1000
0001
0100
0001
0010
,
0100
1000
0100
0010
0001
0100
0001
1000
0100
0010
0001
1000
0010
0100
0001
0010
,
0100
1000
0100
0010
0001
0100
0001
1000
0100
0010
0001
1000
0010
0100
0001
1000
,
0100
0010
0100
0010
0001
1000
0010
1000
0001
1000
0100
0010
0001
1000
0001
0100
,
0001
1000
0001
0010
0100
1000
0100
1000
0001
0010
0100
1000
0001
0100
0010
1000
,
0100
1000
0001
0010
0001
1000
0010
1000
0001
0100
0001
1000
0100
1000
0001
0100
,
0010
0100
0001
0010
0100
1000
0001
1000
0100
0010
0001
1000
0010
1000
0001
0100
,
0010
1000
0001
1000
0010
0000
0010
0000
0010
0000
0000
0000
0100
0000
0100
0000
,
0100
0000
0000
0000
0001
0000
0001
0000
0010
0000
0010
0000
0100
0000
1000
0010
,
0100
0001
0010
0010
0010
0000
0100
0100
,
0100
0000
0000
0000
1000
0000
1000
0000
0010
0000
0010
0000
0100
0000
0001
0010
,
0100
1000
0010
0010
0010
0000
0100
0100
,
0100
0000
0000
0000
0001
0000
0001
0000
0010
0000
0010
0000
0100
0000
1000
0010
,
0100
0001
0010
0010
0010
0000
0100
0100
,
0100
0000
0000
0000
1000
0000
0010
0000
0100
0000
0001
0000
0010
0000
0100
1000
,
0100
1000
0001
0100
0110
0010
1000
0001
,
0011
0010
0100
1000
1001
0001
0100
0010
,
1010
1000
0010
0100
0101
0001
1000
0100
,
0110
0010
0001
1000
1100
0100
0010
0001
,
1001
1000
0001
0100
0101
0001
1000
0001
,
0011
0010
0100
1000
1001
0001
0010
0100
,
1100
1000
0010
0100
0101
0001
1000
0010
,
1010
1000
0001
1000
1100
0100
0010
0001
,
1001
0000
1000
0000
0010
0100
0010
0100
0001
1000
0100
0010
0100
0010
0001
1000
,
0010
0100
0010
0100
0001
1000
0100
1000
0001
1000
0010
0100
0010
0100
0001
1000
,
0100
0010
0100
0010
0001
0100
0001
0100
0010
1000
0001
0010
0001
0010
0100
1000
,
0001
0100
0001
0100
0010
1000
0001
1000
0100
0010
0100
1000
0100
1000
0001
0100
,
0010
1000
0010
1000
0001
0010
0100
1000
0001
0100
0010
1000
0001
0010
0001
0010
,
0100
1000
0001
0100
0001
0100
0010
1000
0010
1000
0001
0010
0001
1000
0001
0100
,
0001
1000
0001
0010
0100
1000
0100
1000
0001
0100
0010
1000
0010
1000
0001
0010
,
0100
1000
0010
0100
0001
0010
0001
1000
0010
0100
0010
1000
0001
0010
0001
1000
,
0010
0100
0010
1000
0100
0010
0100
0010
0001
1000
0010
0100
0010
0100
0001
1000
,
0100
0010
0100
0010
0001
1000
0010
1000
0001
1000
0100
0010
0100
0010
0001
1000
,
0010
0100
0010
0100
0001
0010
0001
0010
0100
1000
0001
0100
0001
0100
0010
1000
,
0001
0010
0001
0010
0100
1000
0001
1000
0010
0100
0010
1000
0010
1000
0001
0010
,
0100
1000
0100
1000
0001
0100
0010
1000
0001
0010
0100
1000
0001
0100
0001
0100
,
0010
1000
0001
0010
0001
0010
0100
1000
0100
1000
0001
0100
0001
1000
0001
0010
,
0001
1000
0001
0100
0010
1000
0010
1000
0001
0010
0100
1000
0100
1000
0001
0100
,
0010
1000
0100
0010
0001
0100
0001
1000
0100
0010
0100
1000
0001
0100
0001
1000
,
0100
0010
0100
1000
0010
0100
0010
0100
0001
1000
0100
0010
0100
0010
0001
1000
,
0010
0100
0010
0100
0001
0010
0001
1000
0001
0100
0010
1000
0010
1000
0001
0010
,
0100
1000
0100
1000
0010
0100
0010
0100
0001
1000
0100
0010
0100
0010
0001
0100
,
0010
1000
0010
1000
0001
0100
0001
1000
0001
0010
0100
1000
0100
1000
0010
1000
,
0001
0100
0001
0100
0001
1000
0100
0010
0001
0100
0010
1000
0001
0010
0001
0010
,
0100
1000
0010
0100
0010
0100
0001
0010
0001
0010
0100
1000
0001
1000
0010
1000
,
0001
1000
0100
0010
0001
0100
0001
0100
0010
1000
0001
0010
0001
0010
0100
1000
,
0001
1000
0010
0100
0001
0010
0001
1000
0010
0100
0010
1000
0001
0010
0001
1000
,
0010
0100
0010
1000
0100
0010
0100
0010
0001
1000
0010
0100
0010
0100
0001
1000
,
0100
0010
0100
0010
0001
0100
0001
1000
0001
0010
0100
1000
0100
1000
0001
0100
,
0010
1000
0010
1000
0100
0010
0100
0010
0001
1000
0010
0100
0010
0100
0001
0010
,
0100
1000
0100
1000
0001
0010
0001
1000
0001
0100
0010
1000
0010
1000
0100
1000
,
0001
0010
0001
0010
0001
1000
0010
0100
0001
0010
0100
1000
0001
0100
0001
0100
,
0010
1000
0100
0010
0100
0010
0001
0100
0001
0100
0010
1000
0001
1000
0100
1000
,
0001
1000
0010
0100
0001
0010
0001
0010
0100
1000
0001
0100
0001
0100
0010
1000
,
0001
1000
0100
0010
0001
0100
0001
1000
0100
0010
0100
1000
0001
0100
0001
1000
,
0100
0010
0100
1000
0010
0100
0010
0100
0001
1000
0100
0010
0100
0010
0001
1000
,
0010
0100
0010
0100
0001
1000
0100
1000
0010
1000
0001
0100
0001
0100
0010
1000
,
0100
0010
0100
0010
0001
0100
0001
0100
0010
1000
0001
0010
0001
0010
0100
1000
,
0001
0100
0001
0100
0010
1000
0100
1000
0001
1000
0010
0100
0010
0100
0001
1000
,
0100
0010
0100
0010
0001
0100
0010
1000
0100
0010
0001
1000
0010
0100
0010
0100
,
0001
1000
0001
0010
0001
0010
0100
1000
0100
1000
0001
0010
0001
0100
0001
1000
,
0001
0100
0001
0010
0100
1000
0100
1000
0001
0100
0010
1000
0010
1000
0001
0010
,
0100
1000
0010
0100
0001
0010
0001
1000
0010
0100
0010
1000
0001
0010
0001
1000
,
0010
0100
0010
1000
0100
0010
0100
0010
0001
1000
0010
0100
0010
0100
0001
1000
,
0100
0010
0100
0010
0001
1000
0010
1000
0100
1000
0001
0010
0001
0010
0100
1000
,
0010
0100
0010
0100
0001
0010
0001
0010
0100
1000
0001
0100
0001
0100
0010
1000
,
0001
0010
0001
0010
0100
1000
0010
1000
0001
1000
0100
0010
0100
0010
0001
1000
,
0010
0100
0010
0100
0001
0010
0100
1000
0010
0100
0001
1000
0100
0010
0100
0010
,
0001
1000
0001
0100
0001
0100
0010
1000
0010
1000
0001
0100
0001
0010
0001
1000
,
0001
0010
0001
0100
0010
1000
0010
1000
0001
0010
0100
1000
0100
1000
0001
0100
,
0010
1000
0100
0010
0001
0100
0001
1000
0100
0010
0100
1000
0001
0100
0001
1000
,
0100
0010
0100
1000
0010
0100
0001
1000
0100
0010
0001
0100
0001
0100
0010
1000
,
0100
0010
0100
1000
0001
0100
0001
0010
0001
1000
0010
0100
0001
0100
0010
1000
,
0100
0010
0100
1000
0001
0100
0001
0100
0010
1000
0100
0010
0100
0010
0001
0100
,
0010
1000
0010
1000
0001
0010
0001
1000
0001
0100
0010
1000
0100
0010
0100
1000
,
0010
0100
0001
1000
0001
0010
0100
1000
0010
0100
0001
1000
0100
0010
0100
0010
,
0001
1000
0010
0100
0001
0010
0100
1000
0001
0010
0001
1000
0010
1000
0100
1000
,
0001
1000
0010
1000
0001
0100
0001
0100
0010
1000
0100
0010
0100
0010
0001
1000
,
0010
1000
0001
0010
0001
0100
0010
1000
0001
0010
0100
0010
0001
0100
0010
1000
,
0001
0010
0100
1000
0100
0010
0001
1000
0010
0100
0001
0010
0001
0010
0100
1000
,
0010
0100
0010
1000
0001
0010
0001
0100
0001
1000
0100
0010
0001
0010
0100
1000
,
0010
0100
0010
1000
0001
0010
0001
0010
0100
1000
0010
0100
0010
0100
0001
0010
,
0100
1000
0100
1000
0001
0100
0001
1000
0001
0010
0100
1000
0010
0100
0010
1000
,
0100
0010
0001
1000
0001
0100
0010
1000
0100
0010
0001
1000
0010
0100
0010
0100
,
0001
1000
0100
0010
0001
0100
0010
1000
0001
0100
0001
1000
0100
1000
0010
1000
,
0001
1000
0100
1000
0001
0010
0001
0010
0100
1000
0010
0100
0010
0100
0001
1000
,
0100
1000
0001
0100
0001
0010
0100
1000
0001
0100
0010
0100
0001
0010
0100
1000
,
0001
0100
0010
1000
0100
0010
0001
1000
0010
1000
0100
0010
0100
0010
0001
0100
,
0010
1000
0010
0100
0001
1000
0010
1000
0100
1000
0001
0010
0100
1000
0100
0010
,
0001
0100
0001
1000
0100
0010
0100
0010
0001
0100
0010
1000
0010
1000
0001
1000
,
0100
0010
0100
0010
0001
1000
0010
1000
0100
1000
0001
0010
0001
0100
0010
1000
,
0100
0010
0100
1000
0001
0100
0010
1000
0100
0010
0001
1000
0010
0100
0010
0100
,
0001
1000
0100
0010
0001
0100
0010
0100
0001
1000
0010
0100
0001
1000
0001
0100
,
0001
0010
0001
1000
0100
0010
0100
0010
0001
0100
0010
1000
0010
1000
0001
0010
,
0100
1000
0001
0100
0001
0010
0100
1000
0001
0100
0010
0100
0001
0010
0100
1000
,
0001
0100
0010
1000
0010
0100
0001
1000
0100
1000
0010
0100
0010
0100
0001
0010
,
0100
1000
0100
0010
0001
1000
0100
1000
0010
1000
0001
0100
0010
1000
0010
0100
,
0001
0010
0001
1000
0010
0100
0010
0100
0001
0010
0100
1000
0100
1000
0001
1000
,
0010
0100
0010
0100
0001
1000
0100
1000
0010
1000
0001
0100
0001
0010
0100
1000
,
0010
0100
0010
1000
0001
0010
0100
1000
0010
0100
0001
1000
0100
0010
0100
0010
,
0001
1000
0010
0100
0001
0010
0100
0010
0001
1000
0100
0010
0001
1000
0001
0010
,
0001
0100
0001
1000
0010
0100
0010
0100
0001
0010
0100
1000
0100
1000
0001
0100
,
0010
1000
0001
0010
0001
0100
0010
1000
0001
0010
0100
0010
0001
0100
0010
1000
,
0001
0010
0100
1000
0010
1000
0001
0100
0001
0010
0100
1000
0001
0010
0001
0100
,
0010
1000
0010
0100
0001
0010
0001
0100
0001
1000
0001
0010
0100
1000
0001
0010
,
0001
0100
0010
1000
0100
0010
0001
1000
0100
1000
0010
0100
0010
1000
0001
0100
,
0001
0010
0100
1000
0001
0100
0001
0010
0001
1000
0001
0100
0010
1000
0001
0010
,
0001
0100
0010
1000
0001
0010
0100
1000
0010
1000
0001
0100
0001
0010
0100
1000
,
0001
0010
0001
0100
0010
0100
0001
0010
0100
0010
0001
1000
0010
1000
0100
1000
,
0001
1000
0010
0100
0001
0010
0100
1000
0001
0010
0001
0100
0010
0100
0001
1000
,
0001
0010
0100
1000
0010
1000
0001
0100
0001
0010
0100
1000
0010
1000
0001
0100
,
0001
0010
0001
1000
0010
1000
0001
0100
0001
0010
0100
1000
0001
0010
0001
0100
,
0010
1000
0100
0010
0001
0100
0001
0010
0001
1000
0001
0100
0010
1000
0001
0100
,
0001
0010
0100
1000
0010
0100
0001
1000
0010
1000
0100
0010
0100
1000
0001
0010
,
0001
0100
0010
1000
0001
0010
0001
0100
0001
1000
0001
0010
0100
1000
0001
0100
,
0001
0010
0100
1000
0001
0100
0010
1000
0100
1000
0001
0010
0001
0100
0010
1000
,
0001
0100
0001
0010
0100
0010
0001
0100
0010
0100
0001
1000
0100
1000
0010
1000
,
0001
1000
0100
0010
0001
0100
0010
1000
0001
0100
0001
0010
0100
0010
0001
1000
,
0001
0100
0010
1000
0100
1000
0001
0010
0001
0100
0010
1000
0100
1000
0001
0010
,
0001
0100
0010
1000
0100
0010
0001
1000
0001
0000
0000
0000
1001
0000
0000
0000
,
1000
1000
0010
0010
0100
0000
0000
0000
;

//---------------dance-single - 15 (@@TYLR)----------------
#NOTES:
     dance-single:
     15 (@@TYLR):
     Hard:
     15:
     1.000,1.000,0.207,0.977,1.000,2351.000,56.000,264.000,0.000,0.000:
0000
0000
0000
0000
,
0000
0000
0000
0000
,
0000
0000
1000
1000
1000
0000
0001
0001
,
0001
0000
1000
1000
0100
0100
0010
0001
,
0100
0010
1000
1000
1000
0000
0001
0001
,
0001
1000
1001
0000
0000
0000
0000
0001
,
0011
0000
0000
0000
0001
0010
0100
1000
0001
0010
0001
0010
0100
1000
0001
0100
,
0010
1000
0010
1000
0001
0010
0001
1000
0100
0010
0100
0010
0001
1000
0010
1000
,
0001
0100
0001
0100
0001
1000
0100
0010
0100
1000
0100
1000
0001
0100
0010
1000
,
0001
0010
0001
0100
0001
1000
0010
1000
0001
0100
0001
0100
0010
1000
0100
0010
,
0100
1000
0100
1000
0001
0100
0010
1000
0001
0100
0001
0100
0010
1000
0001
0010
,
0100
1000
0010
1000
0001
0100
0001
1000
0010
0100
0010
0100
0001
1000
0100
1000
,
0001
0010
0001
0010
0001
1000
0010
0100
0010
1000
0010
1000
0001
0010
0100
1000
,
0001
0100
0001
0010
0001
1000
0100
1000
0001
0010
0001
0010
0100
1000
0010
0100
,
0010
1000
0010
1000
0001
0010
0100
1000
0001
0010
0001
0010
0100
1000
0010
0100
,
0010
1000
0100
0010
0100
1000
0010
0100
0001
1000
0010
1000
0100
0010
0001
1000
,
0010
0100
0010
0100
0001
1000
0001
1000
0100
0010
0100
1000
0001
0100
0001
1000
,
0100
0010
0100
0010
0001
1000
0100
1000
0010
0100
0001
1000
0100
0010
0001
1000
,
0010
0100
0010
0100
0001
1000
0001
1000
0100
0010
0001
1000
0010
0100
0010
1000
,
0100
0010
0001
0100
0001
1000
0010
0100
0001
0010
0100
1000
0001
0100
0001
1000
,
0100
0010
0100
0010
0001
1000
0001
1000
0010
0100
0010
1000
0001
0010
0001
1000
,
0010
0100
0001
0010
0001
1000
0010
1000
0100
0010
0001
1000
0010
0100
0001
1000
,
0100
0010
0100
0010
0001
1000
0001
1000
0010
0100
0001
1000
0100
0010
0100
1000
,
0001
0100
0001
0100
0010
0000
0000
0000
1010
0000
0000
0000
0010
0000
0100
0000
,
0001
0000
0001
0000
1000
0001
1000
0001
0100
0010
0100
0001
1000
0100
1000
0001
,
0100
0010
0100
0010
1000
0001
0100
0001
0010
0100
1000
0001
0100
0010
1000
0001
,
0010
0100
0010
0100
1000
0001
1000
0001
0100
0010
1000
0001
0010
0100
0010
0001
,
0100
0010
1000
0100
1000
0001
0010
0100
1000
0010
0100
0001
1000
0100
1000
0001
,
0100
0010
0100
0010
1000
0001
1000
0001
0010
0100
0010
0001
1000
0010
1000
0001
,
0010
0100
1000
0010
1000
0001
0010
0001
0100
0010
1000
0001
0010
0100
1000
0001
,
0100
0010
0100
0010
1000
0001
1000
0001
0010
0100
1000
0001
0100
0010
0100
0001
,
1000
0100
1000
0100
0010
0000
0000
0000
0011
0000
0000
0000
0001
0000
0000
0000
,
1000
0000
1000
0000
0001
0100
0001
0100
0010
1000
0010
1000
0100
0010
0001
0100
,
0010
1000
0001
0010
0001
0010
0100
1000
0010
0100
0010
0100
0001
0010
0100
1000
,
0001
0010
0001
1000
0010
0100
0001
0100
0010
0100
0001
0010
0100
1000
0100
1000
,
0010
0100
0010
1000
0100
0010
0001
1000
0100
1000
0010
0100
0001
0100
0010
1000
,
0100
0010
0100
1000
0001
0010
0001
0010
0100
1000
0100
1000
0010
0100
0001
0010
,
0100
1000
0001
0100
0001
0100
0010
1000
0100
0010
0100
0010
0001
0100
0010
1000
,
0001
0100
0001
1000
0100
0010
0001
0010
0100
0010
0001
0100
0010
1000
0010
1000
,
0100
0010
0100
1000
0010
0100
0001
1000
0010
1000
0100
0010
0001
0010
0100
1000
,
0010
1000
0001
0100
0001
1000
0010
1000
0100
0010
0100
1000
0001
0100
0010
1000
,
0001
0010
0001
0010
0001
1000
0100
1000
0010
0100
0010
1000
0001
0010
0100
1000
,
0001
0100
0001
0100
0001
1000
0010
1000
0100
0010
0100
1000
0001
0100
0010
1000
,
0001
0010
0001
0010
0001
1000
0100
1000
0010
0100
0010
1000
0001
0010
0100
1000
,
0001
0100
0001
0100
0010
0000
0010
0000
0010
0000
0010
0000
1000
0000
1000
0000
,
1000
0000
1000
0000
0001
0010
0100
1000
0010
0100
0001
1000
0001
0000
1000
0000
,
0001
0000
1000
0000
0001
0010
0100
1000
0001
1000
0100
0010
0001
1000
0010
0100
,
0001
0100
0010
1000
0001
1000
0100
0010
0001
0010
0100
1000
0010
0000
0000
0000
,
0100
0000
0100
0000
0001
0010
0100
1000
0001
0010
0100
0010
0001
1000
0010
0100
,
0001
0010
0100
1000
0001
0100
0010
1000
0010
0100
0001
1000
0001
0100
0010
1000
,
0100
0010
0100
1000
0010
0100
0001
1000
0100
1000
0001
0100
0010
0100
0001
1000
,
0100
0010
0100
1000
0010
0100
0001
1000
0100
1000
0001
0100
0010
0100
0001
1000
,
0100
0010
0100
0010
0001
1000
0010
1000
0001
1000
0100
0010
0001
1000
0001
0100
,
0001
1000
0001
0010
0100
1000
0100
1000
0001
0010
0100
1000
0001
0100
0010
1000
,
0100
0010
0001
1000
0010
0100
0010
1000
0001
0100
0001
1000
0100
1000
0001
0100
,
0001
1000
0010
1000
0100
0010
0001
0010
0100
1000
0001
0100
0010
0100
0001
1000
,
0100
0010
0100
1000
0001
0100
0010
0100
0001
1000
0010
1000
0001
0010
0100
1000
,
0010
0100
0001
1000
0100
0010
0100
1000
0001
0010
0100
1000
0001
0010
0001
0100
,
0010
1000
0010
0100
0001
0010
0001
1000
0010
0100
0001
1000
0100
0010
0001
0100
,
0010
1000
0010
0100
0001
0010
0001
1000
0010
0100
0001
1000
0100
0010
0001
1000
,
0010
0100
0010
0100
0001
1000
0100
1000
0001
1000
0010
0100
0001
1000
0001
0010
,
0001
1000
0001
0100
0010
1000
0010
1000
0001
0100
0010
1000
0001
0010
0100
1000
,
0010
1000
0001
0100
0001
1000
0100
1000
0001
0010
0001
1000
0010
1000
0001
0010
,
0100
0010
0001
0100
0010
1000
0001
1000
0010
0100
0001
1000
0100
1000
0001
0010
,
0100
1000
0001
0010
0001
1000
0010
1000
0001
0100
0010
0100
0001
1000
0100
0010
,
0001
0100
0010
1000
0001
0010
0100
1000
0100
0010
0001
1000
0001
0010
0100
1000
,
0010
0100
0010
1000
0100
0010
0001
1000
0010
1000
0001
0010
0100
0010
0001
1000
,
0010
0100
0010
1000
0100
0010
0001
1000
0010
1000
0001
0010
0100
0010
0001
1000
,
0010
0100
0010
0100
0001
1000
0100
1000
0001
1000
0010
0100
0001
1000
0001
0010
,
0001
1000
0001
0100
0010
1000
0010
1000
0001
0100
0010
1000
0001
0010
0100
1000
,
0010
0100
0001
1000
0100
0010
0100
1000
0001
0010
0001
1000
0010
1000
0001
0010
,
0001
1000
0100
1000
0010
0100
0001
0100
0010
1000
0001
0010
0100
0010
0001
1000
,
0010
0100
0010
1000
0001
0010
0100
0010
0001
1000
0100
1000
0001
0100
0010
1000
,
0100
0010
0001
1000
0010
0100
0010
1000
0001
0100
0010
1000
0001
0100
0001
0010
,
0100
1000
0100
0010
0001
0100
0001
1000
0100
0010
0001
1000
0010
0100
0001
0010
,
0100
1000
0100
0010
0001
0100
0001
1000
0100
0010
0001
1000
0010
0100
0001
1000
,
0100
0010
0100
0010
0001
1000
0010
1000
0001
1000
0100
0010
0001
1000
0001
0100
,
0001
1000
0001
0010
0100
1000
0100
1000
0001
0010
0100
1000
0001
0100
0010
1000
,
0100
1000
0001
0010
0001
1000
0010
1000
0001
0100
0001
1000
0100
1000
0001
0100
,
0010
0100
0001
0010
0100
1000
0001
1000
0100
0010
0001
1000
0010
1000
0001
0100
,
0010
1000
0001
1000
0010
0000
0010
0000
0010
0000
0000
0000
0100
0000
0100
0000
,
0100
0000
0000
0000
0001
0000
0001
0000
0010
0000
0010
0000
0100
0000
1000
0010
,
0100
0001
0010
0010
0010
0000
0100
0100
,
0100
0000
0000
0000
1000
0000
1000
0000
0010
0000
0010
0000
0100
0000
0001
0010
,
0100
1000
0010
0010
0010
0000
0100
0100
,
0100
0000
0000
0000
0001
0000
0001
0000
0010
0000
0010
0000
0100
0000
1000
0010
,
0100
0001
0010
0010
0010
0000
0100
0100
,
0100
0000
0000
0000
1000
0000
0010
0000
0100
0000
0001
0000
0010
0000
0100
1000
,
0100
1000
0001
0100
0110
0010
1000
0001
,
0011
0010
0100
1000
1001
0001
0100
0010
,
1010
1000
0010
0100
0101
0001
1000
0100
,
0110
0010
0001
1000
1100
0100
0010
0001
,
1001
1000
0001
0100
0101
0001
1000
0001
,
0011
0010
0100
1000
1001
0001
0010
0100
,
1100
1000
0010
0100
0101
0001
1000
0010
,
1010
1000
0001
1000
1100
0100
0010
0001
,
1001
0000
1000
0000
0002
0000
0000
0003
2000
3000
0200
0000
0000
0000
0320
0030
,
0002
0000
0000
0003
0200
0300
0020
0030
2000
3000
0002
0000
0000
0003
0020
0030
,
0200
0000
0000
0300
2100
0000
0000
3000
0001
0000
0200
0000
0000
0300
0010
0000
,
2000
0000
0000
3000
0200
0000
0320
0000
0032
0000
2003
0000
0000
3000
0020
0030
,
0210
0300
0102
0003
0002
0003
0020
0030
,
0100
0000
2000
0000
3000
0000
2000
0000
3000
0000
2000
3000
0020
0030
0200
0300
,
0002
0003
0020
0030
0210
0000
0300
0000
2000
3000
0200
0000
0300
0000
0200
0300
,
0200
0300
0200
0300
0200
0300
0200
0300
2000
3000
2000
3000
0002
0003
0002
0003
,
0201
0300
0200
0300
0120
0000
0000
0030
2000
3000
0200
0000
0000
0000
0320
0030
,
0002
0000
0000
0003
0200
0300
0020
0030
2000
3000
0002
0000
0000
0003
0020
0030
,
0200
0000
0000
0300
2100
0000
0000
3000
0001
0000
0200
0000
0000
0300
0010
0000
,
2000
0000
0000
3000
0200
0000
0320
0000
0032
0000
2003
0000
0000
3000
0020
0030
,
0210
0300
0102
0003
0002
0003
0020
0030
,
0100
0000
2000
0000
3000
0000
2000
0000
3000
0000
2000
3000
0020
0030
0200
0300
,
0002
0003
0020
0030
0210
0000
0300
0000
2000
3000
0200
0000
0300
0000
0200
0300
,
0200
0300
0200
0300
0200
0300
0200
0300
2000
3000
2000
3000
0020
0030
0020
0030
,
0210
0300
0200
0300
0102
0000
0000
0003
2000
3000
0200
0000
0000
0000
0320
0030
,
0002
0000
0000
0003
0200
0300
0020
0030
2000
3000
0002
0000
0000
0003
0020
0030
,
0200
0000
0000
0300
2100
0000
0000
3000
0001
0000
0200
0000
0000
0300
0010
0000
,
2000
0000
0000
3000
0200
0000
0320
0000
0032
0000
2003
0000
0000
3000
0020
0030
,
0210
0300
0102
0003
0002
0003
0020
0030
,
0100
0000
2000
0000
3000
0000
2000
0000
3000
0000
2000
3000
0020
0030
0200
0300
,
0002
0003
0020
0030
0210
0000
0300
0000
2000
3000
0200
0000
0300
0000
0200
0300
,
0200
0300
0200
0300
0200
0300
0200
0300
2000
3000
2000
3000
0002
0003
0002
0003
,
0201
0300
0200
0300
0120
0000
0000
0030
2000
3000
0200
0000
0000
0000
0320
0030
,
0002
0000
0000
0003
0200
0300
0020
0030
2000
3000
0002
0000
0000
0003
0020
0030
,
0200
0000
0000
0300
2100
0000
0000
3000
0001
0000
0200
0000
0000
0300
0010
0000
,
2000
0000
0000
3000
0200
0000
0320
0000
0032
0000
2003
0000
0000
3000
0020
0030
,
0210
0300
0102
0003
0002
0003
0020
0030
,
0100
0000
2000
0000
3000
0000
2000
0000
3000
0000
2000
3000
0020
0030
0200
0300
,
0002
0003
0020
0030
0210
0000
0300
0000
2000
3000
0200
0000
0300
0000
0200
0300
,
0200
0300
0200
0300
0200
0300
0200
0300
2000
3000
2000
3000
0020
0030
0020
0030
,
0210
0300
0200
0300
0102
0000
0000
0003
2000
3000
0200
0000
0000
0000
0320
0030
,
0002
0000
0000
0003
0200
0300
0020
0030
2000
3000
0002
0000
0000
0003
0020
0030
,
0200
0000
0000
0300
2100
0000
0000
3000
0001
0000
0200
0000
0000
0300
0010
0000
,
2000
0000
0000
3000
0200
0000
0320
0000
0032
0000
2003
0000
0000
3000
0020
0030
,
0210
0300
0102
0003
0002
0003
0020
0030
,
0100
0000
2000
0000
3000
0000
2000
0000
3000
0000
2000
3000
0020
0030
0200
0300
,
0002
0003
0020
0030
0210
0000
0300
0000
2000
3000
0200
0000
0300
0000
0200
0300
,
0200
0300
0200
0300
0200
0300
0200
0300
2000
3000
2000
3000
0002
0003
0002
0003
,
0201
0300
0200
0300
0120
0000
0000
0030
2000
3000
0200
0000
0000
0000
0320
0030
,
0002
0000
0000
0003
0200
0300
0020
0030
2000
3000
0002
0000
0000
0003
0020
0030
,
0200
0000
0000
0300
2100
0000
0000
3000
0001
0000
0200
0000
0000
0300
0010
0000
,
2000
0000
0000
3000
0200
0000
0320
0000
0032
0000
2003
0000
0000
3000
0020
0030
,
0210
0300
0102
0003
0002
0003
0020
0030
,
0100
0000
2000
0000
3000
0000
2000
0000
3000
0000
2000
3000
0020
0030
0200
0300
,
0002
0003
0020
0030
0210
0000
0300
0000
2000
3000
0200
0000
0300
0000
0200
0300
,
0200
0300
0200
0300
0200
0300
0200
0300
2000
3000
2000
3000
0020
0030
0020
0030
,
0210
0300
0200
0300
0001
0100
0010
1000
0100
0010
0001
0100
0001
0100
0010
1000
,
0100
0010
0100
1000
0001
0100
0001
0010
0001
1000
0010
0100
0001
0100
0010
1000
,
0100
0010
0100
1000
0001
0100
0001
0100
0010
1000
0100
0010
0100
0010
0001
0100
,
0010
1000
0010
1000
0001
0010
0001
1000
0001
0100
0010
1000
0100
0010
0100
1000
,
0010
0100
0001
1000
0001
0010
0100
1000
0010
0100
0001
1000
0100
0010
0100
0010
,
0001
1000
0010
0100
0001
0010
0100
1000
0001
0010
0001
1000
0010
1000
0100
1000
,
0001
1000
0010
1000
0001
0100
0001
0100
0010
1000
0100
0010
0100
0010
0001
1000
,
0010
1000
0001
0010
0001
0100
0010
1000
0001
0010
0100
0010
0001
0100
0010
1000
,
0001
0010
0100
1000
0100
0010
0001
1000
0010
0100
0001
0010
0001
0010
0100
1000
,
0010
0100
0010
1000
0001
0010
0001
0100
0001
1000
0100
0010
0001
0010
0100
1000
,
0010
0100
0010
1000
0001
0010
0001
0010
0100
1000
0010
0100
0010
0100
0001
0010
,
0100
1000
0100
1000
0001
0100
0001
1000
0001
0010
0100
1000
0010
0100
0010
1000
,
0100
0010
0001
1000
0001
0100
0010
1000
0100
0010
0001
1000
0010
0100
0010
0100
,
0001
1000
0100
0010
0001
0100
0010
1000
0001
0100
0001
1000
0100
1000
0010
1000
,
0001
1000
0100
1000
0001
0010
0001
0010
0100
1000
0010
0100
0010
0100
0001
1000
,
0100
1000
0001
0100
0001
0010
0100
1000
0001
0100
0010
0100
0001
0010
0100
1000
,
0001
0100
0010
1000
0100
0010
0001
1000
0010
1000
0100
0010
0100
0010
0001
0100
,
0010
1000
0010
0100
0001
1000
0010
1000
0100
1000
0001
0010
0100
1000
0100
0010
,
0001
0100
0001
1000
0100
0010
0100
0010
0001
0100
0010
1000
0010
1000
0001
1000
,
0100
0010
0100
0010
0001
1000
0010
1000
0100
1000
0001
0010
0001
0100
0010
1000
,
0100
0010
0100
1000
0001
0100
0010
1000
0100
0010
0001
1000
0010
0100
0010
0100
,
0001
1000
0100
0010
0001
0100
0010
0100
0001
1000
0010
0100
0001
1000
0001
0100
,
0001
0010
0001
1000
0100
0010
0100
0010
0001
0100
0010
1000
0010
1000
0001
0010
,
0100
1000
0001
0100
0001
0010
0100
1000
0001
0100
0010
0100
0001
0010
0100
1000
,
0001
0100
0010
1000
0010
0100
0001
1000
0100
1000
0010
0100
0010
0100
0001
0010
,
0100
1000
0100
0010
0001
1000
0100
1000
0010
1000
0001
0100
0010
1000
0010
0100
,
0001
0010
0001
1000
0010
0100
0010
0100
0001
0010
0100
1000
0100
1000
0001
1000
,
0010
0100
0010
0100
0001
1000
0100
1000
0010
1000
0001
0100
0001
0010
0100
1000
,
0010
0100
0010
1000
0001
0010
0100
1000
0010
0100
0001
1000
0100
0010
0100
0010
,
0001
1000
0010
0100
0001
0010
0100
0010
0001
1000
0100
0010
0001
1000
0001
0010
,
0001
0100
0001
1000
0010
0100
0010
0100
0001
0010
0100
1000
0100
1000
0001
0100
,
0010
1000
0001
0010
0001
0100
0010
1000
0001
0010
0100
0010
0001
0100
0010
1000
,
0001
0010
0100
1000
0010
1000
0001
0100
0001
0010
0100
1000
0001
0010
0001
0100
,
0010
1000
0010
0100
0001
0010
0001
0100
0001
1000
0001
0010
0100
1000
0001
0010
,
0001
0100
0010
1000
0100
0010
0001
1000
0100
1000
0010
0100
0010
1000
0001
0100
,
0001
0010
0100
1000
0001
0100
0001
0010
0001
1000
0001
0100
0010
1000
0001
0010
,
0001
0100
0010
1000
0001
0010
0100
1000
0010
1000
0001
0100
0001
0010
0100
1000
,
0001
0010
0001
0100
0010
0100
0001
0010
0100
0010
0001
1000
0010
1000
0100
1000
,
0001
1000
0010
0100
0001
0010
0100
1000
0001
0010
0001
0100
0010
0100
0001
1000
,
0001
0010
0100
1000
0010
1000
0001
0100
0001
0010
0100
1000
0010
1000
0001
0100
,
0001
0010
0001
1000
0010
1000
0001
0100
0001
0010
0100
1000
0001
0010
0001
0100
,
0010
1000
0100
0010
0001
0100
0001
0010
0001
1000
0001
0100
0010
1000
0001
0100
,
0001
0010
0100
1000
0010
0100
0001
1000
0010
1000
0100
0010
0100
1000
0001
0010
,
0001
0100
0010
1000
0001
0010
0001
0100
0001
1000
0001
0010
0100
1000
0001
0100
,
0001
0010
0100
1000
0001
0100
0010
1000
0100
1000
0001
0010
0001
0100
0010
1000
,
0001
0100
0001
0010
0100
0010
0001
0100
0010
0100
0001
1000
0100
1000
0010
1000
,
0001
1000
0100
0010
0001
0100
0010
1000
0001
0100
0001
0010
0100
0010
0001
1000
,
0001
0100
0010
1000
0100
1000
0001
0010
0001
0100
0010
1000
0100
1000
0001
0010
,
0001
0100
0010
1000
0100
0000
0000
0000
0000
0000
0000
0000
1001
0000
0000
0000
,
1000
1000
0010
0010
0100
0000
0000
0000
;
