#TITLE:Innocent;
#SUBTITLE:;
#ARTIST:m1dy;
#TITLETRANSLIT:;
#SUBTITLETRANSLIT:;
#ARTISTTRANSLIT:;
#CREDIT:;
#BANNER:;
#BACKGROUND:innocent-bg.png;
#LYRICSPATH:;
#CDTITLE:;
#MUSIC:m1dy - speedcore dandy xxx - 02 - innocent.mp3;
#OFFSET:-0.065;
#SAMPLESTART:15.371;
#SAMPLELENGTH:12.000;
#SELECTABLE:YES;
#BPMS:0.000=392.000;
#STOPS:;
#BGCHANGES:;
// cache tags:
#FIRSTBEAT:0.000;
#LASTBEAT:1260.000;
#SONGFILENAME:Songs/Essential Sim Collection/(Moogy) Innocent/innocent.sm;
#HASMUSIC:1;
#HASBANNER:0;
#MUSICLENGTH:194.403;
// end cache tags

//---------------dance-single - ----------------
#NOTES:
     dance-single:
     :
     Edit:
     15:
     1.000,1.000,1.000,0.026,1.000,2432.000,1156.000,5.000,0.000,604.000:
1000
0010
0100
0001
1000
0100
0010
0001
,
0010
0000
0100
0000
1000
0000
0010
0000
0100
0010
0001
0000
0100
0000
0001
0000
,
1100
0011
0110
1001
,
1100
0011
0110
1010
,
0011
1010
0101
0110
,
1001
0011
1100
0110
,
1001
0011
0110
1010
,
0110
0011
1100
0110
,
0101
0110
1010
0110
,
1001
0011
1010
0110
,
0011
0000
0110
0000
1010
0000
1000
0100
,
0010
0011
0110
1100
,
0110
0000
0110
0000
1100
0000
0011
1000
,
0100
0001
1100
0000
1001
0000
0110
0000
,
1100
0011
1100
0011
,
0001
0010
0100
1000
0011
0000
1100
0000
,
0110
0101
1010
1001
,
0101
0000
0010
0100
1000
0000
0011
0000
,
1000
0100
1000
0100
1000
0100
1000
0100
,
1000
0000
1000
0100
1000
0100
1000
0100
,
1000
0100
0010
0001
0010
0100
1000
0100
,
0010
0001
0010
0100
0010
0001
0010
0100
,
1000
0100
0010
0100
1000
0010
0100
0001
,
1000
0001
0000
0001
1000
0010
0100
0000
,
0010
0000
0001
0000
0100
0010
0100
0010
,
0100
0000
0010
0000
0100
0000
0010
0100
0001
0100
0010
0000
0100
0000
1000
0000
,
0100
1000
0100
0010
0001
1000
0010
0100
,
0001
1000
0000
1000
0001
0000
0001
1000
,
0000
0000
1000
0000
0001
0000
0000
0000
0000
0001
1000
0001
1000
0001
1000
0000
,
1001
0000
0110
0000
,
1001
0000
0000
0000
0000
0000
0000
0000
0000
1000
0010
0100
0001
0100
0010
0000
,
1001
0000
0000
0000
0110
0000
0000
0110
,
0000
0000
0000
0000
0011
0000
0000
0000
0000
0010
1000
0010
1000
0010
1000
0000
,
0011
0000
0011
0000
,
1100
0000
0000
0000
0000
0000
0000
0000
0011
0000
0000
0000
0000
0100
1000
0100
,
1000
0100
1000
0000
0110
0000
0000
0000
0000
0000
0000
0000
0000
0000
1010
0000
,
0000
0000
0000
0101
,
0000
0000
0011
1100
,
1001
0010
0100
0000
0110
0000
0000
0000
,
1001
0000
0000
0000
0000
0000
0000
0000
0000
0010
0100
1000
0100
0010
0001
0000
,
1100
0010
0001
0000
0110
0000
1000
0000
,
0011
0000
0000
0000
0000
0000
0000
0000
0000
0010
1000
0010
0100
0001
1000
0000
,
0011
0100
1000
0000
1100
0000
0001
0000
,
1100
0000
0000
0000
1100
0000
0000
0000
0000
0001
0010
0100
1000
0010
0100
0000
,
1001
0010
0100
0000
0011
0000
0100
0000
,
0011
0000
0000
0000
1100
0000
0000
0000
0011
0000
0000
0000
0000
0001
0010
0100
,
1000
0100
0010
0000
1100
0000
0010
0000
0100
0000
0001
0000
0100
0000
0000
0000
,
0011
1100
0011
1100
,
0000
0001
1000
0010
0100
0001
0100
0000
1010
0000
0100
0000
0001
0000
0000
0000
,
1100
0110
0011
0110
,
1100
0000
0000
0000
0000
0010
0100
0001
0100
0010
1000
0000
0011
0000
0100
0000
,
1000
0011
0100
0110
,
1100
0000
0000
0000
0011
0000
0000
0000
0000
0001
1000
0010
0100
0001
0100
0000
,
1010
0100
1000
0000
0000
0000
1001
0000
,
0000
0000
0000
0000
,
0000
0000
1001
0000
,
0110
0000
0110
0000
0110
0000
0000
0110
,
0000
0000
0000
1000
0000
0001
1000
0001
1000
0001
1000
0000
1001
0000
0100
0000
,
1001
0110
0011
1100
,
0110
0000
0000
0000
0011
0000
0000
1000
0000
0010
0100
0001
0100
0001
0010
0000
,
1100
0010
0001
1000
0010
0100
0001
0010
,
0100
0000
1000
0000
0100
0000
0010
0000
0001
0000
0000
1000
0000
0001
0010
0100
,
1000
0100
0010
0000
0011
0000
0100
0000
1000
0000
0010
0000
0100
0000
0001
0000
,
1000
0000
0010
0000
0100
0000
1000
0000
0100
0000
0010
0000
0001
0000
0000
1000
,
0000
0010
0100
0010
0100
0010
0100
0000
1010
0000
0001
0000
0100
0000
0010
0000
,
1000
0001
1000
0010
1000
0001
0100
0010
,
1000
0000
0010
0000
0100
0000
0000
1000
0000
0001
0010
0100
1000
0010
0100
0000
,
0011
0100
1000
0100
0010
1000
0001
0100
,
0010
0000
0001
0000
0010
0000
0100
0000
1000
0010
0000
0001
0100
0010
0001
0000
,
1100
0010
0100
1000
0010
0100
0001
0100
,
0010
0000
1000
0000
0100
0000
0010
0000
0001
0000
0010
0000
0100
0010
0000
1000
,
0010
0100
0001
0010
1100
0000
0010
0000
0100
0000
0001
0000
1100
0000
0000
0000
,
0000
0000
0000
0000
,
1000
0010
0100
0001
0100
0010
1000
0000
0011
0000
0100
0000
1000
0000
0010
0000
,
0100
0001
0100
0010
1000
0100
0010
0001
,
1000
0000
0010
0000
0100
0000
0001
0010
0000
1000
0010
0100
0010
0100
1000
0000
,
0011
0100
1000
0010
0100
0001
0010
0100
,
1000
0000
0001
0000
1000
0000
0100
0010
0000
1000
0001
0010
0100
1000
0100
0000
,
0011
0100
1000
0010
0100
0001
0010
0100
,
1000
0000
0010
0000
0100
0000
0001
0000
0010
0100
1000
0010
0100
0001
0100
0000
,
1010
0100
0001
0010
0100
1000
0010
0100
,
0001
0000
0100
0000
0010
0000
1000
0000
0010
0000
0100
0000
1000
0001
0010
0100
,
1000
0010
0100
0000
1001
0000
0100
0000
0001
0000
0010
0000
0100
0000
1000
0000
,
0001
1000
0100
0010
0001
0100
0010
1000
,
0001
0000
0100
0010
0000
1000
0010
0100
0001
0100
0010
0000
1100
0000
0010
0000
,
0001
1000
0010
0100
0001
0010
0100
1000
,
0010
0000
0100
0000
0001
0000
0100
0000
0010
0000
1000
0001
0000
0010
1000
0010
,
0100
0001
0010
0000
1100
0000
0010
0000
0100
0000
0001
0000
0010
0000
0100
0000
,
1000
0000
0100
0000
0010
0000
0001
0000
0010
0000
0100
1000
0000
0010
0001
0100
,
0010
0001
0010
0000
1100
0000
0000
0000
1100
0000
0000
0000
0000
0000
0000
0000
,
0000
0000
0000
0000
,
0000
0000
0000
1001
,
0110
0011
1100
1010
,
0101
0110
1001
0011
,
0110
1100
0110
0011
,
1010
0101
0110
1100
,
0110
0101
1010
0110
,
1001
0110
1100
0011
,
0110
1001
0011
0110
,
1010
0110
0011
1010
,
0110
0000
0001
0010
0100
0000
1100
0000
,
0100
0001
1100
0110
,
0011
0000
0110
0000
0100
0010
0001
0010
,
0100
1100
0110
0011
,
1010
0000
0101
0000
0010
0100
1000
0100
,
0010
0011
0110
1010
,
1100
0110
0101
0110
,
1010
0000
1000
0100
0010
0000
1000
0100
,
1000
0100
1000
0100
1000
0000
0100
1000
,
0100
1000
0100
1000
0100
1000
0100
0010
,
0002
0000
0000
0000
,
0003
0000
0100
1000
0010
0100
0001
0010
1100
0000
0000
0000
0110
0000
0000
0000
,
0000
0011
0000
0000
0011
0000
0000
0011
,
0000
0000
0000
0000
0000
0001
0000
0100
1000
0100
0010
0001
0010
0000
0000
0000
,
1100
0000
0110
0000
,
0011
0000
0000
0000
0000
0000
0000
0000
0000
0000
0000
0001
0000
1000
0010
0100
,
0001
0010
0100
1000
0001
0000
0000
0000
1100
0000
0000
0000
0000
0000
0110
0000
,
0000
0000
0000
0000
0011
0000
0000
0000
0000
0000
0000
0000
0000
0000
1000
0010
,
0100
0001
0010
0100
1000
0000
0000
0000
1100
0000
0000
0000
0000
0000
0000
0000
,
0110
0000
0011
0000
,
1000
0000
0001
1000
0010
0100
0001
1000
0011
0000
0000
0000
0000
0000
0110
0000
,
0000
0110
0000
1001
,
0000
0000
0000
0000
0010
0000
0000
0100
1000
0010
0100
0001
0110
0000
0000
0000
,
0000
0110
0000
0000
1001
0000
0000
0000
,
0110
0000
0000
0000
0000
0000
0000
0000
0001
1000
0010
0100
0001
0010
0100
0010
,
1100
0000
1010
0000
,
0000
0110
0000
0000
,
0010
0000
0100
0000
0000
0000
1000
0001
,
1000
0100
0010
0001
1000
0001
0010
0100
,
1000
0001
1000
0100
0010
0001
1000
0001
,
0010
0100
1000
0001
1000
0100
0010
0001
,
1000
0001
0010
0100
1000
0001
1000
0100
,
0010
0001
1000
0001
0010
0100
1000
0001
,
1000
0100
0010
0001
1000
0001
0010
0100
,
1010
0000
0110
0000
0101
0001
0100
0001
,
0100
0001
0100
0001
0100
0001
0100
0001
,
0100
0001
0100
0001
0100
0011
0100
0001
,
0100
0001
0100
0011
0100
0001
0100
0001
,
0100
0011
0100
0001
0100
0001
0100
1001
,
0100
0001
0100
0001
0100
0101
0100
0001
,
0100
0001
0100
0011
0100
1001
0100
0001
,
0100
0011
0100
0001
0100
0001
0100
0101
,
0100
0101
0100
0001
0100
0001
0100
0001
,
0100
0000
0001
0000
0100
0010
0001
0010
0100
0010
0001
0010
0100
0010
0001
0010
,
0100
0010
0001
0010
0100
0010
0001
0010
0100
0010
0001
0010
0100
0010
0001
0010
,
0100
0010
0001
0010
0100
0010
0001
0010
0100
0010
0001
0010
0100
0010
0001
0010
,
0100
1000
0010
0100
0001
1000
0010
0100
,
0001
1000
0010
0001
0100
1000
0010
0001
0100
0000
0010
0000
0001
0000
1000
0000
,
0001
1000
0010
0100
0001
1000
0010
0100
,
0001
0000
1000
0000
0010
1000
0100
0010
0001
1000
0010
0100
0001
0000
1000
0000
,
0001
1000
0010
0100
0001
0010
0100
1000
,
0010
0000
0100
0000
0001
0000
0010
0000
1000
0100
0001
0010
0100
1000
0010
0100
,
0001
1000
0010
0100
0001
1000
0010
0100
,
0001
0000
0010
0000
0100
0000
1000
0000
0100
0000
0010
0000
0001
0100
1000
0010
,
0001
1000
0001
0100
0010
0000
0001
0000
1000
0000
0010
0000
0100
0000
0001
0000
,
0010
0000
0100
0000
1000
0000
0001
0000
0100
0000
0010
0000
1000
0000
0001
0100
,
0010
0001
1000
0100
0010
0001
0100
0000
0001
0000
1000
0000
0001
0000
0100
0000
,
0010
1000
0001
0010
1000
0001
0100
0001
,
1000
0100
0010
1000
0001
1000
0010
0100
1000
0001
1000
0010
0100
1000
0001
1000
,
0010
0100
0001
1000
0010
0100
0001
0010
0100
1000
0010
0100
0001
1000
0010
0100
,
0001
1000
0010
0100
0000
1000
0010
0100
0010
1000
0001
1100
0110
0101
0011
1100
,
0011
1111
0000
0000
,
0000
0000
0000
0000
,
0000
0000
0110
0011
,
1010
0110
0011
1010
,
0110
0011
0110
1010
,
0101
1010
0110
0101
,
1010
0101
0011
0110
,
1010
1100
0110
1001
,
0011
0110
1010
0101
,
0110
1010
1001
0011
,
0110
1010
0110
1001
,
0011
1010
0110
1001
,
0011
1100
0110
0101
,
1001
0110
0011
1010
,
0110
0011
1010
0110
,
1001
0011
1010
0110
,
0011
1010
0110
0011
,
0110
1010
0110
1010
,
1000
0010
1000
0010
1000
0010
1000
0010
,
1000
0100
0001
0100
0001
0100
0001
0100
,
0001
0100
0001
0010
0100
0010
0100
0010
,
1000
0001
1000
0001
1000
0010
0100
0010
,
0100
0010
0100
0001
0100
0001
0100
0010
,
0100
0001
0100
0010
1000
0010
0100
0001
,
0010
1000
0100
0010
1000
0001
0100
0010
,
0001
0010
1000
0010
0100
0010
0001
1000
,
0010
0100
0001
1000
0010
0100
0001
1000
,
0010
0100
0010
1000
0001
0100
0010
0001
,
1000
0000
0010
0000
0100
0000
0001
0000
1100
0000
0010
0000
1000
0001
0010
0100
,
1000
0010
0100
0001
1010
0000
0000
0000
0000
0000
1010
0000
0000
0000
0000
0000
,
0000
0000
0000
0000
0101
0000
0000
0000
0000
0000
0000
0000
0000
0000
0000
0000
0000
0000
0000
0000
0000
0000
0000
0000
0001
0100
1000
0000
0010
0000
0100
0010
,
1001
0000
0010
0100
0001
0010
0100
1000
0110
0000
0000
0000
0000
0000
0000
0000
0000
0000
0000
0000
0011
0000
0000
0000
0000
0000
0000
0000
0000
0000
0000
0000
,
1010
0000
0011
0000
,
1000
0000
0001
1000
0001
1000
0001
1000
1001
0000
0000
0000
0000
0000
1001
0000
,
0000
0000
1001
0000
0000
1001
0000
0000
,
0000
0000
0000
0000
1000
0000
0000
0010
0001
1000
0010
0100
0001
1000
0010
0100
0011
0100
1000
0010
0100
0001
1000
0010
0110
0000
0000
0000
0000
0000
0000
0000
,
0000
0110
0000
0000
0110
0000
0000
0000
,
1001
0000
0000
0000
0001
0000
0100
1000
0010
0100
0001
1000
0010
0100
0001
1000
,
0110
0000
0000
1010
0000
0000
0110
0000
,
0000
0000
0000
0000
1001
0000
0000
0000
0000
0000
1000
0000
0001
1000
0010
0100
,
0001
1000
0010
0100
0011
0000
0000
0000
0000
0000
0110
0000
0000
0000
0000
0000
,
1001
0000
1100
0000
,
0001
0000
0000
0010
0100
0001
1000
0010
0100
0001
1000
0010
0100
0001
1000
0100
1001
0000
0000
0000
0000
0000
0000
0000
0000
0000
0000
0000
1001
0000
0000
0000
,
0000
1001
0000
1001
,
0000
0000
0010
0000
1000
0010
0100
0001
0010
0100
1000
0010
0101
0000
0000
0000
,
0000
1010
0000
0000
0110
0000
0000
0000
,
1001
0000
0000
0000
0000
0000
0000
0000
0001
0000
1000
0010
0100
0001
1000
0010
,
0101
0001
1100
0010
1010
0001
0101
0010
,
1001
0000
0000
0000
0001
0000
0000
0000
1100
0000
0000
0000
0010
0000
0000
0000
0101
0000
0000
0000
0010
0000
0000
0000
1010
0001
0000
0000
0010
0000
0100
0000
,
0101
0010
0101
1000
1010
0000
0010
0000
0101
0000
0001
0000
1010
0000
0010
0000
,
0101
0000
0000
0000
0001
0000
0000
0000
1100
0000
0000
0000
0010
0000
0000
0000
0101
0000
0000
0000
0010
0000
0000
0000
1010
0000
0000
0000
1000
0100
0010
0000
,
0101
1000
0010
0100
1001
0000
0010
0000
1001
0000
0010
0000
0101
0000
0010
0000
,
1010
0100
1010
0100
0011
0010
0110
1000
,
0110
0001
0000
0000
0001
0000
0010
0000
0101
0000
1000
0000
0010
0000
0100
0000
1010
0000
0001
0000
0100
0000
0010
0000
0101
0000
0000
0000
0000
0000
0000
0000
,
0101
0101
0101
0101
,
0000
0000
0010
0001
0010
0001
0011
0000
0000
0001
0010
0001
0010
0001
0010
0001
,
0011
0011
0110
1010
0110
0101
1010
0110
,
1001
0011
1010
0110
1001
0011
0110
1010
,
0110
0011
1010
0101
1010
0101
0110
1001
,
0110
0101
0011
1010
0110
1001
0011
0011
,
1010
0110
1001
0011
1010
0110
1001
0011
,
1010
0110
1001
0011
0110
1010
0101
1001
,
0110
0011
1010
0101
1010
0101
0110
1001
,
0011
0000
0000
0000
,
0000
0000
0000
0000
0000
0000
0000
0000
0000
0000
0000
0000
0000
0000
0000
0000
0001
1000
0001
1000
0001
1000
0001
0000
1000
0000
0001
0000
1000
0000
0001
0000
,
0101
1010
0110
0101
,
1010
0101
1001
0110
,
0011
1010
0110
1001
,
0011
0110
1010
0110
,
1001
0011
0110
1010
,
0110
1001
0011
0110
,
1010
0110
1001
0110
,
0011
1010
0110
0101
,
1010
0101
0110
1001
,
0011
0110
1010
0110
,
1100
0110
0011
0110
,
1010
1001
0110
0011
,
1010
1100
0101
0110
,
1001
0011
0110
1001
,
0011
1010
0110
0110
,
0011
0110
1010
0101
,
0110
0001
0010
0100
1000
0000
0100
0000
0010
0100
1000
0100
0001
0010
0100
0000
,
0010
0000
1000
0000
0001
0000
0100
0000
0010
0000
0001
0000
1000
0100
0010
0001
,
0100
1010
0110
0101
,
0110
1010
0101
0110
,
1001
0011
1010
0110
,
1001
0011
1010
0110
,
1001
0011
1010
0110
,
1001
0011
1010
0110
,
1001
0011
1010
0110
,
1001
0011
1010
0110
,
1001
0011
0110
1100
,
0110
0011
1001
0101
,
1010
0011
0110
1001
,
0011
1001
0110
1001
,
0011
1010
0110
0101
,
1010
0110
0101
1010
,
0110
1001
0011
0110
,
1010
0000
0110
0000
0001
0010
0001
0010
,
0001
0010
0100
1000
0010
0100
0001
0100
,
0010
0000
1000
0000
0001
0000
0100
0000
0010
0000
0100
0000
0001
0000
1000
0100
,
0010
0001
0010
0100
1000
0100
0010
0001
0010
0100
1000
0100
0010
0001
0010
0100
,
1000
0100
0010
0001
0010
0100
1000
0100
0010
0001
0010
0100
1000
0100
0010
0001
,
0010
0100
1000
0100
0010
0001
0010
0100
1000
0100
0010
0001
0010
0100
1000
0100
0010
0001
0010
0100
1000
0100
0010
0001
0010
0100
1000
0100
0010
0001
0010
0100
,
1000
0100
0010
0001
0010
0100
1000
0100
0010
0001
0010
0100
1000
0100
0010
0001
0010
0100
1000
0100
0010
0001
0010
0100
1000
0100
0010
0001
0010
0100
1000
0100
,
1111
0000
0000
0000
0000
0000
0000
0000
0001
1000
0010
0100
0001
1000
0010
0100
,
0001
0010
0100
1000
0001
0100
0010
1000
0001
0100
0010
0001
0010
0100
1000
0010
,
0100
0010
0001
1000
0010
0100
0001
0010
0100
1000
0010
0100
0001
1000
0010
0100
,
1111
1110
1111
0111
1111
1110
1111
0111
,
1111
0000
1110
0000
1111
1100
0111
0011
1111
0110
1110
0011
1111
0000
0111
0000
,
1111
1101
1111
1011
1111
1101
1111
1011
,
1111
0000
1101
0000
1111
0011
1011
0110
1111
1100
1101
0110
1111
1001
1011
0000
,
1111
1111
1111
1111
1111
1111
1111
1111
,
1111
0000
1111
0000
1111
0000
1111
0000
1111
0000
1111
0000
1111
0111
1111
1110
,
1111
1101
1111
1011
1111
0000
1111
0000
1111
0000
1111
0000
1111
0000
1111
0000
,
1111
1111
1111
1111
1111
1111
1111
1111
,
1111
1111
1111
1111
1111
1111
1111
1111
1111
0000
1111
0000
1111
0000
1111
0000
,
1111
1111
1111
1111
1111
1111
1111
1111
,
1111
1111
1111
1111
1111
1111
1111
1111
1111
0000
1111
0000
1111
0000
1111
0000
,
1111
1111
1111
1111
1111
1111
1111
1111
,
1111
0000
1111
0000
1111
1111
1111
1111
1111
1111
1111
1111
1111
1111
1111
1111
,
1111
1111
1111
1111
1111
1111
1111
1111
,
1111
0000
1111
0000
1111
0000
1111
0000
1111
1111
1111
1111
1111
1111
1111
1111
,
1111
1111
1111
1111
1111
0000
1111
0000
1111
0000
1111
0000
1111
0000
1111
0000
,
1111
0000
1111
0000
1111
0000
1111
0000
1111
0000
1111
0000
1111
1111
1111
1111
,
1111
1111
1111
1111
1111
1111
1111
1111
1111
1111
1111
1111
1111
1111
1111
1111
,
1111
1111
1111
1111
1111
1111
1111
1111
1111
1111
1111
1111
1111
1111
1111
1111
,
1111
1111
1111
1111
1111
1111
1111
1111
1111
1111
1111
1111
1111
1111
1111
1111
,
1111
1111
1111
1111
1111
1111
1111
1111
1111
1111
1111
1111
1111
1111
1111
1111
,
1111
1111
1111
1111
1111
1111
1111
1111
1111
1111
1111
1111
1111
1111
1111
1111
,
1111
1111
1111
1111
1111
1111
1111
1111
1111
1111
1111
1111
1111
1111
1111
1111
,
1111
1111
1111
1111
1111
1111
1111
1111
1111
1111
1111
1111
1111
1111
1111
1111
,
1111
1111
1111
1111
1111
1111
1111
1111
1111
1111
1111
1111
1111
1111
1111
1111
,
1111
1111
1111
1111
1111
1111
1111
1111
1111
1111
1111
1111
1111
1111
1111
1111
,
1111
1111
1111
1111
1111
1111
1111
1111
1111
1111
1111
1111
1111
1111
1111
1111
,
1111
1111
1111
1111
1111
1111
1111
1111
1111
1111
1111
1111
1111
1111
1111
1111
,
1111
1111
1111
1111
1111
1111
1111
1111
1111
1111
1111
1111
1111
1111
1111
1111
,
1111
1111
1111
1111
1111
1111
1111
1111
1111
1111
1111
1111
1111
1111
1111
1111
,
1111
1111
1111
1111
1111
1111
1111
1111
1111
1111
1111
1111
0111
1111
1111
1111
,
1111
1111
1111
1111
1111
1111
1111
1111
1111
1111
1111
1111
1111
1111
1111
1111
,
1111
1111
1111
1111
1111
1111
1111
1111
1111
1111
1111
1111
1111
1111
1111
1111
,
1111
1111
1111
1111
1111
1111
1111
1111
1111
1111
1111
1111
1111
1111
1111
1111
,
1111
1111
1111
1111
1111
1111
1111
1111
1111
1111
1111
1111
1111
1111
1111
1111
,
1111
1111
1111
1111
1111
1111
1111
1111
1111
1111
1111
1111
1111
1111
1111
1111
,
1111
1111
1111
1111
1111
1111
1111
1111
,
1111
1111
1111
1111
1111
1111
1111
1111
,
1111
1111
1111
1111
1111
1111
1111
1111
,
1111
1111
1111
1111
1111
1111
1111
1111
,
1111
1111
1111
1111
1111
1111
1111
1111
,
1111
1111
1111
1111
1111
1111
1111
1111
,
1111
0000
1111
1111
1111
1111
1111
1111
1111
1111
1111
1111
1111
1111
1111
1111
,
1111
1111
1111
1111
1111
1111
1111
1111
1111
1111
1111
1111
1111
1111
1111
1111
1111
1111
1111
1111
1111
1111
1111
1111
1111
1111
1111
1111
1111
1111
1111
1111
,
1111
0000
0000
0000
0000
0000
1111
0000
0000
0000
0000
0000
1111
0000
0000
0000
0000
0000
1111
0000
0000
0000
0000
0000
1111
0000
0000
0000
0000
0000
1111
0000
0000
0000
0000
0000
1111
0000
0000
0000
0000
0000
1111
0000
0000
0000
0000
0000
1111
0000
0000
0000
0000
0000
1111
0000
0000
0000
0000
0000
1111
0000
0000
0000
0000
0000
1111
0000
0000
0000
0000
0000
1111
0000
0000
0000
0000
0000
1111
0000
0000
0000
0000
0000
1111
0000
0000
0000
0000
0000
1111
0000
0000
0000
0000
0000
1111
0000
0000
0000
0000
0000
1111
0000
0000
0000
0000
0000
1111
0000
0000
0000
0000
0000
1111
0000
0000
0000
0000
0000
1111
0000
0000
0000
0000
0000
1111
0000
0000
0000
0000
0000
1111
0000
0000
0000
0000
0000
1111
0000
0000
0000
0000
0000
1111
0000
0000
0000
0000
0000
1111
0000
0000
1111
0000
0000
1111
0000
0000
1111
0000
0000
1111
0000
0000
1111
0000
0000
1111
0000
0000
1111
0000
0000
1111
0000
0000
1111
0000
0000
1111
0000
0000
1111
0000
0000
1111
0000
1111
1111
0000
0000
,
2222
0000
0000
0000
,
3333
0000
0000
0000
;
