#TITLE:Triple Corpse Hammerblow;
#SUBTITLE:By Nicholas T. Mihaila;
#ARTIST:Children of Bodom;
#TITLETRANSLIT:;
#SUBTITLETRANSLIT:;
#ARTISTTRANSLIT:;
#CREDIT:;
#BANNER:TCH - BN.jpg;
#BACKGROUND:TCH - BG.jpg;
#LYRICSPATH:;
#CDTITLE:cdtitle.gif;
#MUSIC:Children Of Bodom - Triple Corpse Hammerblow.mp3;
#OFFSET:-0.080;
#SAMPLESTART:100.000;
#SAMPLELENGTH:12.000;
#SELECTABLE:YES;
#BPMS:0.000=77.500,28.000=155.000;
#STOPS:;
#BGCHANGES:;
// cache tags:
#FIRSTBEAT:0.000;
#LASTBEAT:604.750;
#SONGFILENAME:Songs/toune 5/COB - Triple Corpse Hammerblow/Children Of Bodom - Triple Corpse Hammerblow.sm;
#HASMUSIC:1;
#HASBANNER:1;
#MUSICLENGTH:246.705;
// end cache tags

//---------------dance-single - ----------------
#NOTES:
     dance-single:
     :
     Hard:
     13:
     1.000,1.000,0.843,0.677,1.000,1536.000,208.000,167.000,0.000,21.000:
1000
0000
0100
0000
0010
0000
0002
0003
1000
0000
0020
0030
1000
0000
0200
0300
1000
0000
0020
0030
1000
0000
0200
0300
1000
0000
0002
0003
1000
0000
0200
0300
,
2000
3000
0200
0300
0020
0030
0002
0003
0020
0030
0200
0300
0020
0030
0200
0300
2020
0000
0000
0000
3030
0000
0000
0000
0202
0000
0000
0000
0303
0000
0000
0000
,
0220
0000
0000
0000
,
2330
3000
0200
0300
0020
0030
0002
0003
0020
0030
0200
0300
0020
0030
0200
0300
2020
0000
0000
0000
3030
0000
0000
0000
0202
0000
0000
0000
0303
0000
0000
0000
,
0022
0000
1033
0000
2020
3030
2020
3030
,
0101
0010
0100
1000
0001
0100
0010
1000
0001
0100
0010
1000
0001
1000
0001
1000
,
0010
0000
0100
0000
1000
0000
0100
0000
0001
0000
0010
0000
0100
0000
1000
0000
0001
0000
0010
0000
0100
0000
1000
0000
0001
0010
0100
1000
0002
0000
0000
0000
,
0103
1000
0010
1000
0001
1000
0010
1000
0100
1000
0001
1000
0001
1000
0001
1000
,
0010
1000
0100
1000
0010
1000
0001
1000
0010
1000
0001
1000
0001
1000
0001
1000
,
0200
0000
0301
0010
0200
0000
0311
0000
,
0101
0110
1010
1100
,
0100
1000
0010
1000
0001
1000
0010
1000
0100
1000
0001
1000
0001
1000
0001
1000
,
0010
1000
0100
1000
0010
1000
0001
1000
0010
1000
0001
1000
0001
1000
0001
1000
,
0200
0000
0301
0010
0200
0000
0311
0000
,
0101
0000
0000
0000
0110
0000
0000
0000
1010
0100
0010
0001
1100
0000
0000
0000
,
0010
0001
0100
0001
1000
0001
0100
0001
0010
0001
1000
0001
1000
0001
1000
0001
,
0100
0001
0010
0001
0100
0001
1000
0001
0100
0001
1000
0001
1000
0001
1000
0001
,
0020
0000
1030
0100
0020
0000
1130
0000
,
1010
0110
0101
0011
,
0010
0001
0100
0001
1000
0001
0100
0001
0010
0001
1000
0001
1000
0001
1000
0001
,
0100
0001
0010
0001
0100
0001
1000
0001
0100
0001
1000
0001
1000
0001
1000
0001
,
0020
0000
1030
0100
0020
0000
1130
0000
,
1010
0000
0000
0000
0110
0000
0000
0000
0101
0010
0100
1000
0011
0000
0000
0000
,
1010
0000
1000
1000
0101
0000
1000
1000
1010
0000
1000
1000
1000
1000
0100
0000
,
1010
0000
1000
1000
0101
0000
1000
1000
1010
0000
1000
1000
1000
1000
0100
0000
,
2000
3002
0203
0302
,
0023
0032
2003
3002
,
1013
0000
1000
1000
0101
0000
1000
1000
1010
0000
1000
1000
1000
1000
0100
0000
,
1010
0000
1000
1000
0101
0000
1000
1000
1010
0000
1000
1000
1000
1000
0100
0000
,
2000
3002
0203
0302
,
0023
0032
2003
3002
,
1003
1000
1000
1000
0101
1000
1000
1000
1000
1000
0110
1000
1000
1000
0011
1000
,
0100
0000
0010
0000
0001
0000
0100
0000
0010
0000
0001
0000
0110
0000
0000
1000
0000
0000
0011
0000
0000
1000
0000
0000
1000
0000
0000
1000
0000
0000
1000
0000
0000
1000
0000
0000
0020
0000
0000
0000
0000
0000
0000
0000
0000
0000
0000
0000
,
0130
1000
0010
1000
0001
1000
0010
1000
0100
1000
0001
1000
0001
1000
0001
1000
,
0010
1000
0100
1000
0010
1000
0001
1000
0010
1000
0001
1000
0001
1000
0001
1000
,
0200
0000
0301
0010
0200
0000
0311
0000
,
0101
0110
1010
1100
,
0100
1000
0010
1000
0001
1000
0010
1000
0100
1000
0001
1000
0001
1000
0001
1000
,
0010
1000
0100
1000
0010
1000
0001
1000
0010
1000
0001
1000
0001
1000
0001
1000
,
0200
0000
0301
0010
0200
0000
0311
0000
,
0101
0000
0000
0000
0110
0000
0000
0000
1010
0100
0010
0001
1100
0000
0000
0000
,
1010
0000
1000
1000
0101
0000
1000
1000
1010
0000
1000
1000
1000
1000
0100
0000
,
1010
0000
1000
1000
0101
0000
1000
1000
1010
0000
1000
1000
1000
1000
0100
0000
,
2000
3002
0203
0302
,
0023
0032
2003
3002
,
1013
0000
1000
1000
0101
0000
1000
1000
1010
0000
1000
1000
1000
1000
0100
0000
,
1010
0000
1000
1000
0101
0000
1000
1000
1010
0000
1000
1000
1000
1000
0100
0000
,
2000
3002
0203
0302
,
0023
0032
2003
3002
,
1003
1000
1000
1000
0100
0000
1000
1000
1000
1000
0010
0000
1000
1000
0001
0000
,
0100
0100
0100
0100
1000
0100
0010
0000
0001
0001
0001
0001
1000
0001
0010
0000
,
1000
1000
1000
1000
0100
0000
1000
1000
1000
1000
0010
0000
1000
1000
0001
0000
,
1000
0100
0010
0001
1000
0100
0010
0001
,
1010
1000
1000
1000
0100
0000
1000
1000
1000
1000
0010
0000
1000
1000
0001
0000
,
0100
0100
0100
0100
1000
0100
0010
0000
0001
0001
0001
0001
1000
0001
0010
0000
,
1000
1000
1000
1000
0100
0000
1000
1000
1000
1000
0010
0000
1000
1000
0001
0000
,
1000
0000
0100
0000
0001
0000
0010
0000
1000
0000
0100
0000
0010
1000
0001
1000
,
0110
0000
0011
0000
1000
0001
1000
0000
0110
0000
0011
0000
1000
0001
1000
0000
,
0000
1000
0000
1000
,
0110
0000
0011
0000
1000
0001
1000
0000
0110
0000
0011
0000
1000
0001
1000
0000
,
0000
0000
0000
0000
0000
0000
1000
0000
0000
0001
0010
0100
1000
0000
0000
0000
0000
0000
1000
0000
0000
0000
0000
0000
,
0110
0000
0011
0000
1000
0001
1000
0000
0110
0000
0011
0000
1000
0001
1000
0000
,
0000
1000
0000
1000
,
0110
0000
0011
0000
1000
0001
1000
0000
0101
0000
0011
0000
1000
0001
1000
0000
,
0022
0000
0000
0033
0202
0000
0000
0303
,
2020
0000
0000
3030
2200
0000
0000
3300
,
0022
0000
0000
0033
0202
0000
0000
0303
,
2020
0000
0000
3030
2200
0000
0000
3300
,
0001
0010
0100
1000
0100
1000
0100
1000
0010
0100
1000
0001
1000
0001
1000
0001
,
0100
1000
0001
0010
0001
0010
0001
0010
1000
0001
0010
0100
0010
0100
0010
0100
,
0001
0010
0100
1000
0100
1000
0100
1000
0010
0100
1000
0001
1000
0001
1000
0001
,
0100
1000
0001
0010
0001
0010
0001
0010
1000
0001
0010
0100
0010
0100
0010
0100
,
0001
0010
0100
0001
1000
0100
0010
0001
0100
0000
0010
0000
0001
0010
0100
1000
,
0001
0100
0010
1000
0001
0100
0010
1000
0011
0000
0110
0000
1100
0000
0110
0000
,
0001
0010
0100
0001
1000
0100
0010
0001
0100
0000
0000
0010
0100
1000
0100
0010
,
0001
0010
0100
1000
0001
0010
0100
1000
0011
0000
0110
0000
1100
0000
0110
0000
,
0001
0100
0010
0001
1000
0100
0010
0001
1000
0000
0000
0100
0010
0001
0010
0100
,
1000
0010
0100
0001
1000
0010
0100
0001
1010
0000
0101
0000
1100
0000
0101
0000
,
0001
0100
0010
0001
1000
0100
0010
0001
1000
0000
0000
0100
0010
0001
0010
0100
,
1000
0010
0100
0001
1000
0010
0100
0001
1010
0000
0101
0000
1100
0000
0101
0000
,
2001
0000
0001
0000
,
0000
0000
0001
0000
,
3110
0011
0000
0000
0001
0000
0000
0000
,
2020
3030
0202
0303
,
2001
0000
3001
0000
,
2020
3030
0220
0330
,
0011
1000
0001
1000
0001
1000
0001
1000
,
0001
0000
1000
0000
0001
0000
1000
0000
0001
0010
0100
1000
0002
0000
0000
0000
,
0103
1000
0010
1000
0001
1000
0010
1000
0100
1000
0001
1000
0001
1000
0001
1000
,
0010
1000
0100
1000
0010
1000
0001
1000
0010
1000
0001
1000
0001
1000
0001
1000
,
0200
0000
0301
0010
0200
0000
0311
0000
,
0101
0110
1010
1100
,
0100
1000
0010
1000
0001
1000
0010
1000
0100
1000
0001
1000
0001
1000
0001
1000
,
0010
1000
0100
1000
0010
1000
0001
1000
0010
1000
0001
1000
0001
1000
0001
1000
,
0200
0000
0301
0010
0200
0000
0311
0000
,
0101
0000
1000
0000
0110
0000
0000
0000
1010
0000
0000
0000
1100
0010
0100
1000
,
0010
0001
0100
0001
1000
0001
0100
0001
0010
0001
1000
0001
1000
0001
1000
0001
,
0100
0001
0010
0001
0100
0001
1000
0001
0100
0001
1000
0001
1000
0001
1000
0001
,
0020
0000
1030
0100
0020
0000
1130
0000
,
1010
0110
0101
0011
,
0010
0001
0100
0001
1000
0001
0100
0001
0010
0001
1000
0001
1000
0001
1000
0001
,
0100
0001
0010
0001
0100
0001
1000
0001
0100
0001
1000
0001
1000
0001
1000
0001
,
0020
0000
0000
0000
0000
0000
1030
0000
0000
0100
0000
0000
0020
0000
0000
0000
0000
0000
1130
0000
0000
0001
0010
0100
,
1000
0001
1000
0001
1000
0001
1000
0001
0010
0000
0010
0000
0100
0010
0001
0000
,
0110
0000
0110
0000
1000
0001
1000
0000
0110
0000
0110
0000
1000
0001
1200
0000
,
0320
0000
0000
0000
0000
0000
0000
0030
,
0110
0000
0011
0000
1000
0001
1000
0000
0110
0000
0011
0000
1000
0001
1000
0000
,
0200
0000
0000
0300
2000
0000
3002
0000
0023
0000
0000
0030
2000
3002
2003
3002
,
0113
0000
0011
0000
1000
0001
1000
0000
0110
0000
0011
0000
1000
0001
1000
0100
,
0010
0000
0000
0000
0000
0000
0000
0000
0000
0000
0000
0000
0001
0000
0000
0000
0000
0000
0000
0000
0000
0000
0000
0000
0000
0000
0000
0000
0000
0000
0100
0000
0000
0000
0000
0000
0000
0000
0000
0000
0000
0000
0000
0000
0000
0000
0000
0000
1000
0000
0000
0000
0000
0000
0000
0000
0000
0000
0000
0000
0000
0000
0000
0000
0100
0000
0000
0000
0000
0000
0000
0000
0000
0000
0000
0000
0000
0000
0000
0000
0010
0000
0000
0000
0000
0000
0000
0000
0000
0000
0000
0000
0000
0000
0000
0000
0001
0000
0000
0000
0000
0000
0000
0000
0000
0000
0000
0000
0000
0000
0000
0000
0010
0000
0000
0000
0000
0000
0000
0000
0000
0000
0000
0000
0000
0000
0000
0000
0100
0000
0000
0000
0000
0000
0000
0000
0000
0000
0000
0000
0000
0000
0000
0000
2000
0000
0000
0000
0000
0000
0000
0000
0000
0000
0000
0000
0000
0000
0000
0000
0000
0000
0000
0000
0000
0000
0000
0000
0000
0000
0000
0000
0000
0000
0000
0000
0000
0000
0000
0000
0000
0000
0000
0000
0000
0000
0000
0000
0000
0000
0000
0000
,
3110
0000
0011
0000
1000
0001
1000
0000
0101
0000
0011
0000
1000
0001
1000
0000
,
0020
0000
0000
0030
0200
0000
0000
0300
,
0002
0000
0000
0003
2000
0000
0000
3000
,
0001
0010
0100
1000
0001
0010
0100
1000
0001
0100
0010
1000
0001
0100
0010
1000
,
0100
0010
0001
0010
1000
0100
0010
0001
1000
0100
0010
0100
1000
0100
0010
0001
,
0010
0100
0011
0100
0010
0001
1100
0010
0100
1000
0011
0100
0010
0001
1100
0010
,
0100
1000
0011
0100
0010
0001
1100
0010
0100
1000
0011
0100
0010
0001
1100
0010
,
0001
0010
0100
0001
0010
0100
0001
0010
0100
0001
0010
0100
1001
0010
0100
0001
0010
0100
0001
0010
0100
0001
0010
0100
,
1001
0010
0100
0001
0010
0100
0001
0010
0100
0001
0010
0100
1000
0000
0001
0000
1000
0000
0001
0000
0010
0000
0100
0000
,
1000
1000
1000
1000
0100
0000
1000
1000
1000
1000
0010
0000
1000
1000
0001
0000
,
0100
0100
0100
0100
1000
0100
0010
0000
0001
0001
0001
0001
1000
0001
0010
0000
,
1000
1000
1000
1000
0100
0000
1000
1000
1000
1000
0010
0000
1000
1000
0001
0000
,
1000
0100
0010
0001
1000
0100
0010
0001
,
1010
1000
1000
1000
0100
0000
1000
1000
1000
1000
0010
0000
1000
1000
0001
0000
,
0100
0100
0100
0100
1000
0100
0010
0000
0001
0001
0001
0001
1000
0001
0010
0000
,
1000
1000
1000
1000
0100
0000
1000
1000
1000
1000
0010
0000
1000
1000
0001
0000
,
1000
0100
0001
0010
1000
0100
0010
0001
,
0022
0000
0000
0033
0202
0000
0000
0303
,
2020
0000
0000
3030
2200
0000
0000
3300
,
0022
1033
0202
1303
,
1010
0100
0010
0001
1100
0100
0010
0001
,
1000
0100
0010
0001
0010
0100
1000
0001
0010
0100
1000
0100
0010
0001
1000
0100
,
0010
0000
0000
0001
0000
0000
0010
0000
0000
0100
0000
0000
1000
0000
0000
0100
0000
0000
0010
0000
0000
0001
0000
0000
1000
0000
0100
0000
0010
0000
1000
0000
0100
0000
0010
0000
1000
0000
0100
0000
0010
0000
1000
0000
0100
0000
0010
0000
,
1000
0100
0010
0001
0010
0100
1000
0100
0010
0001
0100
0010
0002
0013
0100
1000
0100
0010
0001
0100
1000
0001
0100
1000
,
0002
0013
0100
1000
0100
0010
0001
0010
0100
0001
0010
0100
0010
0100
1000
0010
0100
1000
0100
1000
0001
0100
1000
0001
,
1010
0000
1000
1000
0101
0000
1000
1000
1010
0000
1000
1000
1000
1000
0100
0000
,
1010
0000
1000
1000
0101
0000
1000
1000
1010
0000
1000
1000
1000
1000
0100
0000
,
2000
3002
0203
0302
,
0023
0032
2003
3002
,
1013
0000
1000
1000
0101
0000
1000
1000
1010
0000
1000
1000
1000
1000
0100
0000
,
1010
0000
1000
1000
0101
0000
1000
1000
1010
0000
1000
1000
1000
1000
0100
0000
,
2000
3002
0203
0302
,
0023
0032
2003
3002
,
0113
0000
0011
0000
1000
0001
1000
0000
0110
0000
0011
0000
1000
0001
1000
0000
,
0000
1000
0000
1000
,
0110
0000
0011
0000
1000
0001
1000
0000
0110
0000
0011
0000
1000
0001
1000
0000
,
0010
0100
0010
0100
1000
0100
0001
0010
0100
1000
0100
0010
0001
0000
0000
0000
,
1010
0000
0101
0000
1000
0001
1000
0000
1010
0000
0101
0000
1000
0001
1000
0100
,
0100
0000
0000
0100
0000
0000
0100
0000
0000
0100
0000
0000
1000
0000
0000
0100
0000
0000
0100
0000
0010
0000
0001
0000
0100
0000
0010
0000
0001
0000
0100
0000
0010
0000
0001
0000
1000
0000
0000
0100
0000
0000
0100
0000
0000
0100
0000
0000
,
1010
0000
0101
0000
1000
0001
1000
0000
1010
0000
0101
0000
1000
0001
1000
0000
,
1010
0000
0101
0000
1100
0011
1100
0000
1010
0000
0101
0000
1100
0011
2200
0000
,
0000
0000
0000
3300
0000
0000
0000
0000
0000
0000
0000
0000
0000
0000
0000
0000
;
