#TITLE:あめふりこねこ;
#SUBTITLE:;
#ARTIST:ねこみみ魔法使い;
#TITLETRANSLIT:Ami Furi Koneko;
#SUBTITLETRANSLIT:;
#ARTISTTRANSLIT:Nekomimi mahoutsukai;
#CREDIT:;
#BANNER:amifurikoneko-bn.png;
#BACKGROUND:amifurikoneko-bg.png;
#LYRICSPATH:;
#CDTITLE:cdtitle.png;
#MUSIC:ami furi koneko.mp3;
#OFFSET:-0.083;
#SAMPLESTART:100.020;
#SAMPLELENGTH:12.000;
#SELECTABLE:YES;
#BPMS:0.000=118.000;
#STOPS:;
#BGCHANGES:;
// cache tags:
#FIRSTBEAT:7.750;
#LASTBEAT:225.042;
#SONGFILENAME:Songs/Community Keyboard Megapack - Volume 3/(Bursurk Lurk) ami furi koneko/ami furi koneko.sm;
#HASMUSIC:1;
#HASBANNER:1;
#MUSICLENGTH:115.382;
// end cache tags

//---------------dance-single - Copied from----------------
#NOTES:
     dance-single:
     Copied from:
     Hard:
     11:
     1.000,1.000,0.035,0.425,1.000,825.000,4.000,49.000,0.000,1.000:
0000
0000
0000
0000
,
0000
0000
0000
0000
0000
0000
0000
0000
0000
0000
0000
0000
0000
0000
0000
0000
0000
0000
0000
0000
0000
0000
0000
0000
0000
0000
0000
0000
0000
0000
0000
0000
0000
0000
0000
0000
0000
0000
0000
0000
0000
0000
0000
0000
0000
0000
0000
0000
0000
0000
0000
0000
0000
0000
0000
0000
0000
0000
0000
0000
1000
0100
0010
0001
,
2000
0000
0000
3000
0000
0100
0010
0100
0001
2000
0000
0000
3200
0000
0000
0320
0000
0000
1030
0000
0010
0100
0000
0010
,
0100
0010
1000
0100
0010
0001
1000
0000
0100
1000
0010
0100
0020
0000
0000
0032
0000
1003
0100
0000
0100
1000
0000
0100
,
0000
0000
1000
0100
0010
0001
1000
0000
0001
0010
0100
1000
0100
0010
0100
1000
0100
0010
0001
1000
0010
0100
0001
0010
,
0200
0000
0000
0300
0000
1000
0100
0010
0001
0200
0000
0000
0320
0000
0000
2030
0000
0000
3010
0000
1000
0001
0000
0010
,
0100
0010
1000
0001
0000
0100
0010
0100
0001
1000
0000
0100
0010
0000
0010
0100
0000
0100
0001
0000
0001
1000
0000
1000
,
0100
0000
0000
0000
0010
0000
0001
0000
0100
0000
0010
0000
0100
0000
0000
0000
0010
0000
1000
0000
0000
0000
0000
0000
0001
0000
0000
0000
0010
0000
1000
0000
0000
0000
1000
0000
0100
0000
0010
0000
0001
0000
2000
0000
0000
3000
0000
0000
,
0010
0000
0000
0100
0000
0001
0010
0000
0001
0100
0000
0010
0100
0000
0010
1000
0000
0010
0001
0000
0001
0000
0000
0100
,
0000
0000
0010
1000
0000
0000
0100
0000
1000
0100
0000
0010
0000
0000
0000
1000
0000
0010
0100
0000
0010
1000
0000
0100
,
0010
0000
0001
0010
0000
0010
0001
0000
1000
0001
0000
1000
0010
0000
0100
0010
0000
0010
0100
0001
0010
0100
1000
0001
,
0010
0000
0100
0000
0000
0100
0100
0000
0010
1000
0000
0100
0001
0000
1000
0100
0000
0001
0010
0000
1000
0000
0000
0100
,
0000
0000
1000
0010
0000
0000
0100
0000
0010
0100
0000
0010
0100
0000
0001
0000
0000
0100
0010
0000
0001
0010
0000
0100
,
1000
0000
0010
0001
0000
0010
0100
0000
0001
1000
0000
0010
0100
0000
0100
0010
0000
0100
1000
0000
0000
0100
0000
0000
,
1000
0000
0000
0010
1000
0010
0100
0000
0000
0001
0000
0000
1000
0000
0100
0010
0000
0000
0100
0000
0000
0001
0000
0000
,
1000
0000
0010
1000
0000
0010
1000
0000
0001
0000
0000
1000
0001
0000
0000
0010
0000
0000
0100
0010
0001
1000
0000
0000
,
1000
0000
0000
0010
0000
1000
0100
0000
0000
0001
0000
1000
0000
0000
0001
0100
0000
0001
1000
0000
0010
0001
0000
1000
,
0100
0000
0001
0010
0000
0000
1000
0000
0010
0001
0000
0010
0100
0000
0000
1000
0000
0010
0000
0000
0100
0000
0000
0100
,
0000
0000
0000
0000
0100
0000
0000
0000
0000
0000
0100
0000
0010
0000
0100
0000
0001
0000
1000
0000
0000
0000
0010
0000
0001
0000
0000
0000
0000
0000
1000
0100
0010
0001
1000
0100
0020
0000
0000
0000
0000
0000
0000
0000
0000
0000
0000
0000
,
0030
0000
0010
1000
0000
0001
0100
0000
0100
0010
0000
0000
1000
0000
0010
0100
0000
0000
1000
0000
0000
0001
0000
0000
,
0100
0000
0010
1000
0000
0010
0100
0000
0001
0000
0000
1000
0001
0000
0000
0100
0000
0000
0010
0100
0001
1000
0000
0000
,
0001
0000
0000
1000
0000
0001
0100
0000
0000
0010
0000
1000
0000
0000
0001
1000
0000
1000
0001
0000
0001
0100
0000
0100
,
0010
0000
0010
1000
0000
0000
0001
0000
0100
0010
0000
0010
1000
0000
0000
1000
0000
0100
0000
0000
0010
0000
0000
0010
,
0000
0000
0010
0000
0000
0010
0001
0100
0010
1000
0000
0001
1000
0000
1000
0100
0010
0001
0200
0000
0000
0000
0000
0000
,
1300
0000
0001
1000
0000
0001
1000
0000
0001
1000
0000
0001
0000
0000
1000
0001
0000
1000
0002
0000
0000
0000
0003
0100
,
0000
0000
1001
0000
0000
0000
0000
0010
0100
1000
0001
0100
0010
1000
0100
0010
0001
1000
0001
1000
0010
1000
0100
0010
,
0001
0010
0100
1000
0100
0010
0001
0100
0001
0100
0010
1000
0010
1000
0100
0010
0100
0010
0001
1000
0001
1000
0100
0010
,
0001
0000
0010
0100
0000
0010
0100
0000
0010
0100
0000
0010
0000
0000
0100
0010
0000
0100
0020
0000
0000
0000
0030
1000
,
0000
0000
0110
0000
0000
0000
1000
0100
0010
0001
0010
0001
1000
0001
1000
0010
1000
0010
1000
0100
0010
0001
0100
0010
,
1000
0000
0000
0000
0000
0000
0000
0000
0100
0000
0000
0000
0000
0000
0000
0000
0010
0000
0000
0000
0000
0000
0000
0000
0001
0000
0000
0000
0000
0000
0000
0000
0010
0000
0000
0000
0000
0000
0000
0000
0100
0000
0000
0000
0000
0000
0000
0000
1000
0000
0000
0000
0000
0000
0000
0000
0100
0000
0000
0000
0000
0000
0000
0000
0010
0000
0000
0000
0000
0000
0000
0000
0100
0000
0000
0000
0000
0000
0000
0000
1000
0000
0000
0000
0000
0000
0000
0000
0100
0000
0000
0000
0000
0000
0000
0000
0010
0000
0000
0000
0000
0000
0000
0000
0100
0000
0000
0000
0000
0000
0000
0000
1000
0000
0000
0000
0000
0000
0000
0000
0100
0000
0000
0000
0000
0000
0000
0000
0010
0000
0000
0000
0000
0000
0000
0000
0001
0000
0000
0000
0000
0000
0000
0000
0010
0000
0000
0000
0000
0000
0000
0000
0100
0000
0000
0000
0000
0000
0000
0000
1000
0000
0000
0000
0000
0000
0000
0000
0001
0000
0000
0010
0000
0000
0100
0000
0000
1000
0000
0000
0001
0000
0000
0010
0000
0000
0100
0000
0000
1000
0000
0000
,
0020
0000
2030
3002
0203
0320
0000
0000
,
0200
0030
0000
0000
0000
0000
0000
0000
0000
0320
0000
0000
0000
0000
0000
2030
0000
0000
3200
0000
0000
0320
0000
0000
,
0032
0000
0000
0203
0000
0000
0302
2003
,
3020
0230
0302
2003
0000
0000
3002
0000
,
2003
3020
0000
0230
2300
3002
2003
0000
,
0000
0000
0000
3022
0000
0000
0000
0000
0000
0000
0000
0000
0033
0000
0010
1000
0000
0010
0100
0000
0001
0100
0000
0001
,
0100
0000
0001
1000
0000
0010
0100
0000
0010
1000
0000
0010
1000
0000
0010
0100
0000
0010
0100
0000
0010
1000
0000
0010
,
0100
0000
0001
0000
0000
1000
0100
0000
0010
0001
0000
1000
0000
0000
0001
0010
0000
0001
1000
0000
0010
1000
0000
1000
,
0010
0000
0100
0010
0000
0001
0010
0000
0001
0010
0100
1000
0000
0000
1000
0100
0000
1000
0100
0000
0010
0100
0000
0010
,
0001
0000
0010
0100
0000
0100
0001
0000
1000
0000
0000
0001
0000
0000
1000
0100
0000
1000
0010
0000
1000
0100
0000
1000
,
0001
0000
1000
0010
0000
0100
1000
0010
0100
0010
0000
1000
0010
0000
1000
0100
0010
0001
1000
0000
0100
0001
0000
0001
,
0010
0100
1000
0001
0000
0010
0100
0010
0001
0100
0010
0100
0001
0010
0001
0100
0001
1000
0001
0100
0001
0010
0100
1000
,
0001
0100
0010
1000
0100
0010
0001
0100
0100
0010
0100
0010
0100
0010
0100
0010
0100
0010
0100
0010
0100
0010
0100
0001
,
1000
0000
0001
0000
0000
1000
0001
0000
0100
0010
0000
0100
0001
0000
1000
0100
1000
0010
1000
0010
0100
1000
0010
0100
,
1000
0100
0010
1000
0001
0010
1000
0001
0100
1000
0010
0100
0001
0000
0001
0000
0000
0001
0000
0000
0001
0010
0100
1000
,
0010
0100
0001
0100
0000
1000
0001
0000
0001
1000
0000
1000
0010
0000
0010
0100
0000
1000
0100
0010
0100
0010
0100
0010
,
0100
0000
0001
0010
0000
1000
0010
0100
0001
1000
0000
0010
0100
0000
1000
0100
0010
0100
1000
0000
0100
0010
0000
0001
,
1000
0100
0010
0001
0100
0010
1000
0000
0010
0001
0000
0000
1000
0000
0010
0100
0000
1000
0100
0010
0001
0100
0001
0100
,
0010
0000
0000
0000
0000
0000
0000
0000
1000
0000
0000
0000
0000
0000
0000
0000
0010
0000
0000
0000
0000
0000
0000
0000
1000
0000
0000
0000
0000
0000
0000
0000
0010
0000
0000
0000
0000
0000
0000
0000
0100
0000
0000
0000
0000
0000
0000
0000
0010
0000
0000
0000
0000
0000
0000
0000
0100
0000
0000
0000
0000
0000
0000
0000
0001
0000
0000
0000
0000
0000
0000
0000
0010
0000
0000
0000
0000
0000
0000
0000
0100
0000
0000
0000
0000
0000
0000
0000
1000
0000
0000
0000
0000
0000
0000
0000
0001
0000
0000
0000
0000
0000
0000
0000
0100
0000
0000
0000
0000
0000
0000
0000
0010
0000
0000
0000
0000
0000
0000
0000
1000
0000
0000
0000
0000
0000
0000
0000
0100
0000
0000
0000
0000
0000
0000
0000
0010
0000
0000
0000
0000
0000
0000
0000
0001
0000
0000
0000
0000
0000
0000
0000
0100
0000
0000
0000
0000
0000
0000
0000
0010
0000
0000
0000
0000
0000
0000
0000
0100
0000
0000
0000
0000
0000
0000
0000
0010
0000
0000
0000
1000
0000
0000
0100
0000
0000
0010
0000
0000
0001
0000
0000
,
2000
0000
0000
3000
0000
0010
1000
0100
0010
0001
0000
0000
0100
0000
0000
0010
0000
0000
1000
0000
0001
0010
0000
0001
,
0010
0100
1000
0010
0100
0010
1000
0000
0100
1000
0010
0100
0010
0000
0000
0001
0000
0100
0010
0000
0100
1000
0000
0100
,
0000
0000
0100
0001
0010
0100
1000
0000
0001
1000
0100
0010
0001
0010
0100
0010
0001
0010
0100
1000
0010
0100
0001
0010
,
0200
0000
0000
0300
0000
1000
0010
0100
0001
0020
0000
0000
0230
0000
0000
0302
0000
0000
1003
0000
0001
0010
0000
0001
,
0100
0001
0010
0100
0000
0001
1000
0001
0010
0001
0000
0100
0010
0000
0001
0100
0000
0001
0010
0000
0010
1000
0000
0010
,
0100
0000
1000
0100
0010
0100
1000
0000
0100
1000
0000
0100
0010
0000
0010
0100
0000
0100
1000
0000
1000
0100
0010
0001
,
1000
0000
0010
0100
0000
0100
0010
0000
0001
0010
0000
0100
1000
0000
0001
0010
0100
1000
0010
0000
0100
0010
0000
0000
,
0010
0000
0000
0000
0000
0000
0000
0000
0000
0000
0000
0000
0000
0000
0000
0000
1000
0000
0000
0000
0000
0000
0000
0000
0001
0000
0000
0000
0000
0000
0000
0000
0000
0000
0000
0000
0000
0000
0000
0000
0000
0000
0000
0000
0000
0000
0000
0000
2002
0000
3003
0000
0000
0000
0000
0000
0000
0000
0000
0000
0000
0000
0000
0000
0000
0000
0000
0000
0000
0000
0000
0000
0000
0000
0000
0000
0000
0000
0000
0000
0000
0000
0000
0000
0000
0000
0000
0000
0000
0000
0000
0000
0000
0000
0000
0000
0000
0000
0000
0000
0000
0000
0000
0000
0000
0000
0000
0000
0000
0000
0000
0000
0000
0000
0000
0000
0000
0000
0000
0000
0000
0000
0000
0000
0000
0000
0000
0000
0000
0000
0000
0000
0000
0000
0000
0000
0000
0000
0000
0000
0000
0000
0000
0000
0000
0000
0000
0000
0000
0000
0000
0000
0000
0000
0000
0000
0000
0000
0000
0000
0000
0000
0000
0000
0000
0000
0000
0000
0000
0000
0000
0000
0000
0000
0000
0000
0000
0000
0000
0000
0000
0000
0000
0000
0000
0000
0000
0000
0000
0000
0000
0000
;

//---------------dance-single - Copied from Copied f----------------
#NOTES:
     dance-single:
     Copied from Copied f:
     Medium:
     10:
     1.000,1.000,0.035,0.425,1.000,811.000,4.000,49.000,0.000,1.000:
0000
0000
0000
0000
,
0000
0000
0000
0000
,
2000
0000
0000
3000
0000
0100
0010
0100
0001
2000
0000
0000
3200
0000
0000
0320
0000
0000
1030
0000
0010
0100
0000
0010
,
0100
0010
1000
0100
0010
0001
1000
0000
0100
1000
0010
0100
0020
0000
0000
0032
0000
1003
0100
0000
0100
1000
0000
0100
,
0000
0000
1000
0100
0010
0001
1000
0000
0001
0010
0100
1000
0100
0010
0100
1000
0100
0010
0001
1000
0010
0100
0001
0010
,
0200
0000
0000
0300
0000
1000
0100
0010
0001
0200
0000
0000
0320
0000
0000
2030
0000
0000
3010
0000
1000
0001
0000
0010
,
0100
0010
1000
0001
0000
0100
0010
0100
0001
1000
0000
0100
0010
0000
0010
0100
0000
0100
0001
0000
0001
1000
0000
1000
,
0100
0000
0000
0000
0010
0000
0001
0000
0100
0000
0010
0000
0100
0000
0000
0000
0010
0000
1000
0000
0000
0000
0000
0000
0001
0000
0000
0000
0010
0000
1000
0000
0000
0000
1000
0000
0100
0000
0010
0000
0001
0000
2000
0000
0000
3000
0000
0000
,
0010
0000
0000
0100
0000
0001
0010
0000
0001
0100
0000
0010
0100
0000
0010
1000
0000
0010
0001
0000
0001
0000
0000
0100
,
0000
0000
0010
1000
0000
0000
0100
0000
1000
0100
0000
0010
0000
0000
0000
1000
0000
0010
0100
0000
0010
1000
0000
0100
,
0010
0000
0001
0010
0000
0010
0001
0000
1000
0001
0000
1000
0010
0000
0100
0010
0000
0010
0100
0001
0010
0100
1000
0001
,
0010
0000
0100
0000
0000
0100
0100
0000
0010
1000
0000
0100
0001
0000
1000
0100
0000
0001
0010
0000
1000
0000
0000
0100
,
0000
0000
1000
0010
0000
0000
0100
0000
0010
0100
0000
0010
0100
0000
0001
0000
0000
0100
0010
0000
0001
0010
0000
0100
,
1000
0000
0010
0001
0000
0010
0100
0000
0001
1000
0000
0010
0100
0000
0100
0010
0000
0100
1000
0000
0000
0100
0000
0000
,
1000
0000
0000
0010
1000
0010
0100
0000
0000
0001
0000
0000
1000
0000
0100
0010
0000
0000
0100
0000
0000
0001
0000
0000
,
1000
0000
0010
1000
0000
0010
1000
0000
0001
0000
0000
1000
0001
0000
0000
0010
0000
0000
0100
0010
0001
1000
0000
0000
,
1000
0000
0000
0010
0000
1000
0100
0000
0000
0001
0000
1000
0000
0000
0001
0100
0000
0001
1000
0000
0010
0001
0000
1000
,
0100
0000
0001
0010
0000
0000
1000
0000
0010
0001
0000
0010
0100
0000
0000
1000
0000
0010
0000
0000
0100
0000
0000
0100
,
0000
0000
0100
0000
0000
0100
0010
0100
0001
1000
0000
0010
0001
0000
0000
1000
0010
1000
0020
0000
0000
0000
0000
0000
,
0030
0000
0010
1000
0000
0001
0100
0000
0100
0010
0000
0000
1000
0000
0010
0100
0000
0000
1000
0000
0000
0001
0000
0000
,
0100
0000
0010
1000
0000
0010
0100
0000
0001
0000
0000
1000
0001
0000
0000
0100
0000
0000
0010
0100
0001
1000
0000
0000
,
0001
0000
0000
1000
0000
0001
0100
0000
0000
0010
0000
1000
0000
0000
0001
1000
0000
1000
0001
0000
0001
0100
0000
0100
,
0010
0000
0010
1000
0000
0000
0001
0000
0100
0010
0000
0010
1000
0000
0000
1000
0000
0100
0000
0000
0010
0000
0000
0010
,
0000
0000
0010
0000
0000
0010
0001
0100
0010
1000
0000
0001
1000
0000
1000
0100
0010
0001
0200
0000
0000
0000
0000
0000
,
1300
0000
0001
1000
0000
0001
1000
0000
0001
1000
0000
0001
0000
0000
1000
0001
0000
1000
0002
0000
0000
0000
0003
0100
,
0000
0000
1001
0000
0000
0000
0000
0010
0100
1000
0001
0100
0010
1000
0100
0010
0001
1000
0001
1000
0010
1000
0100
0010
,
0001
0010
0100
1000
0100
0010
0001
0100
0001
0100
0010
1000
0010
1000
0100
0010
0100
0010
0001
1000
0001
1000
0100
0010
,
0001
0000
0010
0100
0000
0010
0100
0000
0010
0100
0000
0010
0000
0000
0100
0010
0000
0100
0020
0000
0000
0000
0030
1000
,
0000
0000
0110
0000
0000
0000
1000
0100
0010
0001
0010
0001
1000
0001
1000
0010
1000
0010
1000
0100
0010
0001
0100
0010
,
1000
0000
0000
0000
0000
0000
0000
0000
0100
0000
0000
0000
0000
0000
0000
0000
0010
0000
0000
0000
0000
0000
0000
0000
0001
0000
0000
0000
0000
0000
0000
0000
0010
0000
0000
0000
0000
0000
0000
0000
0100
0000
0000
0000
0000
0000
0000
0000
1000
0000
0000
0000
0000
0000
0000
0000
0100
0000
0000
0000
0000
0000
0000
0000
0010
0000
0000
0000
0000
0000
0000
0000
0100
0000
0000
0000
0000
0000
0000
0000
1000
0000
0000
0000
0000
0000
0000
0000
0100
0000
0000
0000
0000
0000
0000
0000
0010
0000
0000
0000
0000
0000
0000
0000
0100
0000
0000
0000
0000
0000
0000
0000
1000
0000
0000
0000
0000
0000
0000
0000
0100
0000
0000
0000
0000
0000
0000
0000
0010
0000
0000
0000
0000
0000
0000
0000
0001
0000
0000
0000
0000
0000
0000
0000
0010
0000
0000
0000
0000
0000
0000
0000
0100
0000
0000
0000
0000
0000
0000
0000
1000
0000
0000
0000
0000
0000
0000
0000
0001
0000
0000
0000
0000
0000
0010
0000
0000
0000
0000
0000
0100
0000
0000
0000
0000
0000
1000
0000
0000
0000
0000
0000
,
0020
0000
2030
3002
0203
0320
0000
0000
,
0200
0030
0000
0000
0000
0000
0000
0000
0000
0320
0000
0000
0000
0000
0000
2030
0000
0000
3200
0000
0000
0320
0000
0000
,
0032
0000
0000
0203
0000
0000
0302
2003
,
3020
0230
0302
2003
0000
0000
3002
0000
,
2003
3020
0000
0230
2300
3002
2003
0000
,
0000
0000
0000
3022
0000
0000
0000
0000
0000
0000
0000
0000
0033
0000
0010
1000
0000
0010
0100
0000
0001
0100
0000
0001
,
0100
0000
0001
1000
0000
0010
0100
0000
0010
1000
0000
0010
1000
0000
0010
0100
0000
0010
0100
0000
0010
1000
0000
0010
,
0100
0000
0001
0000
0000
1000
0100
0000
0010
0001
0000
1000
0000
0000
0001
0010
0000
0001
1000
0000
0010
1000
0000
1000
,
0010
0000
0100
0010
0000
0001
0010
0000
0001
0010
0100
1000
0000
0000
1000
0100
0000
1000
0100
0000
0010
0100
0000
0010
,
0001
0000
0010
0100
0000
0100
0001
0000
1000
0000
0000
0001
0000
0000
1000
0100
0000
1000
0010
0000
1000
0100
0000
1000
,
0001
0000
1000
0010
0000
0100
1000
0010
0100
0010
0000
1000
0010
0000
1000
0100
0010
0001
1000
0000
0100
0001
0000
0001
,
0010
0100
1000
0001
0000
0010
0100
0010
0001
0100
0010
0100
0001
0010
0001
0100
0001
1000
0001
0100
0001
0010
0100
1000
,
0001
0100
0010
1000
0100
0010
0001
0100
0100
0010
0100
0010
0100
0010
0100
0010
0100
0010
0100
0010
0100
0010
0100
0001
,
1000
0000
0001
0000
0000
1000
0001
0000
0100
0010
0000
0100
0001
0000
1000
0100
1000
0010
1000
0010
0100
1000
0010
0100
,
1000
0100
0010
1000
0001
0010
1000
0001
0100
1000
0010
0100
0001
0000
0001
0000
0000
0001
0000
0000
0001
0010
0100
1000
,
0010
0100
0001
0100
0000
1000
0001
0000
0001
1000
0000
1000
0010
0000
0010
0100
0000
1000
0100
0010
0100
0010
0100
0010
,
0100
0000
0001
0010
0000
1000
0010
0100
0001
1000
0000
0010
0100
0000
1000
0100
0010
0100
1000
0000
0100
0010
0000
0001
,
1000
0100
0010
0001
0100
0010
1000
0000
0010
0001
0000
0000
1000
0000
0010
0100
0000
1000
0100
0010
0001
0100
0001
0100
,
0010
1000
0010
1000
0010
0100
0010
0100
0001
0010
0100
1000
0001
0100
0010
1000
0100
0010
0001
0100
0010
0100
0010
0100
,
0002
0000
0000
0003
0000
0010
1000
0100
0010
0001
0000
0000
0100
0000
0000
0010
0000
0000
1000
0000
0001
0010
0000
0001
,
0010
0100
1000
0010
0100
0010
1000
0000
0100
1000
0010
0100
0010
0000
0000
0001
0000
0100
0010
0000
0100
1000
0000
0100
,
0000
0000
0100
0001
0010
0100
1000
0000
0001
1000
0100
0010
0001
0010
0100
0010
0001
0010
0100
1000
0010
0100
0001
0010
,
0200
0000
0000
0300
0000
1000
0010
0100
0001
0020
0000
0000
0230
0000
0000
0302
0000
0000
1003
0000
0001
0010
0000
0001
,
0100
0001
0010
0100
0000
0001
1000
0001
0010
0001
0000
0100
0010
0000
0001
0100
0000
0001
0010
0000
0010
1000
0000
0010
,
0100
0000
1000
0100
0010
0100
1000
0000
0100
1000
0000
0100
0010
0000
0010
0100
0000
0100
1000
0000
1000
0100
0010
0001
,
1000
0000
0010
0100
0000
0100
0010
0000
0001
0010
0000
0100
1000
0000
0001
0010
0100
1000
0010
0000
0100
0010
0000
0000
,
0010
0000
0000
0000
0000
0000
0000
0000
0000
0000
0000
0000
0000
0000
0000
0000
1000
0000
0000
0000
0000
0000
0000
0000
0001
0000
0000
0000
0000
0000
0000
0000
0000
0000
0000
0000
0000
0000
0000
0000
0000
0000
0000
0000
0000
0000
0000
0000
2002
0000
3003
0000
0000
0000
0000
0000
0000
0000
0000
0000
0000
0000
0000
0000
0000
0000
0000
0000
0000
0000
0000
0000
0000
0000
0000
0000
0000
0000
0000
0000
0000
0000
0000
0000
0000
0000
0000
0000
0000
0000
0000
0000
0000
0000
0000
0000
0000
0000
0000
0000
0000
0000
0000
0000
0000
0000
0000
0000
0000
0000
0000
0000
0000
0000
0000
0000
0000
0000
0000
0000
0000
0000
0000
0000
0000
0000
0000
0000
0000
0000
0000
0000
0000
0000
0000
0000
0000
0000
0000
0000
0000
0000
0000
0000
0000
0000
0000
0000
0000
0000
0000
0000
0000
0000
0000
0000
0000
0000
0000
0000
0000
0000
0000
0000
0000
0000
0000
0000
0000
0000
0000
0000
0000
0000
0000
0000
0000
0000
0000
0000
0000
0000
0000
0000
0000
0000
0000
0000
0000
0000
0000
0000
;
