#TITLE:Aerobicsmurfen;
#SUBTITLE:Gson;
#ARTIST:Smurfarna;
#TITLETRANSLIT:;
#SUBTITLETRANSLIT:;
#ARTISTTRANSLIT:;
#CREDIT:;
#BANNER:../thisandthat-bn.png;
#BACKGROUND:../thisnthat-bg.png;
#LYRICSPATH:;
#CDTITLE:;
#MUSIC:Smurfarna- Aerobicsmurfen (Ooh Aah Just A Little Bit).ogg;
#OFFSET:-0.420;
#SAMPLESTART:100.037;
#SAMPLELENGTH:12.000;
#SELECTABLE:YES;
#DISPLAYBPM:139.000;
#BPMS:0.000=138.830,112.000=277.660,114.000=138.830,116.000=277.660,118.000=138.830,120.000=277.660,122.000=138.830,128.000=277.660,130.000=138.830,132.000=277.660,134.000=138.830,136.000=277.660,138.000=138.830,224.000=277.660,226.000=138.830,228.000=277.660,230.000=138.830,232.000=277.660,234.000=138.830,240.000=277.660,242.000=138.830,244.000=277.660,246.000=138.830,248.000=277.660,250.000=138.830,328.000=277.660,330.000=138.830,332.000=277.660,334.000=138.830,336.000=277.660,338.000=138.830,344.000=277.660,346.000=138.830,348.000=277.660,350.000=138.830,352.000=277.660,354.000=138.830;
#STOPS:112.000=0.216
,113.000=0.216
,116.000=0.216
,117.000=0.216
,120.000=0.216
,121.000=0.216
,128.000=0.216
,129.000=0.216
,132.000=0.216
,133.000=0.216
,136.000=0.216
,137.000=0.216
,224.000=0.108
,224.500=0.054
,224.750=0.054
,225.000=0.108
,225.500=0.054
,225.750=0.054
,228.000=0.108
,228.500=0.054
,228.750=0.054
,229.000=0.108
,229.500=0.054
,229.750=0.054
,232.000=0.108
,232.500=0.054
,232.750=0.054
,233.000=0.108
,233.500=0.054
,233.750=0.054
,240.000=0.108
,240.500=0.054
,240.750=0.054
,241.000=0.108
,241.500=0.054
,241.750=0.054
,244.000=0.108
,244.500=0.054
,244.750=0.054
,245.000=0.108
,245.500=0.054
,245.750=0.054
,248.000=0.108
,248.500=0.054
,248.750=0.054
,249.000=0.108
,249.500=0.054
,249.750=0.054
,328.000=0.108
,328.500=0.054
,328.750=0.054
,329.000=0.108
,329.500=0.054
,329.750=0.054
,332.000=0.108
,332.500=0.054
,332.750=0.054
,333.000=0.108
,333.500=0.054
,333.750=0.054
,336.000=0.108
,336.500=0.054
,336.750=0.054
,337.000=0.108
,337.500=0.054
,337.750=0.054
,344.000=0.108
,344.500=0.054
,344.750=0.054
,345.000=0.108
,345.500=0.054
,345.750=0.054
,348.000=0.108
,348.500=0.054
,348.750=0.054
,349.000=0.108
,349.500=0.054
,349.750=0.054
,352.000=0.108
,352.500=0.054
,352.750=0.054
,353.000=0.108
,353.500=0.054
,353.750=0.054
;
#BGCHANGES:;
// cache tags:
#FIRSTBEAT:16.000;
#LASTBEAT:404.000;
#SONGFILENAME:Songs/Seph, Gson & Shpadoinkle's Pack of This 'n That/Aerobicsmurfen/Aerobicsmurfen.sm;
#HASMUSIC:1;
#HASBANNER:1;
#MUSICLENGTH:181.067;
// end cache tags

//---------------dance-single - Blank----------------
#NOTES:
     dance-single:
     Blank:
     Challenge:
     10:
     0.890,1.000,0.122,1.000,0.743,834.000,22.000,270.000,100.000,1.000:

0000
0000
0000
0000
,
0000
0000
0000
0000
,
0000
0000
0000
0000
,
0000
0000
0000
0000
,
0001
0000
0100
0000
0010
0000
1000
0000
0100
0000
1000
0100
0000
1000
0100
0010
,
0001
0000
0010
0000
0100
0000
1000
0000
0100
0000
0010
0002
0000
0000
0000
0000
,
1003
0000
0001
0000
0100
0000
0010
0000
1000
0000
0100
0010
0000
0001
0100
0010
,
1000
0000
0100
0000
0010
0000
0100
0000
1000
0000
0010
0200
0000
0000
0000
0000
,
0310
1000
0100
0010
0002
0003
2002
3003
,
2022
0000
3033
0000
0001
0000
0100
0000
0010
0000
2000
3020
0000
0000
0000
0000
,
1030
0000
0100
0000
0010
0000
0001
0000
0100
0000
0010
0100
0000
0010
1000
0100
,
1000
0000
0100
0000
0010
0001
0010
0100
1000
0010
0100
0001
0010
0100
1000
0001
,
1000
0000
0100
1000
0100
0000
1000
0001
1000
0000
0010
1000
0010
0000
0100
0010
,
0100
0000
0010
1000
0010
0000
1000
0100
1000
0000
0001
1000
0001
0000
0010
0001
,
0010
0000
0001
1000
0001
0000
0010
0001
0010
0000
0100
1000
0100
0000
1000
0100
,
1000
0000
0010
1000
0010
0000
1000
0001
1000
0000
0010
1000
0010
0000
1000
0001
,
0100
0000
0001
0010
0200
0000
2300
0000
3020
0000
0000
0230
0000
0000
0302
0000
,
0023
0000
0230
2300
0000
0000
3001
1000
0001
0000
2020
0000
3030
0220
0000
0330
,
0202
0000
0303
0000
0220
0300
0130
0010
0100
0000
0002
0000
0023
0000
2030
0000
,
3020
0000
0000
0000
0031
0010
0100
1000
0001
0010
0100
1000
0001
0100
0010
1000
,
0M1M
0000
100M
0010
100M
0000
001M
1000
010M
0000
100M
0010
100M
0000
001M
1000
,
0M1M
0000
1M00
0001
1M00
0000
0M01
1000
0M01
0000
1M00
0001
1M00
0000
0M01
0010
,
MM02
0000
M000
0203
M000
0000
M310
0100
M010
0000
M200
0000
M302
0000
M023
0000
,
M23M
0000
130M
0100
100M
0000
010M
0010
0M01
0000
0M10
0001
0M10
0000
0M01
1000
,
0MM1
0000
10M0
0001
02M0
0000
03M2
0000
20M3
0000
00M0
3200
00M0
0000
23M0
3000
,
M2M0
0000
M000
0302
M000
0000
M203
0000
M320
0000
M031
0100
M010
0000
M100
0010
,
2MM0
0000
0MM0
3002
0MM0
0000
2MM3
0000
3MM2
0000
0MM0
2003
0MM0
0000
3MM2
0000
,
2MM3
0000
3000
0020
0000
0000
0230
0000
0301
0100
0010
1000
0001
0100
0010
1000
,
0002
0000
0000
0000
2003
0000
0000
0000
3010
0000
1000
0010
0000
1000
0001
0000
,
0200
0000
0000
0000
0320
0000
0000
0000
1030
0010
0100
0001
2000
0000
0000
0000
,
3002
0000
0000
0000
0203
0000
0000
0000
0310
0000
0100
0010
0000
0100
0001
0000
,
1000
0200
0000
0020
0300
0002
0030
0203
0000
0320
0000
2030
0000
0000
3002
0000
,
2003
0000
0000
0000
3200
0000
0000
0000
0310
0000
0001
0010
0000
0001
1000
0000
,
0002
0000
0000
0000
0023
0000
0000
0000
0031
0010
0100
1000
0002
0000
0000
0000
,
2003
0000
0000
0000
3020
0000
0000
0000
1030
0000
0010
0100
0000
0010
1000
0000
,
0001
0200
0000
0320
0000
2030
0000
3200
0000
0320
0000
0032
0000
0000
2003
0000
,
3001
0000
0100
0000
0001
0000
0010
0000
0100
0000
1000
0100
0000
1000
0100
0010
,
0001
0000
0010
0000
0001
0000
0010
0000
0100
0000
0010
0200
0000
0000
0000
0000
,
1300
0000
0001
0000
0100
0000
0010
0000
1000
0000
0100
0010
0000
0001
0100
0010
,
1000
0000
0100
0000
0010
0000
0100
0000
1000
0000
0010
0200
0000
0000
0000
0000
,
M31M
0000
0100
0010
0100
0000
0010
1000
0010
0000
1000
0001
1000
0000
0100
1000
,
0100
0000
1000
0001
1000
0000
0001
0100
0001
0000
0200
0000
0000
2300
0000
0000
,
3200
0000
0000
0302
0000
0000
0013
0001
0010
0000
0200
0000
0000
0302
0000
0000
,
0203
0000
0310
0100
0010
0000
0001
0010
0001
0000
1000
0001
1000
0000
0001
0100
,
0001
0000
2000
0000
0020
3000
0002
0030
0023
0000
0000
2000
0030
0000
3200
0000
,
0320
0000
0230
2300
0000
0000
3100
1000
0100
0000
0020
0000
0032
0000
0203
0000
,
0320
0000
0000
2030
0000
0000
3001
1000
0001
0000
2000
0000
3200
0000
0302
0000
,
0203
0000
0000
0000
1300
0100
0010
0001
1000
0001
1000
0001
1000
0010
0100
0001
,
0200
0000
0000
0000
,
2300
0000
0000
0000
,
3020
0000
0000
0000
,
0032
0000
0203
0000
,
0310
0000
0000
1010
0000
0000
1000
0000
0100
0000
0000
0001
0000
0000
0100
0000
,
1000
0000
0000
0100
0000
0000
0010
0000
0011
0000
0001
0010
0001
0000
0010
0100
,
0010
0000
0100
0010
0100
0000
1000
0100
1000
0000
0100
0010
0001
0000
0100
0010
,
1000
0000
0010
1000
0100
0010
0001
0100
0010
1000
0001
0100
0010
0100
0010
1000
,
0002
0000
1003
0001
2000
0000
3010
1000
0010
0000
1000
0010
0000
0100
0020
0000
,
0230
0000
0310
0100
0020
0000
0130
0001
0100
0001
0100
0010
2000
0000
0000
0000
,
3002
0000
0103
0001
0200
0000
0310
1000
0010
0000
1000
0010
0000
1000
0020
0000
,
2030
3200
0000
0320
0000
0032
0000
0023
0000
0230
0000
2300
0000
0000
3200
0000
,
0320
0000
0031
0010
0002
0000
0103
0001
0100
0000
0001
0010
0000
0001
0010
0000
,
0200
0000
0310
0100
2000
0000
3100
0010
0001
0100
0010
1000
0002
0000
0000
0000
,
2003
0000
3100
1000
0020
0000
1030
0100
0010
0000
0001
0010
0000
0001
0010
0000
,
0002
0203
0000
0320
0000
2030
0000
3200
0000
0320
0000
0230
0000
0000
2300
0000
,
3200
0000
0310
0000
0200
0000
0310
0000
0200
0000
0310
0200
0000
0000
0320
0000
,
0032
0000
1003
0000
0002
0000
1003
0000
0002
0000
1003
0002
0000
0000
2003
0000
,
3020
0000
0130
0000
0020
0000
0130
0000
0020
0000
0130
0020
0000
0000
4030
0000
,
0000
0000
3002
0203
2300
3200
0302
0043
,
0000
0000
0000
0000
0030
0002
0203
0320
,
2030
0000
0000
3200
0000
0000
0320
0000
0032
0000
0000
0203
0000
0000
0320
0000
,
4030
0000
0000
0000
0000
0000
0000
0000
3002
0000
0000
0203
0000
0000
0320
0000
,
2030
0000
0000
3200
0000
0000
0320
0000
0032
0000
0000
0023
0000
0000
0230
0000
,
1300
0100
0010
0100
1000
0100
0010
0001
0010
0100
0010
0001
0010
0100
1000
0010
,
0200
0301
0100
0010
2000
3100
0010
0001
2000
3001
0100
0010
2000
3100
0010
0001
,
2000
0000
3001
0000
2002
3003
0001
0000
0100
0000
0010
1000
0000
0001
0100
0010
,
1000
0000
0100
0000
0220
0330
0100
0000
1000
0100
0010
0001
0010
0000
0001
0000
,
0100
0000
0001
0000
0202
0303
0001
0000
0100
0000
0010
1000
0000
0001
0100
0000
,
0002
0023
2030
3200
,
0302
0000
0103
0000
0202
0303
0100
0000
0001
0000
0010
0001
0000
0010
0100
0000
,
0010
0000
0001
0000
0100
0000
0010
0000
1000
0010
1000
0010
1000
0000
0010
0000
,
2000
0000
3100
0000
2200
3300
0100
0000
0010
0000
0100
0010
0000
0100
0010
0000
,
0200
2300
3200
0302
2003
3020
0032
0203
,
0320
0000
1030
0100
0020
0000
0130
0010
0100
0000
0010
0100
0000
0010
0002
0000
,
0023
0000
0031
0010
0002
0000
0103
0001
0100
0010
1000
0001
2000
0000
0000
0000
,
3002
0000
0103
0010
2000
0000
3100
0010
0001
0000
0100
0010
0000
0100
0010
0000
,
0200
0320
0000
2030
0000
3002
0000
0203
0000
0320
0000
2030
0000
0000
3002
0000
,
2003
0000
3100
1000
0200
0000
0310
0100
0010
0000
0100
0010
0000
0100
2000
0000
,
3200
0000
1300
0100
2000
0000
3100
1000
0100
0010
0001
1000
0002
0000
0000
0000
,
2003
0000
3010
0100
0002
0000
0013
0100
1000
0000
0010
0100
0000
0010
0100
0000
,
0010
0000
1000
0010
1000
0000
0010
0000
0200
0000
0302
0000
0023
0000
0230
0000
,
2300
0000
3010
0000
2020
3030
1000
0000
1001
0000
0001
0100
0000
0001
0202
0000
,
0000
0000
0000
0000
0000
0000
0303
0000
0001
0100
0010
1000
0001
0000
0010
0000
,
0200
0000
0310
0000
0220
0330
0100
0000
0010
0000
0001
0100
0000
0001
0100
0000
,
0002
0023
2030
3200
,
0302
0000
0103
0000
0202
0303
0001
0000
1000
0000
0100
0010
0000
0100
0010
0000
,
0200
0000
1300
0000
2002
3003
1000
0000
0001
0100
0001
0100
0001
0000
0100
0000
,
0020
0000
1030
0000
2020
3030
0010
0000
1000
0000
0001
1000
0000
0001
1000
0000
,
0002
0013
0200
1300
0002
0103
0020
1030
0200
0310
0002
0103
0020
1030
0200
0310
,
MM02
MM00
MM00
MM00
MM00
MM00
MM00
MM00
,
MM00
M000
M000
M000
M000
M000
M000
M000
,
M000
0000
0000
0000
,
0003
0000
0000
0000
;
