#TITLE:Disabled the Flaw;
#SUBTITLE:;
#ARTIST:D-Crew;
#TITLETRANSLIT:;
#SUBTITLETRANSLIT:;
#ARTISTTRANSLIT:;
#CREDIT:;
#BANNER:diasble-bn.png;
#BACKGROUND:disable-bg.png;
#LYRICSPATH:;
#CDTITLE:!reachTitle.png;
#MUSIC:Disabled the FLAW (LONG Version).mp3;
#OFFSET:-0.490;
#SAMPLESTART:55.200;
#SAMPLELENGTH:12.000;
#SELECTABLE:YES;
#BPMS:0.000=171.000,52.000=145.000,56.000=171.000,215.000=173.000;
#STOPS:;
#BGCHANGES:;
// cache tags:
#FIRSTBEAT:0.000;
#LASTBEAT:311.750;
#SONGFILENAME:Songs/Fabulously Fresh Flock of Fantastic Files F5/(Reach) Disabled The Flaw/disabledtheflaw.sm;
#HASMUSIC:1;
#HASBANNER:1;
#MUSICLENGTH:115.963;
// end cache tags

//---------------dance-single - ----------------
#NOTES:
     dance-single:
     :
     Challenge:
     13:
     1.000,1.000,1.000,1.000,0.677,721.000,403.000,159.000,0.000,43.000:
2002
3003
0100
0000
0010
0000
0001
0010
0001
0000
0010
0000
0100
0000
0010
0000
,
1001
0000
0100
0000
1001
0000
0010
0001
0010
0000
1000
0000
0010
0000
0100
0000
,
2002
3003
0100
0000
0010
0000
0001
0010
0001
0000
0100
0000
1010
0000
1000
0000
,
1100
0000
1000
0000
1000
0001
1000
0001
1000
0001
1000
0000
0010
0000
1000
0000
,
1001
0010
0100
1000
0001
0100
0010
1000
0011
1000
0010
0100
0001
1000
0010
0100
,
1001
0000
0001
0000
0001
1000
0001
0010
1100
0010
0100
0000
0100
0000
0100
0000
,
1001
0010
0100
1000
0110
1000
0010
1000
0011
0100
0010
0001
1100
0010
0100
0010
,
0001
0010
0100
1000
0011
0000
1000
0000
0101
0000
0010
0000
1000
0000
0101
0000
1001
0000
0100
0000
1010
0000
0001
0000
0110
0000
0000
0000
0110
0000
0000
0000
,
1001
0000
0000
0000
0000
0000
0000
0000
0000
0000
0000
0000
0100
0000
0000
0000
0000
0000
0000
0000
0000
0000
0000
0000
0011
0000
0000
0000
0000
0000
0000
0000
0000
0000
0000
0000
0100
0000
0000
0000
0000
0000
0000
0000
0000
0000
0000
0000
1001
0000
0000
0000
0000
0000
0000
0000
0000
0000
0000
0000
0010
0000
0000
0000
0000
0000
0000
0000
0000
0000
0000
0000
0100
0000
0000
0000
0000
0000
0000
0000
0000
0000
0000
0000
0011
0000
0000
0000
0000
0000
0000
0000
0000
0000
0000
0000
1001
0000
0000
0000
0000
0000
0000
0000
0010
0000
0000
0000
0000
0000
0000
0000
0100
0000
0000
0000
0000
0000
0000
0000
1000
0000
0000
0000
0000
0000
0001
0000
0000
0000
0000
0000
0010
0000
0000
0000
0000
0000
0100
0000
0000
0000
0000
0000
1000
0000
0000
0000
0000
0000
0000
0000
0000
0000
0000
0000
0000
0000
0000
0000
0000
0000
0000
0000
0000
0000
0000
0000
1100
0000
0000
0000
0000
0000
0000
0000
0000
0000
0000
0000
0000
0000
0000
0000
0000
0000
0000
0000
0000
0000
0000
0000
,
1001
0010
1000
0001
1000
0010
0100
0010
1001
0010
0001
0010
1001
0100
1000
0100
,
1001
0000
0110
1100
0011
0000
0110
1100
0011
0000
1100
0000
0101
1010
0101
0000
,
1001
0000
0000
0000
0000
0000
1001
0000
0000
0000
0000
0000
1010
0000
0000
0000
0000
0000
0000
0000
0000
1100
0000
0000
1010
0000
0000
0000
0000
0000
0011
0000
0000
0000
0011
0000
0000
0000
0011
0000
0000
0000
1001
0000
0000
0000
0000
0000
,
0101
0000
0110
0000
1010
0000
0000
0000
1001
0000
0101
1010
0101
0000
0110
0000
,
1002
0000
0000
0000
0000
0000
0000
0000
0000
0000
0100
0000
0000
0000
0000
0000
0000
1000
0000
0000
0000
0000
0000
0000
0000
0000
0000
0000
0003
0000
0000
0000
,
1001
0000
0110
0001
1100
0000
0011
0100
1001
0000
0110
0000
0011
0000
0110
0000
,
1001
0000
0110
0001
1010
0000
0011
0100
1001
0000
0110
0000
0011
0000
0110
0000
,
1001
0000
0110
0001
1010
0000
0011
0100
1001
0000
1001
0000
0000
0000
0101
0000
,
1001
0000
0101
0000
1001
0000
0011
0100
1010
0100
0011
0100
1001
0000
0110
0000
,
1001
0000
0011
0100
1001
0000
1001
0010
1001
0000
0110
0000
1100
0000
0110
0000
,
1001
0000
0011
0100
1001
0000
0011
1000
0011
0000
0110
0000
1100
0000
0110
0000
,
1001
0000
0011
0100
0011
0000
0110
1000
0110
0000
1001
0000
0000
0000
1001
0000
,
1100
0000
0110
0000
1001
0000
0101
0010
1100
0010
0101
0010
1100
0000
0110
0000
,
1001
0000
1100
0001
1100
0000
1001
0010
1001
0000
0101
0000
1010
0000
0110
0000
,
1001
0000
1010
0001
1010
0000
0110
1000
0110
0000
0011
0000
0110
0000
1100
0000
,
1001
0000
0101
0010
0101
0000
1001
0100
1001
0000
1010
0000
0000
0000
1010
0000
,
1001
0000
0110
0000
0011
0000
1001
0010
1100
0001
1010
0000
0110
0000
1001
0000
,
0110
0000
0110
1001
0110
0000
0011
1100
0011
0000
1100
0000
0011
0000
0101
0000
,
1001
0000
0101
1010
0101
0000
1001
0110
1001
0000
1100
0000
0011
0000
0110
0000
,
1001
0000
0110
1001
0110
0000
1001
0110
1001
0000
0110
0000
0000
0000
1100
0000
,
0110
0000
0011
0000
1001
0000
0110
0001
1010
0100
1001
0000
0110
0000
1001
0000
,
1001
0000
0000
1000
0002
0003
1000
0000
0000
1000
0002
0003
1000
0000
0000
0000
,
1000
0000
0002
1003
0000
0000
1000
0000
0002
1003
0000
0000
1000
0000
0100
0000
,
1000
0000
0000
1000
0002
0003
1000
0000
0000
1000
0002
0003
1000
0100
0010
0000
,
1002
0003
0000
1000
0000
0000
1000
0000
0000
1000
0002
0003
1000
0000
0100
0000
,
1020
0000
0000
1000
0032
0003
1000
0000
0000
1000
0002
0003
1000
0000
0120
0000
,
1000
0000
0032
1003
0000
0000
1000
0000
0002
1003
0000
0000
1000
0000
0100
0000
,
1020
0000
0000
1000
0032
0003
1000
0000
0000
1000
0002
0003
1000
0000
0120
0000
,
1000
0000
0032
1000
0023
0000
1030
0000
0000
0000
1002
0000
0123
0000
1030
0000
,
0120
0000
0000
1000
0032
0000
1023
0000
0030
1000
0002
0003
1000
0000
0120
0000
,
1032
0000
0003
1000
0020
0000
1032
0000
0023
1000
0032
0000
1023
0000
0132
0000
,
1023
0000
0030
1000
0002
0000
1023
0000
0030
1000
0002
0000
1023
0000
0230
0000
,
1320
0000
0032
1000
0023
0000
1230
0000
0302
1000
0203
0000
1302
0000
0123
0000
,
1032
0000
0023
1000
0230
0000
1302
0000
0023
1000
0230
0000
1302
0000
0123
0000
,
1230
0000
0302
1000
0023
0000
1230
0000
0302
1000
0203
0000
1302
0000
0123
0000
,
1032
0000
0023
1000
0230
0000
1302
0000
0203
1000
0320
0000
1032
0000
0123
0000
,
1032
0000
0023
1000
0230
0000
1302
0000
0203
1000
0302
0000
1023
0000
0131
0000
,
1002
0003
1020
0130
1002
0003
1200
0300
1020
0130
1002
0003
1200
0300
1020
0030
,
1200
0300
1020
0130
1002
0003
1020
0030
1002
0103
1020
0030
1200
0300
1020
0030
,
1002
0003
1200
0310
1002
0003
1020
0030
1002
0013
1200
0300
1020
0030
1002
0003
,
1020
0030
1002
0013
1200
0301
1020
0130
1002
0013
1200
0300
1020
0030
1002
0003
,
2002
3003
1020
0130
1002
0003
1020
0030
1002
0103
1020
0030
1200
0300
1020
0030
,
1002
0003
1020
0130
1002
0003
1200
0300
1020
0130
1002
0003
1200
0300
1002
0003
,
1200
0300
1002
0013
1200
0300
1020
0030
1002
0013
1200
0300
1002
0003
1020
0030
,
1200
0300
1002
0013
1200
0301
1020
0130
1002
0013
1200
0300
1002
0003
1020
0030
,
1200
0300
0010
0000
1000
0000
1002
0000
0000
0000
0000
0000
0000
0000
0000
0000
,
0013
0000
0001
1000
0001
1000
0001
1000
0001
1000
0001
1000
0001
1000
0001
1000
,
0011
0000
0001
0010
0000
0000
0020
0000
0000
0000
0000
0000
0000
0000
0030
0000
,
1100
0000
1100
0000
1100
0000
0000
1010
1100
0000
1010
0101
1010
0000
1010
0000
,
1001
0010
0101
2000
0001
0000
0001
3000
,
0110
0000
1001
0000
0110
0101
1010
0101
,
1001
0010
0101
2000
0001
0000
0001
3000
,
1010
0000
1010
0000
0110
0101
1010
0101
,
1001
0010
1100
0010
1001
0010
1100
0010
,
1001
0010
0101
0010
1100
0011
0110
1001
,
0110
0001
1010
0001
1100
0001
0110
0001
,
1001
0010
1100
0010
1010
0101
0110
1001
,
0102
0100
1010
0100
1100
0100
0110
0010
,
1100
0010
1010
0100
1010
0110
1100
0110
,
1010
0100
1010
0100
1100
0100
0110
0100
,
1013
0000
1010
0000
1010
0000
1010
0000
1001
0000
1001
0000
1001
0110
1001
0110
,
1001
0000
1100
1001
0000
1001
0110
0000
,
1001
0100
0010
0001
1100
0011
1100
0101
,
1001
0010
0100
1001
0000
1001
0110
1000
,
0011
0100
0010
1000
0101
1010
0110
1001
,
0110
0011
1000
0110
0000
0110
0001
1000
,
0101
1000
0010
0100
1001
0110
1010
0101
,
1001
0110
1000
0101
0000
0101
1000
0110
,
2002
3003
0011
0000
0100
0000
1100
0000
0110
0000
0011
0000
0110
0000
2002
3003
;

//---------------dance-single - ----------------
#NOTES:
     dance-single:
     :
     Hard:
     11:
     1.000,1.000,1.000,1.000,0.638,709.000,210.000,163.000,0.000,29.000:
2002
3003
0100
0000
0010
0000
0001
0010
0001
0000
0010
0000
0100
0000
0010
0000
,
1001
0000
0100
0000
1001
0000
0010
0001
0010
0000
1000
0000
0010
0000
0100
0000
,
2002
3003
0100
0000
0010
0000
0001
0010
0001
0000
0100
0000
1010
0000
1000
0000
,
1100
0000
1000
0000
1000
0001
1000
0001
1000
0001
1000
0000
0010
0000
1000
0000
,
1001
0010
0100
1000
0001
0100
0010
1000
0001
1000
0010
0100
0001
1000
0010
0100
,
1001
0000
0001
0000
0001
1000
0001
0010
1000
0010
0100
0000
0100
0000
0100
0000
,
0001
0010
0100
1000
0010
1000
0010
1000
0010
0100
0010
0001
1000
0010
0100
0010
,
0001
0100
0010
1000
0101
0000
0000
0101
1001
0000
1100
0000
1010
0000
0110
0000
,
1000
0100
0010
0100
1000
0010
0100
0001
2000
0000
0001
0000
3001
0000
1000
0000
,
0002
0013
1000
0001
1000
0010
0100
0010
2000
3010
0001
0010
0002
0103
1000
0100
,
0002
0003
0100
0010
0100
0000
0100
0010
0100
0000
0010
0100
0001
1000
0001
0000
,
1001
0000
0000
0000
0000
0000
1001
0000
0000
0000
0000
0000
1010
0000
0000
0000
0000
0000
0000
0000
0000
1100
0000
0000
1010
0000
0000
0000
0000
0000
0011
0000
0000
0000
0011
0000
0000
0000
0011
0000
0000
0000
1001
0000
0000
0000
0000
0000
,
0101
0000
0110
0000
1010
0000
0000
0000
1001
0000
0101
1010
0101
0000
0110
0000
,
1002
0000
0000
0000
0000
0000
0000
0000
0000
0000
0100
0000
0000
0000
0000
0000
0000
1000
0000
0000
0000
0000
0000
0000
0000
0000
0000
0000
0003
0000
0000
0000
,
1001
0000
0010
0100
0010
0000
0010
0100
0010
0000
0110
0000
0011
0000
0110
0000
,
1001
0000
0100
0001
1000
0000
0010
0100
0010
0000
0110
0000
0011
0000
0110
0000
,
1001
0000
0100
0001
1000
0000
0010
0100
0010
0000
1001
0000
0000
0000
0101
0000
,
1001
0000
0101
0000
1001
0000
0010
0100
0010
0100
0010
0100
0001
0000
0110
0000
,
1001
0000
0010
0100
0010
0000
0001
0010
0001
0000
0110
0000
1100
0000
0110
0000
,
1001
0000
0010
0100
0010
0000
0001
1000
0001
0000
0110
0000
1100
0000
0110
0000
,
1001
0000
0010
0100
0010
0000
0010
1000
0010
0000
1001
0000
0000
0000
1001
0000
,
1100
0000
0110
0000
1001
0000
0001
0010
1000
0010
0001
0010
1000
0000
0110
0000
,
1001
0000
1000
0001
1000
0000
1000
0100
1000
0000
0101
0000
1010
0000
0110
0000
,
1001
0000
0010
0100
0010
0000
0100
0001
0100
0000
0011
0000
0110
0000
1100
0000
,
1001
0000
0100
1000
0100
0000
0001
0010
0001
0000
1010
0000
0000
0000
1010
0000
,
1001
0000
0110
0000
0011
0000
1000
0010
0100
0001
1000
0000
0110
0000
1001
0000
,
0110
0000
0100
1000
0100
0000
0001
1000
0001
0000
1100
0000
0011
0000
0101
0000
,
1001
0000
0001
1000
0001
0000
0001
0100
0001
0000
1100
0000
0011
0000
0110
0000
,
1001
0000
0100
0001
0100
0000
0001
0010
0001
0000
0110
0000
0000
0000
1100
0000
,
0110
0000
0011
0000
1001
0000
0100
0001
1000
0100
0001
0000
0110
0000
1001
0000
,
1001
0000
0000
1000
0002
0003
1000
0000
0000
1000
0002
0003
1000
0000
0000
0000
,
1000
0000
0002
1003
0000
0000
1000
0000
0002
1003
0000
0000
1000
0000
0100
0000
,
1000
0000
0000
1000
0002
0003
1000
0000
0000
1000
0002
0003
1000
0100
0010
0000
,
1002
0003
0000
1000
0000
0000
1000
0000
0000
1000
0002
0003
1000
0000
0100
0000
,
1020
0000
0000
1000
0032
0003
1000
0000
0000
1000
0002
0003
1000
0000
0120
0000
,
1000
0000
0032
1003
0000
0000
1000
0000
0002
1003
0000
0000
1000
0000
0100
0000
,
1020
0000
0000
1000
0032
0003
1000
0000
0000
1000
0002
0003
1000
0000
0120
0000
,
1000
0000
0032
1000
0023
0000
1030
0000
0000
0000
1002
0000
0123
0000
1030
0000
,
0120
0000
0000
1000
0032
0000
1023
0000
0030
1000
0002
0003
1000
0000
0120
0000
,
1032
0000
0003
1000
0020
0000
1032
0000
0023
1000
0032
0000
1023
0000
0132
0000
,
1023
0000
0030
1000
0002
0000
1023
0000
0030
1000
0002
0000
1023
0000
0230
0000
,
1320
0000
0032
1000
0023
0000
1230
0000
0302
1000
0203
0000
1302
0000
0123
0000
,
1032
0000
0023
1000
0230
0000
1302
0000
0023
1000
0230
0000
1302
0000
0123
0000
,
1230
0000
0302
1000
0023
0000
1230
0000
0302
1000
0203
0000
1302
0000
0123
0000
,
1032
0000
0023
1000
0230
0000
1302
0000
0203
1000
0320
0000
1032
0000
0123
0000
,
1032
0000
0023
1000
0230
0000
1302
0000
0203
1000
0302
0000
1023
0000
0131
0000
,
0002
0003
0020
0130
2000
3000
0200
0300
0020
0130
2000
3000
0200
0300
0020
0030
,
0200
0300
0020
0031
0200
0300
0020
0030
0002
0103
0020
0030
2000
3000
0020
0030
,
0002
0003
0200
0310
2000
3000
0020
0030
0002
0013
0200
0300
0020
0030
0002
0003
,
0020
0030
0002
0013
0200
1300
0020
0130
0002
0013
0200
0300
0020
0030
0002
0003
,
2000
3000
0020
0130
0020
0030
0200
0300
0002
0103
0020
0030
2000
3000
0020
0030
,
0002
0003
0020
1030
0002
0003
0200
0300
0020
1030
0002
0003
2000
3000
0002
0003
,
0200
0300
0002
0013
2000
3000
0020
0030
0002
0013
0200
0300
0002
0003
0020
0030
,
2000
3000
0002
0013
0200
1300
0020
0130
0002
0013
0200
0300
0002
0003
0020
0030
,
0200
0300
0010
0000
1000
0000
1002
0000
0000
0000
0000
0000
0000
0000
0000
0000
,
0013
0000
0001
1000
0001
1000
0001
1000
0001
1000
0001
1000
0001
1000
0001
1000
,
0011
0000
0001
0010
0000
0000
0020
0000
0000
0000
0000
0000
0000
0000
0030
0000
,
1100
0000
1100
0000
1100
0000
0000
0010
0100
0000
0010
0100
0010
0000
1010
0000
,
1001
0010
0100
2000
0001
0000
0001
3000
,
0110
0000
0000
0000
0110
0101
1010
0101
,
1001
0010
0100
2000
0001
0000
0001
3000
,
1010
0000
0000
0000
0110
0101
1010
0101
,
1001
0010
1100
0010
1001
0010
1100
0010
,
1001
0010
0101
0010
1100
0011
0110
1001
,
0110
0001
1010
0001
1100
0001
0110
0001
,
1001
0010
1100
0010
1010
0101
0110
1001
,
0102
0100
1000
0100
1000
0100
0010
0100
,
1000
0010
1000
0100
0010
0100
1000
0100
,
0010
0100
1000
0100
1000
0100
0010
0100
,
1003
0000
1000
0000
1000
0000
1000
0000
0001
0000
0001
0000
0001
0100
0001
0100
,
0001
0000
1100
1001
0000
1001
0110
0000
,
1001
0100
0010
0001
1100
0011
1100
0101
,
1001
0010
0100
1001
0000
1001
0110
1000
,
0011
0100
0010
1000
0101
1010
0110
1001
,
0110
0011
1000
0110
0000
0110
0001
1000
,
0101
1000
0010
0100
1001
0110
1010
0101
,
1001
0110
1000
0101
0000
0101
1000
0110
,
2002
3003
0011
0000
0100
0000
1100
0000
0110
0000
0011
0000
0110
0000
2002
3003
;
