#TITLE:Ring of Fire;
#SUBTITLE:;
#ARTIST:Dragonforce;
#TITLETRANSLIT:;
#SUBTITLETRANSLIT:;
#ARTISTTRANSLIT:;
#CREDIT:;
#BANNER:Fallback-Ban-Janus5k.png;
#BACKGROUND:Fallback-BG-Janus5k.png;
#LYRICSPATH:;
#CDTITLE:~CDTitle-Janus5k.png;
#MUSIC:Dragonforce - Ring of Fire.ogg;
#OFFSET:0.708;
#SAMPLESTART:35.292;
#SAMPLELENGTH:26.180;
#SELECTABLE:YES;
#BPMS:0.000=220.000;
#STOPS:;
#BGCHANGES:;
// cache tags:
#FIRSTBEAT:4.000;
#LASTBEAT:703.500;
#SONGFILENAME:Songs/Index Tournament 1/[Janus5k] Ring of Fire/Ring of Fire.sm;
#HASMUSIC:1;
#HASBANNER:1;
#MUSICLENGTH:195.526;
// end cache tags

//---------------dance-single - T. Swag----------------
#NOTES:
     dance-single:
     T. Swag:
     Challenge:
     19:
     1.000,1.000,0.097,0.046,1.000,2665.000,19.000,9.000,0.000,0.000:

0000
0000
0000
0000
,
1001
0000
1000
0100
1000
0000
0001
0000
1000
0010
1000
0000
0001
0000
1000
0100
,
1000
0000
0001
0000
0010
0001
0010
0000
0100
1000
0001
0000
0100
0001
0100
0000
,
0110
0000
0010
1000
0010
0000
0100
0000
0001
1000
0001
0000
0010
0000
0100
0010
,
0100
0000
1000
0000
0001
0010
0001
0000
1000
0010
0100
0000
0001
1000
0001
0000
,
0011
0000
0010
0001
0010
0000
0100
0000
1000
0001
1000
0000
0010
0000
1000
0001
,
1000
0000
0100
0000
0010
0001
0010
0000
0100
1000
0001
0000
1000
0000
1000
0000
,
2200
0000
0000
3300
0022
0000
0000
0033
,
1001
1001
0000
0000
1001
1001
0000
0000
,
0001
0010
0100
1000
0001
0100
0001
0100
0010
1000
0001
1000
0010
0100
0001
0010
,
0100
1000
0100
0010
0001
1000
0010
1000
0100
0010
0001
1000
0001
0010
0100
1000
,
0010
0100
0001
1000
0001
0010
0001
0010
0100
1000
0001
0100
0010
1000
0001
1000
,
0100
0010
0100
1000
0001
1000
0010
0100
0001
0010
0100
1000
0010
0100
0001
1000
,
0001
0010
0100
1000
0010
0100
0010
0100
0001
1000
0010
1000
0001
0100
0010
1000
,
0100
0010
0001
1000
0010
1000
0001
0100
0001
0010
0100
0010
0001
1000
0100
0010
,
0001
0100
0001
1000
0010
1000
0100
1000
0001
0010
0001
0100
0010
1000
0001
1000
,
0100
0010
0001
1000
0001
0010
0100
1000
0010
1000
0001
1000
0010
0100
0001
0010
,
0100
1000
0001
1000
0100
0010
0001
1000
0010
1000
0001
0100
0010
1000
0001
1000
,
0100
0010
0001
0100
0001
1000
0010
1000
0100
0010
0001
1000
0001
0100
0010
1000
,
0001
1000
0100
0010
0001
1000
0001
0010
0100
1000
0001
0100
0001
1000
0010
0100
,
0001
0010
0100
1000
0001
1000
0100
1000
0010
0100
0001
1000
0001
0010
0100
1000
,
0010
0100
0001
0100
0010
1000
0001
1000
0100
0010
0100
1000
0001
0010
0100
1000
,
0001
0010
0001
0100
0001
1000
0010
1000
0100
1000
0001
0010
0001
1000
0010
0100
,
0001
1000
0100
0010
0001
0010
0100
1000
0001
0100
0001
1000
0001
0100
0010
1000
,
0100
1000
0010
1000
0001
0100
0001
0010
0100
1000
0001
0100
0010
1000
0010
1000
,
0001
0010
0100
1000
0001
1000
0100
0010
0001
0100
0010
1000
0001
1000
0010
0100
,
0001
0010
0100
1000
0001
0010
0001
0100
0010
1000
0100
1000
0010
0100
0001
0100
,
0010
1000
0001
1000
0100
0010
0001
0010
0100
1000
0001
0100
0001
1000
0010
1000
,
0100
0010
0001
0100
0001
0010
0100
1000
0010
1000
0001
0100
0001
1000
0100
0010
,
0001
0100
0010
1000
0001
0100
0001
1000
0100
0010
0100
1000
0010
1000
0001
0100
,
0001
1000
0100
1000
0100
0010
0001
0100
0001
1000
0010
1000
0001
0010
0100
1000
,
0010
0100
0001
0100
0010
0100
0001
1000
0001
0010
0001
1000
0010
1000
0001
1000
,
0100
0010
0100
1000
0100
0010
0001
0100
0001
1000
0010
1000
0100
0010
0001
1000
,
0001
0100
0001
0100
0010
1000
0001
0100
0001
0010
0100
1000
0100
0010
0001
1000
,
0001
0100
0010
0100
0001
1000
0010
1000
0100
0010
0100
1000
0001
0100
0001
1000
,
0001
0010
0100
1000
0010
1000
0100
0010
0001
1000
0001
0100
0010
0100
0001
1000
,
0001
0010
0100
0010
0001
0100
0010
1000
0001
1000
0100
0010
0001
0100
0010
1000
,
0100
0010
0100
1000
0001
0100
0010
1000
0100
0010
0100
1000
0001
0100
0010
1000
,
0100
0010
0100
1000
0100
0010
0001
1000
0001
0100
0010
1000
0001
1000
0100
0010
,
0001
0100
0010
1000
0100
1000
0010
0100
0010
1000
0001
1000
0100
0010
0100
1000
,
0001
1000
0010
0100
0001
0010
0001
1000
0010
0100
0001
1000
0001
0010
0100
1000
,
0010
1000
0010
0100
0001
1000
0100
0010
0001
0010
0001
1000
0010
0100
0001
0010
,
0100
0010
0001
0010
0100
1000
0001
1000
0010
0100
0010
1000
0001
1000
0100
0010
,
0001
0100
0001
1000
0010
1000
0001
0100
0001
0010
0100
1000
0001
1000
0100
0010
,
0001
1000
0001
0100
0010
1000
0100
1000
0001
0010
0100
1000
0010
0100
0001
1000
,
0100
0010
0100
0010
0001
1000
0001
0100
0010
1000
0010
1000
0001
0100
0001
0010
,
0100
1000
0100
0010
0100
1000
0001
0010
0001
1000
0010
0100
0001
0100
0010
1000
,
0100
0010
0001
1000
0001
0010
0100
1000
0010
1000
0001
0100
0001
1000
0010
1000
,
0001
0010
0100
1000
0010
1000
0001
0100
0001
0010
0100
1000
0100
0010
0001
1000
,
0001
0100
0010
1000
0001
0010
0001
0010
0100
1000
0001
1000
0100
0010
0001
0100
,
0010
1000
0010
0100
0001
1000
0100
1000
0010
0100
0001
1000
0001
0100
0010
1000
,
0100
0010
0001
1000
0001
0100
0001
0100
0010
1000
0001
0010
0100
1000
0001
1000
,
0010
0100
0010
1000
0001
1000
0100
0010
0001
0100
0010
1000
0100
0010
0001
1000
,
0001
0100
0010
1000
0100
0010
0100
0010
0001
1000
0100
1000
0001
0010
0100
1000
,
0010
0100
0001
1000
0100
1000
0001
0010
0001
0100
0010
0100
0001
1000
0010
0100
,
0001
0010
0001
1000
0100
1000
0010
1000
0001
0100
0001
0010
0100
1000
0001
1000
,
0010
0100
0001
1000
0100
0010
0001
0100
0010
1000
0010
0100
0001
0010
0100
1000
,
0010
1000
0001
0100
0010
0100
0001
1000
0100
1000
0001
0010
0100
1000
0001
1000
,
0010
0100
0001
0010
0001
1000
0100
1000
0010
0100
0001
1000
0001
0010
0100
1000
,
0001
1000
0010
0100
0001
1000
0001
0100
0010
1000
0001
0010
0001
1000
0100
0010
,
0001
0100
0010
1000
0001
1000
0010
1000
0100
0010
0001
1000
0001
0100
0010
1000
,
0100
0010
0001
0010
0100
1000
0001
1000
0010
0100
0010
1000
0001
0100
0010
1000
,
0001
0100
0001
1000
0100
0010
0100
1000
0010
1000
0001
0100
0001
1000
0100
0010
,
0001
1000
0010
0100
0001
1000
0100
0010
0001
0010
0001
1000
0010
0100
0010
1000
,
0100
0010
0001
0100
0010
1000
0001
1000
0010
0100
0001
0010
0100
1000
0100
1000
,
0001
0100
0010
1000
0001
1000
0010
0100
0001
0010
0100
1000
0001
1000
0100
0010
,
0001
0100
0010
1000
0001
0100
0001
0010
0100
1000
0010
1000
0100
0010
0001
0010
,
0100
1000
0001
1000
0010
0100
0001
0100
0010
1000
0001
0010
0001
1000
0100
1000
,
0010
0100
0001
0010
0001
0100
0010
1000
0100
1000
0001
0010
0001
1000
0010
0100
,
0001
0010
0100
1000
0001
0010
0001
1000
0010
0100
0010
1000
0100
1000
0001
0010
,
0001
1000
0010
1000
0010
0100
0001
0010
0001
1000
0100
1000
0001
0100
0010
1000
,
0100
0010
0001
0010
0100
0010
0001
1000
0001
0100
0001
1000
0100
1000
0001
1000
,
0010
0100
0010
1000
0010
0100
0001
0010
0001
1000
0100
1000
0010
0100
0001
1000
,
0001
0010
0001
0010
0100
1000
0001
0010
0001
0100
0010
1000
0010
0100
0001
1000
,
0001
0010
0100
0010
0001
1000
0100
1000
0010
0100
0010
1000
0001
0010
0001
1000
,
0001
0100
0010
1000
0100
1000
0010
0100
0001
1000
0001
0010
0100
0010
0001
1000
,
0001
0100
0010
0100
0001
0010
0100
1000
0001
1000
0010
0100
0001
0100
0010
1000
,
0100
0010
0100
1000
0001
0100
0010
1000
0100
0010
0100
1000
0001
0100
0010
1000
,
0100
0010
0100
1000
0100
0010
0001
1000
0001
0100
0010
1000
0001
1000
0100
0010
,
0001
0010
0100
1000
0010
1000
0100
0010
0100
1000
0001
1000
0010
0100
0010
1000
,
0001
1000
0100
0010
0001
0100
0001
1000
0100
0010
0001
1000
0001
0100
0010
1000
,
0100
1000
0100
0010
0001
1000
0010
0100
0001
0100
0001
1000
0100
0010
0001
0100
,
0010
0100
0001
0100
0010
1000
0001
1000
0100
0010
0100
1000
0001
1000
0010
0100
,
0001
0010
0001
1000
0100
1000
0001
0010
0001
0100
0010
1000
0001
1000
0010
0100
,
0001
1000
0001
0010
0100
1000
0010
1000
0001
0100
0010
1000
0100
0010
0001
1000
,
0010
0100
0010
0100
0001
1000
0001
0010
0100
1000
0100
1000
0001
0010
0001
0100
,
0010
1000
0010
0100
0010
1000
0001
0100
0001
1000
0100
0010
0001
0010
0100
1000
,
0010
0100
0001
1000
0001
0100
0010
1000
0100
1000
0001
0010
0001
1000
0100
1000
,
0001
0100
0010
1000
0100
1000
0001
0010
0001
0100
0010
1000
0001
0010
0100
1000
,
0001
0000
0010
0100
0010
0000
0001
0000
1000
0010
1000
0000
0001
0000
0100
0010
,
0100
0000
0001
0000
1000
0100
1000
0000
0001
0010
0100
0000
1000
0001
1000
0000
,
1010
0000
0010
0100
0010
0000
1000
0000
0001
0010
0001
0000
1000
0000
0010
0100
,
0010
0000
1000
0000
0001
0100
0001
0000
1000
0100
0010
0000
0001
1000
0001
0000
,
0011
0000
0000
0000
0010
0100
0010
0001
1000
0010
1000
0001
0010
0100
0010
0001
,
1000
0001
0100
0001
1000
0100
0010
0100
1000
0001
0100
0001
1000
0000
1000
0000
,
2020
0000
3030
0000
0010
1000
0010
1000
0002
0000
0000
0000
0103
0001
0100
0001
,
1000
1001
0000
0000
1001
1001
0000
0000
,
0001
1000
0001
0010
0100
1000
0010
0100
0001
0010
0100
1000
0010
0100
0001
1000
,
0010
1000
0001
1000
0100
0010
0001
1000
0010
1000
0001
0100
0001
0010
0100
1000
,
0001
1000
0010
0100
0010
1000
0100
1000
0001
0010
0100
1000
0010
1000
0001
0100
,
0001
1000
0010
1000
0001
0010
0100
1000
0001
0010
0001
1000
0010
0100
0010
1000
,
0001
0010
0100
1000
0001
0100
0010
1000
0001
0010
0100
1000
0001
0100
0010
1000
,
0100
1000
0010
0100
0001
0010
0100
1000
0001
1000
0010
0100
0001
0010
0001
0100
,
0010
1000
0001
0010
0100
1000
0010
1000
0001
0010
0100
1000
0010
1000
0001
0100
,
0001
0010
0001
1000
0100
1000
0010
1000
0001
0100
0001
0010
0100
1000
0010
1000
,
0001
0100
0001
0100
0010
1000
0001
0010
0100
1000
0100
1000
0001
0100
0010
1000
,
0100
1000
0100
0010
0001
1000
0010
0100
0001
0010
0100
1000
0001
0100
0001
0100
,
0010
1000
0001
1000
0100
0010
0100
1000
0001
0100
0001
1000
0100
0010
0001
0010
,
0100
1000
0010
1000
0001
0010
0100
1000
0001
0100
0001
0010
0001
0100
0010
1000
,
0001
0010
0100
1000
0010
0100
0010
1000
0001
0010
0100
1000
0010
0100
0010
1000
,
0001
0100
0010
1000
0100
0010
0100
1000
0001
1000
0010
1000
0001
0010
0100
1000
,
0001
0100
0001
0100
0010
1000
0100
0010
0001
1000
0010
0100
0010
1000
0001
0010
,
0100
1000
0100
1000
0001
0010
0001
0100
0010
1000
0001
1000
0100
0010
0100
1000
,
0010
0100
0001
0100
0010
1000
0001
1000
0100
0010
0001
1000
0100
1000
0100
0010
,
0001
1000
0010
1000
0001
0100
0010
0100
0001
1000
0001
0010
0100
1000
0100
0010
,
0001
1000
0100
1000
0010
0100
0001
1000
0001
0100
0010
1000
0001
0010
0100
1000
,
0001
0010
0001
0100
0010
1000
0001
0010
0001
0010
0100
1000
0010
0100
0001
1000
,
0001
0010
0100
1000
0001
0010
0001
1000
0010
0100
0001
0100
0010
1000
0001
1000
,
0100
0010
0001
0010
0100
1000
0001
1000
0010
0100
0010
0100
0001
1000
0001
1000
,
0100
0010
0100
1000
0001
1000
0010
1000
0001
0100
0010
1000
0001
0100
0001
1000
,
0100
0010
0100
1000
0010
0100
0001
1000
0001
1000
0010
0100
0001
0010
0100
1000
,
0001
0100
0010
1000
0001
1000
0010
0100
0001
0010
0001
1000
0100
0010
0001
1000
,
0001
0100
0010
1000
0100
0010
0100
1000
0001
1000
0010
0100
0001
0010
0100
0010
,
0001
1000
0001
1000
0010
0100
0001
0100
0010
1000
0001
1000
0100
0010
0100
1000
,
0001
1000
0010
0100
0001
1000
0001
0010
0100
0010
0001
0010
0100
1000
0001
1000
,
0010
0100
0010
1000
0001
0100
0001
1000
0010
0100
0010
1000
0100
1000
0010
0100
,
0010
1000
0001
0010
0100
1000
0001
0010
0001
0100
0010
1000
0001
0010
0100
1000
,
0001
0010
0001
0100
0001
1000
0010
1000
0100
1000
0010
0100
0001
1000
0001
0010
,
0100
1000
0100
1000
0001
0100
0010
0100
0001
1000
0010
1000
0001
0100
0001
1000
,
0100
1000
0001
0010
0001
0100
0010
0100
0010
1000
0001
1000
0100
0010
0001
1000
,
0001
0100
0010
0100
0001
1000
0010
1000
0001
0010
0001
1000
0100
0010
0100
1000
,
0001
1000
0000
0010
1000
1010
0000
1001
,
0000
0011
0000
1100
0000
0100
1000
0001
,
1000
0100
1000
0100
0010
0001
1000
0010
0100
0001
1000
0010
1000
0010
0100
0001
,
1000
0100
0010
0001
0100
0010
0100
0001
1000
0001
0010
0100
1000
0010
1000
0001
,
0010
0001
1000
0001
0010
0100
1000
0001
0100
0001
1000
0010
0100
0001
1000
0001
,
0010
0100
1000
0010
1000
0001
0100
0001
0010
0100
1000
0001
1000
0010
0100
0001
,
1000
0001
0010
0100
1000
0001
1000
0100
0010
0001
1000
0010
1000
0001
0100
0010
,
1000
0100
0010
0001
1000
0001
0010
0001
0100
0010
1000
0001
1000
0100
0010
0001
,
0100
0010
1000
0010
0100
0001
1000
0001
0010
0100
0010
0001
1000
0100
0010
0001
,
1000
0100
1000
0010
1000
0001
0100
0001
0010
0001
1000
0100
1000
0001
0100
0010
,
1000
0001
0010
0100
1000
0100
0010
0001
1000
0010
1000
0001
1000
0010
0100
0001
,
0010
0001
0100
0001
1000
0010
1000
0100
0010
0001
1000
0010
0100
0001
0100
0001
,
1000
0100
0010
0001
1000
0001
0010
0100
1000
0010
0100
0001
1000
0001
0100
0010
,
1000
0100
0010
0001
1000
0100
1000
0010
0100
0001
0010
0001
0100
0010
1000
0010
,
0100
0001
1000
0001
0010
0100
1000
0100
0010
0001
1000
0010
1000
0001
0100
0001
,
0010
0100
1000
0010
1000
0100
0010
0001
0100
0001
1000
0010
1000
0001
0010
0100
,
1000
0010
0100
0001
1000
0010
1000
0001
0010
0100
0010
0001
0100
0001
1000
0010
,
1000
0001
0010
0001
0010
0100
1000
0010
1000
0001
0100
0001
1000
0100
0010
0001
,
0100
0010
1000
0100
0010
0100
1000
0001
1000
0010
0100
0001
1000
0100
0010
0100
,
1000
0001
0100
0001
0010
0001
1000
0100
1000
0010
1000
0001
0010
0100
0010
0001
,
1000
0010
1000
0010
0100
0001
1000
0010
1000
0100
0010
0001
0010
0100
1000
0001
,
1000
0010
0100
0010
1000
0001
0100
0001
0010
0100
0010
0001
1000
0010
1000
0001
,
1000
0100
0010
0001
0100
0001
0010
0100
1000
0001
1000
0010
0100
0010
1000
0001
,
1000
0100
0010
0100
1000
0010
0100
0001
1000
0001
0100
0010
1000
0100
0010
0001
,
0100
0010
0100
0001
1000
0100
0010
0001
0100
0010
0100
0001
1000
0100
0010
0001
,
0100
0010
0100
0001
0100
0010
1000
0001
1000
0100
0010
0001
1000
0001
0010
0100
,
1000
0010
0100
0001
0010
0001
0100
0010
0100
0001
1000
0001
0010
0100
0010
0001
,
1000
0001
0100
0010
1000
0100
1000
0001
0100
0010
1000
0001
1000
0100
0010
0001
,
0100
0001
0100
0010
1000
0001
0010
0100
1000
0100
1000
0001
0100
0010
1000
0100
,
0010
0100
1000
0100
0010
0001
1000
0001
0100
0010
0100
0001
1000
0001
0010
0100
,
1000
0010
1000
0001
0100
0001
1000
0010
1000
0100
0010
0001
1000
0001
0010
0100
,
1000
0001
1000
0010
0100
0001
0010
0001
1000
0100
0010
0001
0100
0010
1000
0001
,
0010
0100
0010
0100
1000
0001
1000
0010
0100
0001
0100
0001
1000
0010
1000
0100
,
0010
0001
0010
0100
0010
0001
1000
0100
1000
0001
0100
0010
1000
0010
0100
0001
,
0010
0100
1000
0001
1000
0100
0010
0001
0100
0001
1000
0010
1000
0001
0100
0001
,
1000
0100
0010
0001
0100
0001
1000
0010
1000
0100
0010
0001
0010
0100
1000
0001
,
1000
0010
0100
0001
1000
0100
1000
0100
0010
0001
1000
0001
0010
0100
1000
0010
,
0100
0001
0100
0010
1000
0001
0010
0001
0100
0010
1000
0001
1000
0010
0100
0001
,
0010
0100
1000
0001
1000
0010
1000
0010
0100
0001
1000
0100
0010
0001
1000
0001
,
0100
0010
0100
0001
1000
0001
0010
0100
1000
0010
0100
0001
0010
0100
1000
0001
,
1000
0010
0100
0001
0010
0100
0010
0100
1000
0001
0010
0001
1000
0100
0010
0001
,
0100
0010
1000
0001
0010
0001
1000
0100
1000
0010
0100
0010
1000
0001
0100
0010
,
1000
0100
1000
0001
0010
0001
0100
0001
1000
0010
1000
0100
0010
0001
1000
0001
,
0100
0010
1000
0001
0010
0100
1000
0010
0100
0001
0100
0010
1000
0100
0010
0001
,
2000
0002
0000
0000
0000
0000
3000
0003
;
