#TITLE:Wake Up;
#SUBTITLE:;
#ARTIST:Kid Whatever;
#TITLETRANSLIT:;
#SUBTITLETRANSLIT:;
#ARTISTTRANSLIT:;
#CREDIT:;
#BANNER:Wake Up-Banner.png;
#BACKGROUND:Wake Up-BG.png;
#LYRICSPATH:;
#CDTITLE:;
#MUSIC:Wake Up.ogg;
#OFFSET:-0.009;
#SAMPLESTART:45.100;
#SAMPLELENGTH:11.960;
#SELECTABLE:YES;
#BPMS:0.000=135.036;
#STOPS:;
#BGCHANGES:-10000.000=songbackground=1.000=0=0=1,
39.000=Wake Up-BG.png=1.000=0=0=1,
40.000=In The Groove 2/751_JumpBack.mpg=1.000=0=0=1,
55.000=Wake Up-BG.png=1.000=0=0=1,
56.000=In The Groove 2/751_JumpBack.mpg=1.000=0=0=1,
70.500=In The Groove 2/751_JumpBack.mpg=1.000=0=0=1,
72.000=In The Groove 2/920_JumpBack.mpg=1.000=0=0=1,
88.000=In The Groove 2/913_JumpBack.mpg=1.000=0=0=1,
104.000=In The Groove 2/931_JumpBack.mpg=1.000=0=0=1,
168.000=In The Groove 2/751_JumpBack.mpg=1.000=0=0=1,
200.000=In The Groove 2/952_JumpBack.mpg=1.000=0=0=1,
215.000=Wake Up-BG.png=1.000=0=0=1,
216.000=In The Groove 2/972_JumpBack.mpg=1.000=0=0=1,
230.500=In The Groove 2/972_JumpBack.mpg=1.000=0=0=1,
231.500=In The Groove 2/972_JumpBack.mpg=1.000=0=0=1,
99999=-nosongbg-=1.000=0=0=0 // don't automatically add -songbackground-
;
// cache tags:
#FIRSTBEAT:8.000;
#LASTBEAT:232.000;
#SONGFILENAME:Songs/In The Groove 2 (Official)/Wake Up/Wake Up.sm;
#HASMUSIC:0;
#HASBANNER:1;
#MUSICLENGTH:100.000;
// end cache tags

//---------------dance-single - C. Foy----------------
#NOTES:
     dance-single:
     C. Foy:
     Easy:
     4:
     0.344,0.375,0.100,0.290,0.000,202.000,10.000,29.000,0.000,0.000:








0000
0000
0000
0000
,
0000
0000
0000
0000
,
0000
0000
0000
0000
,
1000
0100
1000
0001
,
1000
0010
1000
0001
,
1000
0001
0100
0001
,
0010
0001
1000
0001
,
0100
0010
1000
0010
,
0100
0010
1000
0010
,
2002
0000
3003
0110
,
0100
0000
0001
0000
,
0100
0000
1000
0000
,
0100
0000
0001
0000
,
0220
0000
0330
1001
,
0001
0000
0000
0000
1000
0100
0000
0000
,
1000
0001
0000
0000
0010
0001
0000
0000
,
0100
0010
0000
0000
1000
0100
0000
0000
,
0000
0000
1001
0110
,
0010
0000
0000
0010
0100
0000
0000
0010
,
1000
0000
0000
0010
0100
0000
0100
0000
,
0010
0000
0000
1000
0100
0000
0100
0000
,
1000
0000
0001
0100
,
0010
0000
0000
0010
0100
0000
0000
0001
,
1000
0000
0000
1000
0100
0000
0100
0000
,
0100
0000
0000
0010
0100
0000
1001
0000
,
0110
0000
2000
3001
,
0000
1000
0000
0001
0000
1000
0000
0010
,
0000
1000
0000
0100
0000
1000
0000
0001
,
0000
1000
0000
0010
0000
1000
0000
0000
,
2000
3002
0203
0320
,
0030
0100
0000
0001
0000
0100
0000
0010
,
0000
0100
0000
0001
0000
0100
0000
0001
,
0000
1000
0000
0010
0000
1000
0000
0000
,
0002
0023
0230
2300
,
3001
0000
0100
0000
,
1000
0000
0100
0000
,
0001
0000
0010
0000
,
0200
0320
0032
0203
,
0301
1000
0001
1000
,
0001
0010
0001
1000
,
0001
0100
0001
0010
,
0002
0023
0230
2300
,
3100
0100
1000
1000
,
0100
0100
0010
0010
,
0001
0001
1000
1000
,
0020
0230
0302
2003
,
3001
1000
0001
0010
,
0001
1000
0001
0100
,
0001
0010
0001
1000
,
2000
3200
0320
0032
,
1003
0001
1000
0001
,
0100
0010
0100
0010
,
1000
0100
1000
0100
1000
0000
0000
0000
,
0001
0010
0001
0010
0001
0000
0000
0000
,
1000
0001
1000
0001
1000
0000
0000
0000
,
0010
0100
0010
0100
0010
0000
0000
0000
,
1000
0100
1000
0100
1000
0000
0000
0000
,
1000
0001
1001
0110
;

//---------------dance-single - C. Emirzian----------------
#NOTES:
     dance-single:
     C. Emirzian:
     Medium:
     6:
     0.461,0.435,0.750,0.000,0.000,248.000,75.000,0.000,0.000,0.000:








0000
0000
0000
0000
,
0000
0000
0000
0000
,
0000
0000
0000
0000
,
1000
0100
0010
0001
,
1000
0100
1000
0000
0001
0100
0001
0000
,
0010
1000
0100
0001
,
1000
0010
1000
0000
0001
0010
0001
0000
,
0100
0010
1000
0001
,
1000
0100
0010
0000
0001
0100
0010
0000
,
1100
0011
1100
0011
,
1000
0000
1010
0000
0001
0100
0000
0001
,
0010
0000
1100
0000
1000
0010
0000
1000
,
0100
0011
1000
0001
,
0110
1001
0110
1001
,
0010
0000
0101
0000
0010
0100
0000
1000
,
0001
0000
0110
0000
1000
0010
0000
0100
,
0001
0011
1000
0001
,
1010
0101
1010
0101
,
1001
0000
0000
1000
0100
0000
0000
0001
,
0100
0000
0000
0010
1000
0000
0011
0000
,
0101
0000
0000
0100
0010
0000
1001
0000
,
0011
1000
1010
1010
,
0101
0000
0000
0001
0100
0000
0000
1000
,
0100
0000
0000
0010
0001
0000
1010
0000
,
1001
0000
0000
0100
0010
0000
1001
0000
,
0110
0000
1100
1100
,
0000
1000
0000
0100
0000
0001
0000
0010
,
0000
1001
0000
1010
0000
0101
0000
0011
,
0000
0001
0000
1000
0000
0100
0000
0010
,
0001
1010
1100
1010
,
0000
0001
0000
0010
0000
1000
0000
0100
,
0000
1001
0000
0101
0000
1010
0000
1100
,
0000
1000
0000
0001
0000
0010
0000
0100
,
1000
0101
0011
0101
,
1000
0100
1000
0000
0010
1000
0010
0000
,
1000
0100
0010
0001
,
0001
0100
0001
0000
0010
0001
0010
0000
,
1001
1100
1001
0101
,
0001
0010
0001
0000
0100
0001
0100
0000
,
0001
0010
0100
1000
,
1000
0010
1000
0000
0100
1000
0100
0000
,
1001
0011
1001
1010
,
0010
1100
0010
0101
,
0100
1010
0100
0011
,
1000
0100
0001
0010
,
1001
0110
1001
0110
,
0100
0011
0100
1010
,
0010
0101
0010
1100
,
0001
0010
1000
0100
,
1001
0110
1001
0110
,
1000
0100
0000
0001
0100
0000
0010
0100
,
0000
1000
0010
0000
0100
0001
0000
1000
,
0010
0000
0100
0001
0000
1000
0100
0000
,
0010
0001
0010
0000
1001
0000
1010
0000
,
0001
0010
0000
1000
0010
0000
0100
0010
,
0000
0001
0100
0000
0010
1000
0000
0001
,
0100
0000
0010
1000
0000
0001
0010
0000
,
0100
1000
0100
0000
1001
0000
0101
0000
,
1100
0000
0000
0000
;

//---------------dance-single - R. McKanna----------------
#NOTES:
     dance-single:
     R. McKanna:
     Hard:
     8:
     0.629,0.551,0.100,0.350,0.365,395.000,10.000,35.000,20.000,0.000:








0000
0000
0000
0000
,
0000
0000
0000
0000
,
0001
1000
0100
0010
0001
1000
0100
0010
,
0001
0000
1000
0000
0100
0000
0010
0000
0001
0000
1000
0000
0100
0000
0010
0100
,
1000
0001
0100
0010
1000
0001
0100
0010
,
1000
0000
0001
0000
0100
0000
0010
0000
1000
0000
0001
0000
0100
0000
0010
0100
,
0001
0010
0100
1000
0001
0010
0100
1000
,
0001
0000
0010
0000
0100
0000
1000
0000
0001
0000
0010
0000
0100
0000
1000
0100
,
0010
0001
0100
0010
1000
0100
0010
0001
,
0200
0010
0301
1001
,
1000
0000
0010
0100
0000
0000
0010
0100
0000
0000
0001
0000
0010
0000
0100
0000
,
1000
0000
0100
0010
0000
0000
0100
0010
0000
0000
0001
0000
0010
0000
0100
0000
,
1000
0000
0010
0100
0000
0000
0010
0100
0000
0000
0001
0000
0010
0000
0100
0000
,
2000
0010
3100
0101
,
0001
0000
1000
0010
0000
0000
1000
0010
0000
0000
1000
0000
0010
0000
0100
0000
,
0001
0000
0010
0100
0000
0000
0010
0100
0000
0000
1000
0000
0010
0000
0100
0000
,
0001
0000
0100
0001
0000
0000
0100
0001
0000
0000
1000
0000
0010
0000
0100
0000
,
0001
0110
0002
2003
,
3001
0000
0010
0001
0100
0000
0100
0001
,
0010
0000
0010
0001
0101
0000
0101
0000
,
0110
0000
0100
0001
0010
0000
0010
0100
,
1000
0100
1000
0000
0100
0000
0010
0100
0020
0000
0000
0000
0032
0000
0000
0000
,
0103
0000
0010
1000
0100
0000
0100
1000
,
0010
0000
0010
1000
1100
0000
1100
0000
,
0110
0000
0100
1000
0010
0000
0010
1000
,
0100
1000
0001
1000
0020
0000
2030
0000
,
3000
0000
0001
0100
0000
0000
0001
0100
0000
0000
0010
0100
0000
0000
0010
0100
,
0000
0000
1000
0100
0000
0000
1000
0100
0000
0000
0010
0100
0010
0100
0010
0100
,
0000
0000
0001
0100
0000
0000
0010
0100
0000
0000
1000
0100
0000
0000
0010
0100
,
0002
0023
0230
2300
,
3000
0000
1000
0010
0000
0000
1000
0010
0000
0000
0100
0010
0000
0000
0100
0010
,
0000
0000
0001
0010
0000
0000
0001
0010
0000
0000
0100
0010
0100
0010
0100
0010
,
0000
0000
1000
0010
0000
0000
0100
0010
0000
0000
1000
0001
1000
0001
1000
0001
,
2000
3200
0320
0032
,
1003
0100
0MM0
0010
0001
1000
MM00
0100
,
0010
0001
M00M
1000
0100
0010
00MM
0001
,
1000
0100
0MM0
0010
0001
1000
0000
1000
,
0002
0023
0230
2300
,
3001
0010
0MM0
0100
1000
0001
00MM
0010
,
0100
1000
M00M
0001
0010
0100
MM00
1000
,
0001
0010
0MM0
0100
1000
0001
0000
0001
,
2000
3200
0320
0032
,
0003
0000
1000
0100
0000
0000
1000
0100
0000
0000
0010
0001
0000
0000
0010
0001
,
0000
0000
0100
0010
0000
0000
0100
0010
0000
0000
1000
0001
1000
0001
1000
0001
,
0000
0000
0001
0010
0000
0000
0001
0010
0000
0000
0100
1000
0000
0000
0100
1000
,
0200
2300
3002
0023
,
0030
0000
0001
1000
0000
0000
0001
1000
0000
0000
0010
1000
0000
0000
0010
1000
,
0000
0000
0100
0010
0000
0000
0100
0010
0000
0000
0001
1000
0001
1000
0001
1000
,
0000
0000
1000
0010
0000
0000
1000
0010
0000
0000
0100
0001
0100
0001
0100
0001
,
0200
0000
0000
0000
0302
0000
0000
0003
2000
0000
0000
0000
3020
0000
0000
0000
,
1030
0001
0010
0100
1000
0001
0010
0100
,
1000
0000
0001
0000
0010
0000
0100
0000
1000
0000
0001
0000
0010
0000
0100
0010
,
0001
1000
0010
0100
0001
1000
0010
0100
,
0002
0010
0103
1010
,
1000
0100
0010
0001
1000
0100
0010
0001
,
1000
0000
0100
0000
0010
0000
0001
0000
1000
0000
0100
0000
0010
0000
0001
0010
,
0100
1000
0010
0100
0001
0010
0100
1000
,
0010
0100
0001
0100
0020
0000
2030
0000
,
3000
0000
0000
0000
;

//---------------dance-single - C. Foy----------------
#NOTES:
     dance-single:
     C. Foy:
     Challenge:
     9:
     0.696,0.725,0.210,0.400,0.435,426.000,21.000,40.000,27.000,0.000:








0000
0000
0000
0000
,
0000
0000
0000
0000
,
1000
0100
0010
0100
1000
0100
0010
1000
,
0010
0000
0100
0000
1000
0000
0100
0000
0010
0000
1000
0000
0010
0000
0100
0010
,
0100
1000
0010
0100
1000
0100
0010
1000
,
0100
0000
0010
0000
0100
0000
1000
0000
0010
0000
0100
0000
1000
0000
0100
0001
,
0010
0100
0001
0100
1000
0010
0100
0010
,
0001
0000
0010
0000
0100
0000
0001
0000
0010
0000
1000
0000
0010
0000
0100
0010
,
0001
0100
0010
0001
0010
0100
0001
0010
,
0020
0000
0000
0000
0001
0000
0000
0000
0100
0000
0001
0000
0031
0000
0001
1000
,
0100
0000
0100
0001
0000
0000
0100
1000
0000
0000
0010
0000
0001
0000
0010
0000
,
1000
0000
0100
0001
0000
0000
0100
1000
0000
0000
0010
0000
0001
0000
0010
0000
,
1000
0000
0010
0001
0000
0000
0010
1000
0000
0000
0100
0000
0010
0000
0001
0000
,
0200
0000
0000
0000
0010
0000
0000
0000
1000
0000
0010
0000
0310
0000
0100
0001
,
1000
0000
0100
0001
0000
0000
0100
1000
0000
0000
0010
0000
0001
0000
0010
0000
,
1000
0000
0100
0001
0000
0000
0100
1000
0000
0000
0010
0000
0100
0000
1000
0000
,
0100
0000
0010
1000
0000
0000
1000
0100
0000
0000
0001
0000
0100
0000
1000
0000
,
0010
0000
0000
0000
1001
0000
0000
0000
0202
0000
0000
0303
2200
0000
0000
3300
,
0001
0000
1001
0100
0100
0000
1001
0010
,
0010
0000
0000
0000
1001
0000
0100
0000
0010
0000
0000
0000
0101
0000
0000
0010
,
0100
0000
0110
0001
0001
0000
0110
1000
,
1000
0001
0100
0000
0100
0000
0001
0100
0020
0000
0000
0000
0032
0000
0000
0013
,
0100
0000
0010
1000
0100
0000
0100
0001
,
0100
0000
0000
0000
0010
0000
0001
0000
0101
0000
0000
0000
1001
0000
0000
1000
,
0010
0000
0100
1000
0100
0000
0001
0010
,
0100
0000
0000
0000
0000
1000
0100
0000
0000
1000
0000
0000
0000
0000
1000
0100
0000
0010
0001
0000
1000
0100
0000
0000
,
0010
0000
0001
0100
0000
0000
0100
1000
0000
0000
1000
0100
0000
0000
0100
0001
,
0000
0000
0001
0010
0000
0000
0010
1000
0000
0000
0010
0100
0010
0001
1000
0010
,
0000
0000
0010
0001
0000
0000
0001
0010
0000
0000
0010
1000
0000
0000
1000
0100
,
0002
0203
0320
0032
,
0003
0000
0100
0010
0000
0000
0010
0001
0000
0000
0001
0010
0000
0000
0010
1000
,
0000
0000
1000
0100
0000
0000
0100
0001
0000
0000
0001
0100
0010
0100
1000
0001
,
0000
0000
0001
0100
0000
0000
0100
1000
0000
0000
1000
0100
0010
0100
0001
1000
,
0200
0320
2030
3020
,
0031
0100
M0MM
0010
0001
0010
MM0M
1000
,
0100
0001
MMM0
0100
0010
0001
MMM0
1000
,
0010
0001
MM10
1000
0100
0001
0100
0010
,
0022
0000
0000
0033
2002
0000
0000
3003
2200
0000
0000
3300
2002
0000
0000
3003
,
1000
0100
M0MM
0010
1000
0010
MM0M
0001
,
0100
1000
01MM
0001
0010
1000
1MMM
0010
,
0001
0100
M01M
0001
0010
0100
0001
0010
,
0100
0000
0000
0000
0000
1000
0010
0000
0000
0100
0000
0000
0000
0000
0001
0010
0000
0100
1000
0000
0001
0010
0000
0000
,
0010
0000
0001
0100
0000
0000
0100
1000
0000
0000
1000
0100
0000
0000
0100
0001
,
0000
0000
0001
0010
0000
0000
0010
1000
0000
0000
1000
0010
0100
0010
0001
0010
,
0000
0000
0010
0001
0000
0000
0001
0100
0000
0000
0100
1000
0000
0000
1000
0100
,
0020
0000
0000
0030
0202
0000
0000
0303
2002
0000
0000
3003
0022
0000
0000
0033
,
0000
0000
0001
0100
0000
0000
1000
0100
0000
0000
0001
0010
0000
0000
1000
0010
,
0000
0000
0001
0100
0000
0000
1000
0100
0000
0000
1000
0100
0010
0100
0001
0010
,
0000
0000
0010
1000
0000
0000
0010
1000
0000
0000
0010
1000
0010
0100
0010
0001
,
0200
2300
3200
0302
,
0013
0100
0001
0100
0010
0001
0100
0010
,
0001
0000
0010
0000
0100
0000
1000
0000
0100
0000
0010
0000
1000
0000
0100
0010
,
0100
1000
0010
1000
0100
0001
0100
1000
,
0002
0000
1000
0000
1000
0000
0100
0000
0100
0000
0103
0000
0011
0000
0000
1000
,
0001
0100
0010
0001
0010
0001
0010
0100
,
1000
0000
0100
0000
0001
0000
0010
0000
0001
0000
0100
0000
1000
0000
0100
0010
,
0100
0001
0010
0100
0001
0100
1000
0010
,
0100
0000
0001
0000
0010
0000
0100
0000
2020
0000
0000
3030
0202
0000
0000
0000
,
0303
0000
0000
0000
;

//---------------dance-single - K. Ward----------------
#NOTES:
     dance-single:
     K. Ward:
     Beginner:
     1:
     0.107,0.174,0.070,0.000,0.000,68.000,7.000,0.000,0.000,0.000:





0000
0000
0000
0000
,
0000
0000
0000
0000
,
0001
0000
0000
0000
,
1000
0000
0000
0000
,
0001
0000
0000
0000
,
1000
0000
0000
0000
,
0100
0000
0000
0000
,
1000
0000
0000
0000
,
0001
0000
0000
0000
,
1001
0000
0000
0000
,
1000
0000
0000
0000
,
1000
0000
0000
0000
,
0001
0000
0000
0000
,
1001
0000
0000
0000
,
1000
0000
0000
0000
,
0001
0000
0000
0000
,
1000
0000
0000
0000
,
1001
0000
1001
0000
,
0001
0000
0000
0000
,
0001
0000
1000
0000
,
0001
0000
0000
0000
,
0001
0000
1000
0000
,
1000
0000
0000
0000
,
0010
0000
0100
0000
,
0001
0000
1000
0000
,
0001
0000
1001
0000
,
1000
0000
0000
0000
,
1000
0000
0000
0000
,
0001
0000
0000
0000
,
0001
0000
0001
0000
,
1000
0000
0000
0000
,
1000
0000
0000
0000
,
0010
0000
0000
0000
,
0100
0000
0100
0000
,
0001
0000
0000
0000
,
1000
0000
0000
0000
,
0001
0000
0000
0000
,
1000
0000
0001
0000
,
0100
0000
0000
0000
,
0010
0000
0000
0000
,
1000
0000
0010
0000
,
0100
0000
0000
0000
,
0001
0000
0000
0000
,
0001
0000
0000
0000
,
1000
0000
0000
0000
,
1000
0000
0000
0000
,
0010
0000
0000
0000
,
0100
0000
0000
0000
,
0001
0000
0000
0000
,
1000
0000
0001
0000
,
1000
0000
0000
0000
,
1000
0000
0000
0000
,
0001
0000
0000
0000
,
1001
0000
0000
0000
,
1000
0000
0000
0000
,
0010
0000
0000
0000
,
0100
0000
0000
0000
,
0001
0000
0000
0000
,
1001
0000
0000
0000
;

//---------------dance-double - M. Emirzian----------------
#NOTES:
     dance-double:
     M. Emirzian:
     Easy:
     3:
     0.239,0.348,0.020,0.220,0.000,143.000,2.000,22.000,0.000,0.000:







00000000
00000000
00000000
00000000
,
00000000
00000000
00000000
00000000
,
00000000
00000000
00000000
00000000
,
00000000
00000000
00000000
00000000
,
10000000
00000000
10000000
00000000
,
10000000
00000000
10000000
00000000
,
10000000
00000000
10000000
00000000
,
10000000
00000000
10000000
00000000
,
10000000
00000000
10000000
00000000
,
20020000
00000000
00000000
30030000
,
00000000
00010000
00010000
00000000
,
00000000
00001000
00001000
00000000
,
00000000
00000001
00000001
00000000
,
00002002
00000000
00000000
00003003
,
00000000
00001000
00001000
00000000
,
00000000
00010000
00010000
00000000
,
00000000
10000000
10000000
00000000
,
01000000
00000000
00200000
00320000
,
10030000
00000000
00100000
00000000
,
01000000
00000000
00001000
00010000
,
00001000
00000000
00000100
00000000
,
00010000
00000000
00000010
00001000
,
00000010
00000000
00000100
00000000
,
00000001
00000000
00001000
00000100
,
00001000
00000000
00000001
00000000
,
00000100
00000000
00000020
00002030
,
00003000
00010000
00001000
00010000
,
00000000
01000000
00100000
01000000
,
00000000
00001000
00010000
00001000
,
00000000
00000010
00000100
00000010
,
00000000
00000001
00000100
00000001
,
00000000
00010000
00001000
00010000
,
00000000
00001000
01000000
00010000
,
20000000
32000000
03200000
00320000
,
00030000
00100000
01000000
00100000
,
00000000
00001000
00010000
00001000
,
00000000
00000100
00010000
00000100
,
00000000
00001000
00000010
00001000
,
00000000
00000100
00000001
00000100
,
00000000
00010000
00001000
00010000
,
00000000
01000000
00100000
01000000
,
00020000
02030000
03200000
20300000
,
31000000
00000000
00010000
00000000
,
10000000
00000000
00010000
01000000
,
00001000
00000000
01000000
00000000
,
00010000
00000000
00100000
00001000
,
00010000
00000000
00001000
00000000
,
01000000
00000000
00001000
00010000
,
00000010
00000000
00001000
00000000
,
00002000
00003200
00000320
00000032
,
00000103
00001000
00000100
00000000
,
00010000
00001000
00010000
00000000
,
01000000
00100000
01000000
00000000
,
00001000
00010000
00001000
00000000
,
00001000
01000000
00001000
00000000
,
00010000
00100000
00010000
00000000
,
00001000
00000100
00001000
00000000
,
00000001
00001000
00000002
00002003
,
00003000
00000000
00000000
00000000
;

//---------------dance-double - M. Emirzian----------------
#NOTES:
     dance-double:
     M. Emirzian:
     Medium:
     6:
     0.420,0.406,0.130,0.300,0.000,251.000,13.000,30.000,0.000,0.000:







00000000
00000000
00000000
00000000
,
00000000
00000000
00000000
00000000
,
00000000
00000000
00000000
00000000
,
00000000
00000000
00000000
00000000
,
10000000
00100000
10000000
00000000
00010000
01000000
00010000
00000000
,
00001000
00010000
00001000
00000000
00000010
00001000
00000010
00000000
,
00000001
00000100
00000001
00000000
00001000
00000100
00001000
00000000
,
00010000
00001000
00010000
00000000
00100000
00010000
00100000
00000000
,
01000000
10000000
01000000
00000000
10000000
00010000
10000000
00000000
,
02200000
00000000
00000000
03300000
,
00010000
10000000
00010000
00000000
00100000
00010000
00100000
00000000
,
00001000
00010000
00001000
00000000
00000100
00001000
00000100
00000000
,
00000010
00000001
00000010
00000000
00000100
00001000
00000100
00000000
,
00000022
00000000
00000000
00000033
,
00000010
00001000
00000010
00000000
00000001
00000100
00000001
00000000
,
00001000
00000100
00001000
00000000
00010000
00001000
00010000
00000000
,
00100000
00010000
00100000
00000000
01000000
10000000
01000000
00000000
,
00100000
00000000
00110000
00011000
,
00000100
00000000
00000000
00000010
00000001
00000000
00000000
00001000
,
00000100
00000000
00000000
00010000
00001000
00000000
00011000
00000000
,
01001000
00000000
00000000
01000000
00100000
00000000
10000000
00000000
,
01000000
00000000
00000000
00100000
00010000
00000000
01010000
00000000
,
01001000
00000000
00000000
00010000
00001000
00000000
00000000
01000000
,
00001000
00000000
00000000
00010000
00000010
00000000
00001010
00000000
,
00000110
00000000
00000000
00000001
00000100
00000000
00000010
00000000
,
00001000
00000000
00000000
00000100
00001000
00000000
00001001
00000000
,
00000000
00000010
00000000
00001000
00000000
00000100
00000000
00010000
,
00000000
00001000
00000000
01000000
00000000
00010000
01000000
00010000
,
00000000
00100000
00000000
01000000
00000000
10000000
00000000
00010000
,
02000000
03200000
20300000
32000000
,
03000000
00100000
00000000
00010000
00000000
01000000
00000000
00001000
,
00000000
00010000
00000000
00000100
00000000
00001000
00000010
00001000
,
00000000
00000100
00000000
00000010
00000000
00000001
00000000
00001000
,
00000020
00000230
00000302
00000023
,
00000030
00000100
00000000
00001000
00000000
00000001
00000000
00000100
,
00000000
00001000
00000000
00010000
00000000
00100000
10000000
00100000
,
00000000
01000000
00000000
00010000
00000000
00100000
00000000
01000000
,
20000000
30200000
02300000
03020000
,
00030000
10000000
00000000
01000000
00000000
00010000
00000000
00001000
,
00000000
00000100
00000000
00001000
00000000
00010000
00001000
00010000
,
00000000
00010000
00000000
00001000
00000000
00000010
00000000
00000001
,
00002000
00003020
00000230
00000302
,
00000013
00000100
00001000
00000100
,
00000010
00000000
00000001
00000000
00000100
00000000
00001000
00010000
,
00001000
00010000
01000000
00100000
,
20000000
30200000
02300000
03020000
,
10030000
01000000
00100000
00010000
,
01000000
00000000
00001000
00000000
00010000
00000000
00000100
00001000
,
00000100
00000010
00001000
00000100
,
00000020
00000032
00000203
00000320
,
00001030
00000100
00001000
00000000
00000010
00000001
00000010
00000000
,
00000100
00001000
00000100
00000000
00010000
00001000
00010000
00000000
,
01000000
00010000
01000000
00000000
10000000
00100000
10000000
00000000
,
00010000
01000000
00010000
00000000
10000000
01000000
10000000
00000000
,
00100000
00010000
00100000
00000000
01000000
10000000
01000000
00000000
,
00100000
00010000
00100000
00000000
00001000
00010000
00001000
00000000
,
00000100
00001000
00000100
00000000
00000010
00000001
00000010
00000000
,
00001001
00000110
00000020
00000032
,
00000003
00000000
00000000
00000000
;

//---------------dance-double - M. Emirzian----------------
#NOTES:
     dance-double:
     M. Emirzian:
     Hard:
     8:
     0.579,0.549,0.330,0.340,0.310,338.000,33.000,34.000,0.000,11.000:







00000000
00000000
00000000
00000000
,
00000000
00000000
00000000
00000000
,
00000000
00000000
00000000
00000000
,
00000000
00000000
00000000
00000000
,
00010000
01000000
00100000
10000000
00010000
01000000
00100000
10000000
,
01000000
00100000
00010000
10000000
01000000
00100000
00010000
00100000
,
00001000
00010000
00000100
00001000
00000100
00000010
00000001
00001000
,
00000100
00000010
00000001
00001000
00000010
00000100
00000001
00001000
,
00000010
00000100
00000001
00000010
00000100
00001000
00000010
00000100
,
00002002
00000000
00000000
00000000
00000000
00000000
00000000
00000000
00000000
00000000
00000000
00000000
00000110
00003003
00000000
00000000
,
00000000
00000000
00000001
00000100
00000000
00000000
00000010
00001000
00000000
00000000
00000100
00000000
00001000
00000000
00000100
00000000
,
00010000
00000000
00001000
01000000
00000000
00000000
00010000
01000000
00000000
00000000
00100000
00000000
10000000
00000000
00100000
00000000
,
01000000
00000000
00010000
10000000
00000000
00000000
01000000
00100000
00000000
00000000
00010000
00000000
01000000
00000000
00001000
00000000
,
00010000
00000000
01000000
00100000
00000000
00000000
01000000
10000000
00000000
00000000
01000000
00000000
00010000
00000000
00001000
00000000
,
00010000
00000000
00000100
00001000
00000000
00000000
00000010
00000100
00000000
00000000
00000001
00000000
00000100
00000000
00000010
00000000
,
00001000
00000000
00000100
00000010
00000000
00000000
00000001
00001000
00000000
00000000
00000010
00000000
00000100
00000000
00000001
00000000
,
00001000
00000000
00000100
00010000
00000000
00000000
00001000
00010000
00000000
00000000
00001000
00000000
01000000
00000000
00010000
00000000
,
00100000
10010000
01010000
10100000
,
02200000
00000000
00010000
00000000
,
10000000
03300000
00000000
00000000
00000000
00000000
10000000
00000000
11000000
00000000
00000000
00000000
00110000
00000000
00000000
00000000
,
02002000
00000000
00010000
00000000
,
00100000
03003000
00000000
00000000
00000000
00000000
00010000
00000000
00010100
00000000
00000000
00000000
00001010
00000000
00000000
00000000
,
00002200
00000000
00000001
00000000
,
00000010
00003300
00000000
00000000
00000000
00000000
00000010
00000000
00000101
00000000
00000000
00000000
00001100
00000000
00000000
00000000
,
00020200
00000000
00001000
00000000
,
00000010
00030300
00000000
00000000
00000000
00000000
00000000
00000000
20020000
00000000
00000000
00000000
00100000
30030000
00000000
00000000
,
00000000
00000000
10000000
01000000
00000000
00000000
00100000
00010000
00000000
00000000
01000000
00100000
00000000
00000000
10000000
00010000
,
00000000
00000000
00100000
00001000
00000000
00000000
00010000
00000100
00000000
00000000
00001000
00000010
00001000
00000000
00000100
00000000
,
00000000
00000000
00000010
00000001
00000000
00000000
00001000
00000100
00000000
00000000
00000001
00000100
00000000
00000000
00001000
00000001
,
00000020
00000230
00000302
00000023
,
00000030
00000000
00000100
00001000
00000000
00000000
00010000
00001000
00000000
00000000
01000000
00001000
00000000
00000000
00010000
00100000
,
00000000
00000000
01000000
10000000
00000000
00000000
00010000
00100000
00000000
00000000
10000000
00100000
01000000
00000000
00010000
00000000
,
00000000
00000000
10000000
01000000
00000000
00000000
00100000
00010000
00000000
00000000
01000000
00001000
00000000
00000000
00010000
00000100
,
00002000
00003020
00000032
00000203
,
00000300
00000000
00000010
00001000
00000000
00000000
00010000
00001000
00000000
00000000
01000000
00001000
00000000
00000000
00010000
00100000
,
00000000
00000000
01000000
00010000
00000000
00000000
01000000
00100000
00000000
00000000
10000000
00010000
00100000
00000000
01000000
00000000
,
00000000
00000000
10000000
01000000
00000000
00000000
00010000
01000000
00000000
00000000
00010000
00001000
00000000
00000000
01000000
00001000
,
00020000
00030020
00000032
00000203
,
00000300
00000000
00001000
00000100
00000000
00000000
00000010
00000001
00000000
00000000
00000100
00001000
00000000
00000000
00000100
00000001
,
00000000
00000000
00000010
00000100
00000000
00000000
00010000
00000100
00000000
00000000
00010000
00001000
00010000
00000000
00100000
00000000
,
00000000
00000000
10000000
01000000
00000000
00000000
00100000
00010000
00000000
00000000
10000000
00100000
00000000
00000000
10000000
01000000
,
10000000
00000000
00010000
01000000
00010000
00000000
00100000
00000000
00001000
00010000
00000000
00000100
00000000
00010000
00001000
00000000
,
00010000
00000100
00000000
00001010
00000000
00000101
00000000
00001010
,
00000000
00010100
00000000
00011000
00000000
00000100
00010000
00001000
,
00000000
01000000
00000000
00110000
00000000
01010000
00000000
00110000
,
20000000
32000000
03020000
00230000
,
00300000
00000100
00000000
00000011
00000000
00000101
00000000
00000011
,
00000000
00001100
00000000
00011000
00000000
00000100
00010000
00001000
,
00000000
00000100
00000000
00011000
00000000
01001000
00000000
00110000
,
20000000
30200000
00320000
02030000
,
13000000
00100000
01000000
00010000
10000000
00100000
01000000
00010000
,
10000000
01000000
00100000
00010000
10000000
01000000
00100000
00010000
,
00100000
00001000
00010000
00000100
00001000
00000010
00000100
00000001
,
00001000
00000010
00000100
00000001
00000010
00000100
00001000
00000001
,
00000010
00000100
00001000
00000001
00000100
00001000
00010000
00100000
,
10000000
00010000
01000000
00100000
10000000
00100000
01000000
00010000
,
00100000
00001000
00010000
00000100
00000010
00000001
00000010
00000100
,
00001000
00000000
00000001
00000000
00000100
00000000
00000000
00000000
00002002
00000000
00000000
00000000
00000010
00003003
00000000
00000000
;

//---------------dance-double - M. Emirzian----------------
#NOTES:
     dance-double:
     M. Emirzian:
     Challenge:
     9:
     0.633,0.607,0.310,0.270,0.465,385.000,31.000,27.000,0.000,25.000:







00000000
00000000
00000000
00000000
,
00000000
00000000
00000000
00000000
,
00000000
00000000
00000000
00000000
,
00000000
00000000
00000000
00000000
,
00100000
00001000
01000000
00010000
00100000
00001000
01000000
00010000
,
01000000
00001000
00100000
00010000
01000000
00001000
00100000
00010000
,
01000000
00001000
00010000
00000100
00010000
00000010
00001000
00000100
,
00010000
00000010
00001000
00000010
00010000
00000100
00001000
00000010
,
00010000
00000100
00001000
00000010
00000100
00000001
00000010
00000100
,
00002002
00000000
00000000
00000000
00000000
00000000
00000000
00000000
00000000
00000000
00000000
00000000
00000110
00003003
00000000
00000000
,
00000000
00000000
00000001
00000100
00000000
00000000
00000100
00000010
00000000
00000000
00001000
00000000
00000100
00000000
01000000
00000000
,
00010000
00000000
10000000
01000000
00000000
00000000
01000000
00100000
00000000
00000000
00010000
00000000
01000000
00000000
00000100
00000000
,
00001000
00000000
00000010
00000100
00000000
00000000
00000100
00000001
00000000
00000000
00000010
00000000
00000100
00000000
01000000
00000000
,
00100000
00000000
10000000
01000000
00000000
00000000
01000000
00100000
00000000
00000000
00010000
00000000
01000000
00000000
00000010
00000000
,
00001000
00000000
00000100
00000010
00000000
00000000
00000010
00000001
00000000
00000000
00001000
00000000
00000010
00000000
00100000
00000000
,
00010000
00000000
01000000
00100000
00000000
00000000
00100000
10000000
00000000
00000000
01000000
00000000
00100000
00000000
00010000
00000000
,
01000000
00000000
00001000
00010000
00000000
00000000
00010000
00000100
00000000
00000000
00000010
00000000
00000001
00000000
00000100
00000000
,
00000010
00000000
00001000
00000100
00000000
00000000
00001000
00000000
00002200
00000000
00000000
00000000
00000011
00003300
00000000
00000000
,
00020200
00000000
00000000
00001000
00000010
00000000
00000000
00001000
,
00100000
00030300
00000000
00000000
00000000
00000000
00100000
00000000
00101000
00000000
00000000
00000000
00110000
00000000
00000000
00000000
,
02002000
00000000
00000000
10000000
00010000
00000000
10100000
00000000
,
10010000
03003000
00000000
00000000
00000000
00000000
01000000
00000000
01100000
00000000
00000000
00000000
10010000
00000000
00000000
00000000
,
02020000
00000000
00000000
00100000
00001000
00000000
00000000
00001000
,
10000000
03030000
00000000
00000000
00000000
00000000
00100000
00000000
01010000
00000000
00000000
00000000
00011000
00000000
00000000
00000000
,
00001001
00000000
00000000
00000010
00001100
00000000
01000100
00000000
,
00011000
00000000
00001000
00010000
00000100
00000000
00010000
00000000
00001000
01000000
00000000
00100000
00000000
10000000
01000000
00000000
,
00100000
00000000
00010000
01000000
00000000
00000000
01000000
00000100
00000000
00000000
00000100
01000000
00000000
00000000
01000000
00001000
,
00000000
00000000
00001000
00010000
00000000
00000000
00010000
00000100
00000000
00000000
00001000
00000010
00000100
00000001
00000010
00000100
,
00000000
00000000
00001000
00000010
00000000
00000000
00000010
00100000
00000000
00000000
00100000
00001000
00000000
00000000
00001000
00010000
,
00002000
00000000
00000000
00000000
00000020
00000000
00000000
00000000
00000200
00000000
00000000
00000000
00000001
00003330
00000000
00000000
,
00000000
00000000
00000001
00000100
00000000
00000000
00000100
00000010
00000000
00000000
00000010
01000000
00000000
00000000
01000000
00100000
,
00000000
00000000
00100000
10000000
00000000
00000000
10000000
01000000
00000000
00000000
00100000
00010000
01000000
00100000
10000000
01000000
,
00000000
00000000
01000000
00100000
00000000
00000000
00100000
00010000
00000000
00000000
00010000
01000000
00001000
00010000
00000100
00001000
,
00000200
00000000
00000000
00000000
00000002
00000000
00000000
00000000
00002000
00000000
00000000
00000000
00000010
00003303
00000000
00000000
,
00000000
00000000
00000010
00000001
00000000
00000000
00000001
00000100
00000000
00000000
00000100
00000010
00000000
00000000
00000010
00100000
,
00000000
00000000
00100000
00001000
00000000
00000000
00001000
01000000
00000000
00000000
00100000
10000000
01000000
00100000
00010000
01000000
,
00000000
00000000
00001000
00100000
00000000
00000000
00100000
00000010
00000000
00000000
00000010
00100000
00000000
00000000
00100000
00001000
,
00020000
00000000
00000000
00000000
00200000
00000000
00000000
00000000
02000000
00000000
00000000
00000000
10000000
03330000
00000000
00000000
,
00000000
00000000
10000000
01000000
00000000
00000000
01000000
00100000
00000000
00000000
00100000
00001000
00000000
00000000
00001000
00000100
,
00000000
00000000
00000100
00000001
00000000
00000000
00000001
00000010
00000000
00000000
00000010
00000100
00001000
00000001
00000100
00000010
,
00000000
00000000
00000010
00010000
00000000
00000000
00010000
00001000
00000000
00000000
00001000
00010000
00001000
01000000
00010000
00100000
,
01000000
00000000
10000000
00010000
10000000
00000000
01000000
00000000
00100000
00001000
00000000
00010000
00000000
01000000
00100000
00000000
,
00010000
00000000
01000000
00100000
00000000
00000000
00100000
10000000
00000000
00000000
11000000
00000000
00000000
00000000
00110000
00000000
,
00000000
00000000
00100010
00000000
00000000
00000000
00011000
00000000
00000000
00000000
00001000
00010000
00000100
00001000
00000100
00000010
,
00000000
00000000
00000010
00000001
00000000
00000000
00000001
00000100
00000000
00000000
00001010
00000000
00000000
00000000
00000100
00001000
,
00000020
00000000
00000000
00000000
00020000
00000000
00000000
00000000
00000200
00000000
00000000
00000000
00001000
00030330
00000000
00000000
,
00000000
00000000
00010000
00001000
00000000
00000000
00001000
00000100
00000000
00000000
00001100
00000000
00000000
00000000
01000100
00000000
,
00000000
00000000
00101000
00000000
00000000
00000000
11000000
00000000
00000000
00000000
00100000
10000000
01000000
00100000
00010000
00100000
,
00000000
00000000
01000000
10000000
00000000
00000000
10000000
00010000
00000000
00000000
00110000
00000000
00000000
00000000
00001000
00010000
,
00002000
00000000
00000000
00000000
00020000
00000000
00000000
00000000
00200000
00000000
00000000
00000000
00000010
00333000
00000000
00000000
,
00010000
00001000
00100000
00001000
01000000
00010000
00100000
00001000
,
00010000
00000010
00010000
00000100
00100000
00000010
00010000
00001000
,
01000000
00000100
00010000
00001000
00100000
00000010
00010000
00001000
,
01000000
00000100
00010000
00001000
10000000
00001000
00010000
00000001
,
00010000
00001000
10000000
00001000
00010000
00000001
00000010
00000100
,
00100000
01000000
10000000
01000000
00000010
00000100
00001000
00100000
,
01000000
00010000
00000100
00000001
00010000
00100000
00000100
00001000
,
00100000
00000000
01000000
00000000
00010000
00000000
00001000
00000000
00022000
00000000
00000000
00000000
00100010
00033000
00000000
00000000
;
