#TITLE:Sapphire;
#SUBTITLE:;
#ARTIST:Fallujah;
#TITLETRANSLIT:;
#SUBTITLETRANSLIT:;
#ARTISTTRANSLIT:;
#CREDIT:;
#BANNER:../Jawn - ban.png;
#BACKGROUND:../Jawn - bg.png;
#LYRICSPATH:;
#CDTITLE:;
#MUSIC:Sapphire.ogg;
#OFFSET:0.009;
#SAMPLESTART:41.578;
#SAMPLELENGTH:12.000;
#SELECTABLE:YES;
#BPMS:0.000=240.000;
#STOPS:;
#BGCHANGES:;
// cache tags:
#FIRSTBEAT:64.000;
#LASTBEAT:725.000;
#SONGFILENAME:Songs/Jimmy Jawns/Sapphire - [Aoreo]/Sapphire.sm;
#HASMUSIC:1;
#HASBANNER:1;
#MUSICLENGTH:183.750;
// end cache tags

//---------------dance-single - J. Nero (18+-)----------------
#NOTES:
     dance-single:
     J. Nero (18+-):
     Challenge:
     18:
     1.000,1.000,0.016,0.087,1.000,1853.000,3.000,16.000,1.000,0.000:
0000
0000
0000
0000
,
0000
0000
0000
0000
,
0000
0000
0000
0000
,
0000
0000
0000
0000
,
0000
0000
0000
0000
,
0000
0000
0000
0000
,
0000
0000
0000
0000
,
0000
0000
0000
0000
,
0000
0000
0000
0000
,
0000
0000
0000
0000
,
0000
0000
0000
0000
,
0000
0000
0000
0000
,
0000
0000
0000
0000
,
0000
0000
0000
0000
,
0000
0000
0000
0000
,
0000
0000
0000
0000
,
1000
0100
1000
0001
0100
0010
0100
0001
1000
0100
0010
0001
1000
0001
0100
0010
,
0100
0001
1000
0100
1000
0001
0100
0010
0100
0001
1000
0100
0010
0001
1000
0010
,
1000
0001
0010
0000
0100
0000
1000
0000
0010
0000
0100
0000
0010
0000
1000
0000
,
0100
0000
0010
0000
0001
0000
0100
0000
0001
1000
0001
0100
0010
1000
0001
0100
,
0001
0010
0100
0010
0001
1000
0010
0100
0010
1000
0001
0100
0001
1000
0100
1000
,
0001
0010
0100
1000
0001
0100
0010
0100
0001
1000
0010
0100
0010
1000
0001
0010
,
0001
1000
0100
0010
0001
0000
1000
0000
0010
0000
0100
0000
0010
0000
1000
0000
,
0001
0000
0000
0100
0000
0000
0001
0000
0000
0000
0000
0000
1000
0000
0000
0000
0000
0000
0001
0000
0000
0000
0000
0000
0010
0000
0000
0000
0000
0000
0000
0000
0100
0000
0000
0000
0000
0000
0000
0000
1000
0000
0000
0000
0000
0000
0000
0000
,
0001
0100
0001
1000
0100
0000
0010
0000
0100
0000
1000
0000
0001
0100
0001
1000
,
0100
0000
0010
0000
0001
0000
1000
0000
0001
1000
0001
0010
0100
1000
0001
1000
,
0010
0100
0010
1000
0001
0000
0010
0000
0100
0000
1000
0000
0001
0100
0001
1000
,
0010
0100
0010
1000
0001
1000
0010
0100
0001
1000
0001
0010
0100
1000
0001
0100
,
0001
0000
1000
0000
0100
0000
0010
0000
0100
0000
1000
0000
0001
1000
0001
0100
,
0010
0000
0100
0000
0001
0000
0010
0000
0100
1000
0001
0000
1000
0000
0010
0000
,
0100
0001
0100
0010
1000
0001
0100
0001
1000
0100
0010
0100
1000
0001
0010
0100
,
1000
0000
0000
0001
0000
0000
1000
0000
0000
0010
0000
0000
0100
0000
0000
0010
0000
0000
1000
0000
0000
0001
0000
0000
1000
0000
0000
0000
0000
0000
0000
0000
0100
0000
0000
0000
0000
0000
0000
0000
0010
0000
0000
0000
0000
0000
0000
0000
,
0001
0100
0001
1000
0010
0100
0010
1000
0001
1000
0100
0010
0001
1000
0100
1000
,
0001
0000
0100
0000
0010
0000
0100
0000
0001
1000
0001
0010
0100
1000
0001
1000
,
0010
0000
1000
0000
0100
0000
0010
0000
0100
0000
1000
0000
0001
0100
0001
1000
,
0010
0100
0010
1000
0001
1000
0100
0010
0001
1000
0100
1000
0001
0100
0001
1000
,
0010
1000
0100
0010
0100
1000
0001
0100
,
0001
0000
0000
1000
0000
0000
0010
0000
0000
1000
0000
0000
0001
0000
0000
0000
0010
0000
0000
0000
0100
0000
0000
0000
,
1000
0000
0000
0001
0000
0000
1000
0000
0000
0010
0000
0000
0100
0000
0000
0001
0000
0000
1000
0000
0000
0001
0000
0000
0100
0000
0000
0000
0000
0000
0000
0000
0001
0000
0000
0000
0000
0000
0000
0000
0010
0000
0000
0000
0000
0000
0000
0000
,
0100
1000
0001
1000
0010
0100
0001
0100
0020
0000
0000
0000
0030
0000
0000
0000
,
1000
0001
1000
0100
0010
0001
1000
0001
0100
0010
0100
0001
1000
0001
0100
0010
,
1000
0000
0001
0000
0100
0000
0001
0000
1000
0100
0010
0001
1000
0001
0100
0010
,
1000
0000
0000
0000
0000
0000
0000
0000
0000
0000
0000
0000
0001
0100
0001
1000
,
0001
0000
1000
0000
0100
0000
0010
0000
0100
0000
1000
0000
0001
0100
0001
1000
,
0100
1000
0010
0100
0010
1000
0002
0000
,
0003
0000
0000
0000
0000
0000
0000
0000
0000
0000
0000
0000
1000
0000
0000
0100
0000
0000
1000
0000
0000
0001
0000
0000
0100
0000
0000
0000
0000
0000
0000
0000
0001
0000
0000
0000
0000
0000
0000
0000
0010
0000
0000
0000
0000
0000
0000
0000
,
0100
0000
0000
1000
0000
0000
0001
0000
0000
1000
0000
0000
0010
0000
0000
0100
0000
0000
0010
0000
0000
1000
0000
0000
0001
0000
0000
0000
0000
0000
0000
0000
1000
0000
0000
0000
0000
0000
0000
0000
0001
0000
0000
0000
0000
0000
0000
0000
,
0010
0100
1000
0001
1000
0010
0100
0001
0100
0000
0000
0000
0000
0000
0000
0000
,
0001
0100
0001
1000
0010
0100
0010
1000
0001
1000
0100
0010
0100
1000
0001
1000
,
0001
0100
0010
0100
0001
1000
0001
0100
0010
0100
0001
1000
0001
0010
0100
0010
,
0001
1000
0001
0010
0100
1000
0001
1000
0010
0100
0010
1000
0001
0100
0001
1000
,
0010
0100
0010
1000
0001
1000
0100
0010
0001
1000
0001
0010
0100
0010
0001
1000
,
0001
0100
0010
1000
0001
1000
0010
0100
0001
0100
0010
1000
0010
0100
0001
1000
,
0001
0010
0100
0010
0001
1000
0001
0010
0100
1000
0001
1000
0010
0100
0001
0100
,
0010
1000
0001
0100
0010
0100
0001
1000
0100
0010
0100
1000
0001
1000
0010
0100
,
0010
0000
0000
1000
0000
0000
0001
0000
0000
0100
0000
0000
0001
0000
0000
1000
0000
0000
0010
0000
0000
0100
0000
0000
0001
0000
0000
0000
0000
0000
0000
0000
0010
0000
0000
0000
0000
0000
0000
0000
0100
0000
0000
0000
0000
0000
0000
0000
,
1000
0001
1000
0010
0100
0001
0100
0010
1000
0001
1000
0100
0010
0001
1000
0001
,
0010
0100
0010
0001
1000
0001
0100
0010
0100
0001
1000
0001
0100
0010
1000
0001
,
1000
0010
0100
0001
0100
0010
1000
0001
1000
0100
0010
0001
1000
0001
0010
0100
,
0010
0001
1000
0001
0100
0010
0100
0001
1000
0001
0010
0100
0010
0001
1000
0001
,
0100
0010
0100
0001
1000
0010
0100
0010
1000
0001
0100
0001
1000
0100
0010
0100
,
1000
0001
1000
0010
0100
0010
1000
0001
0100
0001
1000
0100
0010
0001
1000
0001
,
0100
0010
1000
0001
1000
0010
0100
0010
1000
0001
0010
0100
0010
0001
1000
0001
,
0100
0000
0000
0010
0000
0000
0100
0000
0000
0001
0000
0000
1000
0000
0000
0001
0000
0000
0010
0000
0000
0100
0000
0000
1000
0000
0000
0000
0000
0000
0000
0000
0100
0000
0000
0000
0000
0000
0000
0000
0010
0000
0000
0000
0000
0000
0000
0000
,
0002
0023
0230
2300
,
3000
0000
0000
0000
0000
0000
0000
0000
0000
0000
0000
0000
0001
0100
0001
1000
,
0100
0010
0001
0000
1000
0000
0001
0100
0001
0000
0010
0000
0100
1000
0001
0000
,
0100
0000
0010
1000
0010
0000
0100
0000
0001
1000
0001
0000
0010
0000
0100
0000
,
1000
0001
1000
0010
0100
0010
1000
0001
0100
0001
1000
0100
0010
0001
1000
0001
,
0100
0000
0001
0000
1000
0000
0100
0000
0010
0001
1000
0001
0100
0010
1000
0001
,
0100
0001
1000
0010
0100
0010
1000
0001
1000
0100
0010
0001
1000
0001
0010
0100
,
0010
0001
1000
0001
0100
0010
1000
0001
0100
0010
0100
0001
1000
0001
0010
0100
,
1000
0000
0001
0000
0100
0000
0001
0000
0010
0000
0100
0000
1000
0001
1000
0100
,
0010
0001
1000
0010
1000
0001
0100
0010
0100
0000
0001
0000
1000
0001
1000
0100
,
0010
0000
0001
0000
0100
0000
0010
0000
0100
0000
0001
0000
1000
0100
1000
0001
,
0100
0010
1000
0001
1000
0100
0010
0001
1000
0000
0001
0000
0100
0001
1000
0001
,
0010
0000
0100
0000
1000
0000
0010
0000
0100
0000
0010
0000
1000
0001
1000
0100
,
0010
0001
0100
0001
0010
0001
1000
0100
,
0010
0001
1000
0001
0100
0010
0100
0001
1000
0001
0010
0100
1000
0001
1000
0010
,
0100
0000
0000
0010
0000
0000
1000
0000
0000
0001
0000
0000
0100
0000
0000
0001
0000
0000
1000
0000
0000
0100
0000
0000
0010
0000
0000
0000
0000
0000
0000
0000
0001
0000
0000
0000
0000
0000
0000
0000
1000
0000
0000
0000
0000
0000
0000
0000
,
0001
1000
0001
0100
0010
0100
0001
1000
0010
0100
0001
1000
0001
0010
0100
1000
,
0001
1000
0100
0010
0100
1000
0001
1000
0010
0100
0001
0100
0010
1000
0001
0100
,
0001
1000
0010
1000
0001
0010
0100
0010
0001
1000
0001
0100
0010
0100
0001
1000
,
0001
0100
0010
0100
0001
1000
0010
0100
0001
0100
0010
1000
0001
1000
0100
0010
,
0001
1000
0001
0010
0100
0010
0001
1000
0001
0100
0010
0100
0001
1000
0001
0100
,
0010
0100
0001
1000
0001
0010
0100
0010
0001
1000
0001
0100
0010
0100
0001
1000
,
0100
0010
0100
1000
0001
1000
0010
0100
0010
1000
0001
0100
0001
1000
0010
0100
,
0001
0000
0000
1000
0000
0000
0001
0000
0000
0010
0000
0000
0100
0000
0000
0010
0000
0000
0001
0000
0000
1000
0000
0000
0001
0000
0000
0000
0000
0000
0000
0000
0010
0000
0000
0000
0000
0000
0000
0000
0100
0000
0000
0000
0000
0000
0000
0000
,
1000
0001
1000
0010
0100
0010
1000
0001
0100
0010
1000
0010
0100
0001
1000
0001
,
0010
0100
1000
0001
1000
0010
0100
0010
1000
0001
0100
0001
1000
0010
0100
0010
,
1000
0001
1000
0010
0100
0010
1000
0001
1000
0100
0010
0100
1000
0001
1000
0100
,
0010
0001
1000
0001
0100
0010
1000
0010
0100
0001
0100
0010
1000
0001
0010
0100
,
0010
0001
1000
0001
0010
0100
1000
0001
1000
0010
0100
0010
1000
0001
0100
0001
,
1000
0010
0100
0010
1000
0001
1000
0001
0010
0100
0010
0001
1000
0001
0010
0100
,
1000
0001
1000
0010
0100
0010
1000
0001
0100
0001
1000
0010
0100
0010
1000
0001
,
1000
0100
0010
0100
1000
0001
1000
0100
0010
0001
1000
0100
1000
0001
0100
0001
,
1000
0010
0100
0001
0100
0010
1000
0001
1000
0100
0010
0100
1000
0001
1000
0100
,
0010
0001
1000
0001
0100
0010
0100
0001
1000
0010
0100
0001
0100
0010
1000
0001
,
1000
0100
0010
0100
1000
0001
1000
0100
0010
0001
1000
0001
0100
0010
0100
0001
,
1000
0010
0100
0010
1000
0001
0010
0100
0010
0001
1000
0001
0010
0100
1000
0001
,
1000
0010
0100
0001
0100
0010
1000
0001
0100
0010
0100
0001
1000
0001
0010
0100
,
1000
0001
1000
0100
0010
0100
1000
0001
1000
0010
0100
0010
1000
0001
0100
0010
,
0100
0001
1000
0001
0010
0100
0010
0001
1000
0001
1000
0100
0010
0001
1000
0010
,
0100
0000
0000
0010
0000
0000
1000
0000
0000
0001
0000
0000
0100
0000
0000
0010
0000
0000
0100
0000
0000
0001
0000
0000
1000
0000
0000
0000
0000
0000
0000
0000
0100
0000
0000
0000
0000
0000
0000
0000
0010
0000
0000
0000
0000
0000
0000
0000
,
0001
1000
0001
0100
0010
0100
0001
1000
0001
0010
0100
1000
0001
1000
0010
0100
,
0010
1000
0001
0100
0010
0100
0001
1000
0001
0010
0100
0010
0001
1000
0001
0100
,
0010
0100
0001
1000
0001
0100
0010
0100
0001
1000
0001
0010
0100
0010
0001
1000
,
0001
0010
0100
1000
0001
1000
0010
0100
0010
1000
0001
1000
0100
0010
0001
1000
,
0001
0100
0010
0000
0100
0000
0001
0000
2000
0000
0000
0000
3001
0100
0001
1000
,
0100
0000
0000
0010
0000
0000
0100
0000
0000
1000
0000
0000
0001
0000
0010
0000
0100
0000
1000
0000
0001
0000
0100
0000
,
0001
0000
0000
1000
0000
0000
0100
0000
0000
0010
0000
0000
0001
0000
0000
1000
0000
0000
0001
0000
0000
0100
0000
0000
0010
0000
0000
0000
0000
0000
0000
0000
1000
0000
0000
0000
0000
0000
0000
0000
0001
0000
0000
0000
0000
0000
0000
0000
,
0010
0100
1000
0001
1000
0010
0100
0001
2000
0000
0000
0000
3000
0000
0001
0000
,
1000
0100
1000
0000
0001
0000
0100
0000
0001
0000
0010
0000
0100
0000
1000
0000
,
0001
0100
0010
0100
0001
1000
0100
0010
,
0001
1000
0001
0010
0100
0000
1000
0000
0010
0000
1000
0000
0100
0010
0001
1000
,
0001
0000
1000
0100
1000
0000
0001
0000
0010
0000
0100
0000
,
1000
0000
0000
0001
0000
0000
1000
0000
0000
0010
0000
0000
0100
0000
0000
0010
0000
0000
1000
0000
0000
0001
0000
0000
1000
0000
0000
0000
0000
0000
0000
0000
0100
0000
0000
0000
0000
0000
0000
0000
0010
0000
0000
0000
0000
0000
0000
0000
,
0001
0000
0000
0000
0011
0000
0000
0000
0110
0000
2200
0000
,
0000
0000
0000
0000
0000
0000
0000
0000
3300
0000
0000
0000
,
2000
0000
0000
3001
0100
0000
0000
0001
,
1000
0001
0010
0000
0000
0100
1000
0010
,
0200
0000
0000
0000
0000
0000
0000
0000
0301
0000
1000
0000
0000
0000
0001
0010
,
0100
0000
1000
0000
0001
0000
0000
0000
0000
0000
1000
0100
1000
0000
0001
0000
,
0100
0000
0010
0000
0100
0000
0000
0000
0000
0000
0001
0010
0100
0000
1000
0000
,
0001
0100
0000
0000
0000
0001
1000
0001
,
0010
0100
1000
0010
0100
0010
1000
0100
,
0010
0000
0001
0000
0100
0000
0001
1000
0001
0000
1000
0000
0100
0000
0010
0000
,
0100
1000
0001
0000
1000
0000
0010
0000
0200
0000
0001
0000
0300
0000
0000
0000
,
0100
0001
0100
0000
0001
0000
0010
0000
0100
0000
1000
0000
0001
0100
0001
0000
,
0010
0000
0100
0000
0000
0000
0000
0000
1000
0000
0001
0000
1000
0100
0010
0000
,
0001
0000
0100
0000
0000
0000
0000
0000
0001
1000
0001
0000
0010
0000
0100
1000
,
0001
0000
1000
0000
0010
0100
0010
0000
1000
0000
0001
0000
0000
0000
0000
0000
,
1000
0100
1000
0000
0001
0000
0010
0000
0100
0000
1000
0000
0000
0000
0000
0000
,
0001
0100
0001
0000
0010
0000
0100
1000
0001
0000
1000
0000
0010
0100
0010
0000
,
1000
0000
0001
0000
0100
0000
0001
1000
0001
0000
0010
0000
0100
0000
1000
0000
,
0001
0100
0010
0100
0001
1000
0000
0001
,
0010
0100
0010
0001
1000
0010
0100
0010
,
1000
0001
1000
0100
0010
0001
0100
0000
,
0001
0000
1000
0100
0010
0000
0100
0000
1000
0000
0001
0000
0100
0000
0010
0000
,
0100
0001
1000
0001
0000
0010
0100
1000
,
0001
0100
0010
0000
1000
0010
0100
0001
,
2000
3000
0001
0000
0010
0000
0200
1300
0001
0000
1000
0000
0010
0100
0001
0000
,
1000
0000
0001
0100
0001
0000
0010
0000
0100
1000
0001
0000
1000
0000
0010
0000
,
1000
0001
0010
0100
1000
0001
0100
0001
,
1000
0000
0010
0000
0100
0000
0010
0000
1000
0000
0001
0000
1000
0100
1000
0000
,
0010
0100
0001
0010
0001
1000
0010
0100
,
0001
1000
0001
0000
0010
0000
0100
1000
0001
0000
1000
0000
0010
0100
0010
0000
,
1000
0000
0100
0000
0010
0000
0100
0000
1000
0000
0001
0000
0100
0001
0100
0010
,
1000
0001
1000
0100
1000
0010
0100
0010
,
1000
0001
1000
0010
0100
0010
1000
0001
1000
0100
0010
0001
1000
0100
1000
0001
,
0100
0001
1000
0010
0100
0010
1000
0001
0010
0100
0010
0001
1000
0001
0100
0010
,
1000
0001
0100
0001
0010
0000
0100
0000
1000
0000
0010
0000
1000
0100
1000
0001
,
0100
0001
0010
0001
1000
0100
0010
0001
,
1000
0000
0100
0000
1000
0000
0001
0000
0100
0000
0010
0000
1000
0100
1000
0100
,
0010
0001
0100
0001
0010
0001
0100
0010
,
1000
0001
1000
0100
0010
0001
1000
0001
0100
0010
1000
0001
0100
0010
0100
0001
,
1000
0000
0001
0000
0100
0000
0001
0000
1000
0100
0010
0001
1000
0000
0001
0000
,
1000
0001
1000
0100
0010
0001
1000
0001
0100
0010
0100
0001
1000
0001
0010
0100
,
1000
0001
0100
0001
1000
0010
0100
0010
,
1000
0001
1000
0010
0100
0000
0001
0000
0100
0000
0001
0000
1000
0001
1000
0100
,
0010
0000
0001
0000
0100
0000
0001
0000
0010
0100
1000
0001
1000
0010
0100
0001
,
0100
0000
0010
0000
1000
0000
0001
0000
0100
0001
1000
0001
0010
0100
1000
0001
,
1000
0000
0010
0000
0100
0000
0001
1000
0001
0000
0010
0000
0100
1000
0001
0000
,
1000
0001
1000
0100
0010
0001
1000
0001
0100
0010
0100
0001
1000
0010
0100
0001
,
0100
0010
1000
0001
1000
0100
0010
0001
1000
0001
0010
0100
0010
0001
1000
0001
,
0100
0010
0100
0001
1000
0001
0100
0010
0100
0001
1000
0001
0010
0100
1000
0001
,
1000
0010
0100
0010
1000
0001
1000
0100
0010
0100
1000
0001
1000
0010
0100
0010
,
1000
0000
0001
0000
0100
0000
0001
0000
0010
0100
1000
0001
1000
0000
0010
0000
,
0100
0001
1000
0100
1000
0001
0010
0100
,
1000
0000
0010
0000
0100
0000
0001
0000
1000
0100
0010
0000
0001
0000
1000
0000
,
0001
0000
0100
0000
0001
0000
0010
0100
1000
0000
0001
0000
0100
0000
0010
0000
,
1000
0100
1000
0000
0001
1000
0000
0001
,
0100
0001
1000
0100
0000
0000
1000
0001
,
0000
1000
0100
0000
1000
0001
0000
1000
,
0010
1000
0100
0010
0001
0100
0001
1000
,
0002
0003
0000
0000
,
0000
0000
0000
0000
,
0000
0000
0000
0000
,
0000
0000
0000
0000
,
0000
0000
0000
0000
,
0000
0000
0000
0000
,
0000
00M0
0000
0000
;
