#TITLE:Columns;
#SUBTITLE:(Blue Square OC Remix);
#ARTIST:Rayza;
#TITLETRANSLIT:;
#SUBTITLETRANSLIT:;
#ARTISTTRANSLIT:;
#CREDIT:;
#BANNER:Columns-banner.PNG;
#BACKGROUND:Columns-bg.PNG;
#LYRICSPATH:;
#CDTITLE:;
#MUSIC:Columns (Blue Square OC Remix).mp3;
#OFFSET:0.000;
#SAMPLESTART:15.020;
#SAMPLELENGTH:15.000;
#SELECTABLE:YES;
#BPMS:0.000=128.000,96.000=64.000,112.000=128.000,144.000=64.000,146.000=128.000;
#STOPS:;
#BGCHANGES:;
// cache tags:
#FIRSTBEAT:32.000;
#LASTBEAT:238.500;
#SONGFILENAME:Songs/newbie/Columns (Blue Square OC Remix)/Columns (Blue Square OC Remix).sm;
#HASMUSIC:1;
#HASBANNER:1;
#MUSICLENGTH:122.148;
// end cache tags

//---------------dance-single - ----------------
#NOTES:
     dance-single:
     :
     Easy:
     4:
     0.327,0.511,0.237,0.442,0.000,197.000,29.000,54.000,0.000,0.000:
0000
0000
0000
0000
,
0000
0000
0000
0000
,
0000
0000
0000
0000
,
0000
0000
0000
0000
,
0000
0000
0000
0000
,
0000
0000
0000
0000
,
0000
0000
0000
0000
,
0000
0000
0000
0000
,
1000
0001
1000
0001
,
1000
0001
1000
0001
,
0100
0010
0100
0010
,
0100
0010
0100
0010
,
0001
1000
0001
1000
,
0001
1000
0001
1000
,
0010
0100
0010
0100
,
0010
0100
0010
0100
,
1000
0000
0100
0010
0100
0000
0002
0000
,
2003
3001
2002
3003
,
0001
0000
0010
0100
0010
0000
0002
0000
,
2003
3001
1001
1001
,
0100
0000
1000
0001
1000
0000
0020
0000
,
0230
0310
0220
0330
,
0010
0000
0100
0010
0100
0000
0020
0000
,
0230
0310
0110
0110
,
2000
0000
3002
0000
,
0203
0000
0320
0000
,
0032
0000
2003
0000
,
3020
0000
0230
0000
,
1300
0001
1000
0001
,
0100
0010
0100
0010
,
0001
1000
0001
1000
,
0010
0100
0010
0100
,
2000
3001
0002
1003
,
1001
1001
2002
3003
,
0200
0310
0020
0130
,
0110
0110
0220
0330
,
2002
3003
0220
0330
1001
0000
0110
0000
,
1001
0110
2000
3002
,
2003
3002
0203
0320
,
0230
0310
0220
0330
,
2002
3003
0110
1001
,
0110
1001
0020
0230
,
0320
0230
0302
2003
,
3002
1003
2001
0001
,
0001
3001
1002
1000
,
1000
1003
0210
0010
,
0010
0310
0120
0100
,
0100
0130
1000
0100
,
0010
0001
0001
0010
,
0100
1000
1000
0100
,
0010
0001
0001
0010
,
0100
1000
1000
0001
,
1000
0001
0100
0010
,
0100
0010
0001
1000
,
0001
1000
0010
0100
,
0010
0100
1000
0001
,
0100
0010
1000
0001
,
0100
0010
0001
1000
,
0010
0100
0001
1000
,
0010
0100
1001
0000
;

//---------------dance-single - ----------------
#NOTES:
     dance-single:
     :
     Medium:
     5:
     0.420,0.511,0.327,0.540,0.000,253.000,40.000,66.000,0.000,0.000:
0000
0000
0000
0000
,
0000
0000
0000
0000
,
0000
0000
0000
0000
,
0000
0000
0000
0000
,
0000
0000
0000
0000
,
0000
0000
0000
0000
,
0000
0000
0000
0000
,
0000
0000
0000
0000
,
2000
0000
3001
0000
1000
0001
1001
0000
,
0002
0000
1003
0000
0001
1000
1001
0000
,
0200
0000
0310
0000
0100
0010
0110
0000
,
0020
0000
0130
0000
0010
0100
0110
0000
,
2000
0000
3100
0000
0100
1000
1100
0000
,
0002
0000
0013
0000
0010
0001
0011
0000
,
0200
0000
0301
0000
0001
0100
0101
0000
,
0020
0000
1030
0000
1000
0010
1010
0000
,
2000
0000
3100
0010
0002
0000
2003
0000
,
3020
0230
0310
0110
,
0002
0000
0013
0100
2000
0000
3002
0000
,
0203
0000
0320
0000
1030
0100
0010
0001
,
2000
0001
0010
3100
,
0002
1000
0100
0013
,
0200
0001
0010
1300
,
0020
1000
0100
0031
,
1000
0100
1000
0010
0001
0100
0001
0010
,
1000
0100
0001
0010
0001
0100
1000
0010
,
0002
0010
0100
1003
2000
0100
0010
3001
,
0020
0001
0100
1030
0200
1000
0010
0301
,
1000
0100
1100
0000
0001
0100
0101
0000
,
1000
0010
1010
0000
0001
0010
0011
0000
,
0100
1000
1100
0000
0010
0001
0011
0000
,
0100
0001
0101
0000
0010
1000
1010
0000
,
1000
0001
1001
0000
0100
0010
0110
0000
,
0001
1000
1001
0000
0010
0100
0110
0000
,
1000
0100
0010
0001
1000
0100
0010
0001
,
0001
0010
0100
1000
0001
0010
0100
1000
,
2002
0000
0000
3003
2001
0000
3002
0000
,
2003
3001
0220
0000
,
0000
0330
0210
0320
,
0230
0310
2002
0000
,
0000
3003
1002
2003
,
3002
1003
0220
0000
,
0000
0330
0120
0230
,
0320
0000
0130
0000
0000
1000
0001
0000
,
0001
1000
0000
1001
0000
0100
0010
0000
,
0010
0100
0000
0110
0000
0001
1000
0000
,
1000
0001
0000
1001
0000
0010
0100
0000
,
0100
0010
0000
0110
0000
1000
0100
0000
,
0100
0010
0000
0110
0000
0010
0001
0000
,
0001
0010
0000
0011
0000
0010
0100
0000
,
0100
1000
0000
1100
0000
1000
0100
0010
,
0001
0010
0100
1000
1001
0000
2000
0000
,
3002
0000
0103
0020
0000
2030
0000
0000
,
3002
0203
0320
2030
,
3002
0000
0103
0020
0000
2030
0000
0000
,
0000
3000
1001
0002
,
2003
0000
3010
0200
0000
0302
0000
2003
,
0000
3000
1001
0002
,
2003
0000
3010
0100
0001
1000
0020
0200
,
0000
0330
1001
0000
;

//---------------dance-single - ----------------
#NOTES:
     dance-single:
     :
     Hard:
     10:
     0.688,1.000,0.483,0.483,0.475,470.000,59.000,59.000,4.000,16.000:
0000
0000
0000
0000
,
0000
0000
0000
0000
,
0000
0000
0000
0000
,
0000
0000
0000
0000
,
0000
0000
0000
0000
,
0000
0000
0000
0000
,
0000
0000
0000
0000
,
0000
0000
0000
0000
,
1000
0100
0010
0001
1000
0100
0010
0001
,
0001
0010
0100
1000
0001
0010
0100
1000
,
1000
0001
0100
0010
1000
0001
0100
0010
,
0001
1000
0010
0100
0001
1000
0010
0100
,
1000
0010
1000
0100
1000
0010
1000
0100
,
0001
0010
0001
0100
0001
0010
0001
0100
,
1000
0010
0001
0100
1000
0010
0001
0100
,
0001
0010
1000
0100
0001
0010
1000
0100
,
1000
0000
0001
1000
0001
0000
1000
0000
0010
0000
0100
0010
0100
0000
0010
0000
,
0001
0000
1000
0001
1000
0000
0001
0000
0100
0000
0010
0100
0010
0000
0100
0000
,
1100
0000
1000
0100
1000
0000
0001
0000
0101
0000
0001
0100
0001
0000
1000
0000
,
1010
0000
1000
0010
1000
0000
0001
0000
0011
0000
0001
0010
0001
0000
0100
0000
,
0100
0000
0010
0100
0010
0000
0100
0000
0001
0000
1000
0001
1000
0000
0001
0000
,
0010
0000
0100
0010
0100
0000
0010
0000
1000
0000
0001
1000
0001
0000
1000
0000
,
1100
0000
0100
1000
0100
0000
0010
0000
0011
0000
0010
0001
0010
0000
0100
0000
,
0101
0000
0100
0001
0100
0000
0010
0000
1010
0000
0010
1000
0010
0000
1010
0000
,
1000
0100
0001
0100
1000
0100
0001
0100
1000
0010
0001
0010
1000
0010
0001
0010
,
1000
0100
1000
0010
1000
0100
1000
0010
0001
0100
0001
0010
0001
0100
0001
0010
,
1000
0100
0010
0000
0001
0010
0100
0000
1000
0100
0010
0000
0001
0010
0100
0000
0010
0100
1000
0000
0100
0010
0001
0000
0010
0100
1000
0000
0100
0010
0001
0000
,
1000
0001
0100
0000
0001
1000
0100
0000
1000
0001
0100
0000
0001
1000
0100
0000
0001
1000
0010
0000
1000
0001
0010
0000
0001
1000
0010
0000
1000
0001
0010
0000
,
2000
3100
0200
0310
0020
0031
0002
0013
,
0020
0130
0200
1300
2000
3001
0002
0103
,
0200
0310
0020
0031
0002
1003
2000
3010
,
0020
0130
0200
1300
1001
1100
1001
0101
,
0002
0013
0020
0130
0200
1300
2000
3100
,
0200
0310
0020
0031
0002
1003
2000
3010
,
0020
0130
0200
1300
2000
3001
0002
0103
,
0200
0310
0020
0031
1001
0011
1001
1010
,
1000
0100
0010
0001
1000
0100
0010
0001
0001
0010
0100
1000
0001
0010
0100
1000
1000
0000
0001
0000
0100
0000
0010
0000
1000
0000
0001
0000
0100
0000
0010
0000
,
0001
1000
0010
0100
0001
1000
0010
0100
0110
0000
0100
0000
1010
0000
0001
0000
,
1100
0010
0101
1000
1001
0100
0010
0000
,
0110
0000
1100
0000
0110
0000
0101
0000
1000
0100
0001
0000
0001
0100
1000
0000
,
1000
0010
0001
0000
0001
0010
1000
0000
0100
1000
0010
0000
0100
0001
0010
0000
,
0010
1000
0100
0000
0010
0001
0100
0000
1010
0000
0001
0000
1100
0000
0010
0000
,
0101
1000
0011
0100
1001
0010
0100
0000
,
0110
0000
0011
0000
0110
0000
1010
0000
1000
0001
0000
0000
0001
1000
0000
0000
,
0100
0010
0000
0000
0010
0100
0000
0000
1000
0100
0000
0000
0100
0010
0000
0000
,
0010
0001
0000
0000
0001
0010
0000
0000
0010
0100
0000
0000
0100
1000
0000
0000
,
1000
0001
0000
0000
0001
0100
0000
0000
0100
0010
0000
0000
0010
0001
0000
0000
,
0001
1000
0000
0000
1000
0010
0000
0000
0010
0100
0000
0000
0100
1000
0000
0000
,
1000
0010
0000
0000
0010
0001
0000
0000
0001
0100
0000
0000
0100
0001
0000
0000
,
0001
0010
0000
0000
0010
1000
0000
0000
1000
0000
0100
0000
0010
0000
0001
0000
,
0001
0010
0100
1000
1000
0001
0100
0010
,
0001
1000
0010
0100
2200
0000
3311
0000
,
0202
1313
0022
1133
,
2020
3131
2002
3113
,
0220
1331
2000
0200
,
0020
3331
2020
3131
,
0022
1133
0202
1313
,
2200
3311
0220
1331
,
2002
3113
0002
0020
,
0200
0000
2000
0000
3333
MMMM
0000
0000
;
