#TITLE:GIRL'S SPACE;
#SUBTITLE:Far East of East;
#ARTIST:Tatsh;
#TITLETRANSLIT:;
#SUBTITLETRANSLIT:;
#ARTISTTRANSLIT:;
#CREDIT:ALICE_;
#BANNER:Girl's Space.png;
#BACKGROUND:Girl's Space.jpg;
#LYRICSPATH:;
#CDTITLE:cdtitle.png;
#MUSIC:GIRL'S SPACE.mp3;
#OFFSET:-0.560;
#SAMPLESTART:67.700;
#SAMPLELENGTH:12.000;
#SELECTABLE:YES;
#BPMS:0.000=148.001,76.000=158.001,412.500=159.001,416.000=158.001;
#STOPS:;
#BGCHANGES:;
// cache tags:
#FIRSTBEAT:0.000;
#LASTBEAT:634.000;
#SONGFILENAME:Songs/alice 4th complete step/GIRL'S SPACE/GIRL'S SPACE.sm;
#HASMUSIC:1;
#HASBANNER:1;
#MUSICLENGTH:248.088;
// end cache tags

//---------------dance-single - ----------------
#NOTES:
     dance-single:
     :
     Hard:
     14:
     0.916,1.000,0.875,0.782,0.443,1154.000,217.000,194.000,0.000,54.000:
2000
0000
0000
0000
0000
3000
0100
0010
0001
0000
1000
0000
0100
0000
0010
0000
,
0001
1000
0010
0001
0200
0000
0000
0310
,
0001
0000
1000
0000
0010
0000
0100
0000
0002
0000
0003
0020
0000
0030
0200
0300
,
2000
0000
0000
0000
3000
0000
0010
0100
0001
0000
0100
0010
1000
0000
0000
0000
,
0200
0000
0000
0300
0010
0000
0001
0010
1000
0000
0000
0100
0000
0000
0010
0000
,
1000
0100
0001
0010
2002
0000
0000
3103
,
0001
0010
0001
1000
0010
0100
1000
0001
,
0020
0000
0000
0000
0000
0000
0030
0000
0001
0100
2000
0000
0000
3000
0010
0100
,
2000
0000
0000
0000
0000
3000
0100
0010
0001
0000
1000
0000
0100
0000
0010
0000
,
0001
1000
0100
0001
0020
0000
0000
0130
,
0001
0000
1000
0000
0010
0000
0100
0000
2000
0000
3000
0002
0000
0003
0200
0300
,
0020
0000
0000
0000
0000
0030
1000
0100
0001
0000
0001
0010
2000
0000
0000
3000
,
0200
0000
0000
0300
0010
0000
0001
0010
1000
0000
0000
0100
0000
0000
0010
0000
,
0100
0001
1000
0010
2000
0000
0000
3100
,
0010
1000
0001
0100
0010
1000
0100
0001
,
0220
0000
0000
0000
0000
0330
1002
0000
,
2000
0000
0000
0000
,
0000
0000
0000
0000
,
3003
0000
0000
0000
,
1002
1000
1000
1000
,
1000
0000
1000
0000
1000
0000
1000
0003
,
1000
1000
1000
1000
,
1000
1000
1000
1000
,
1000
0010
1000
0010
1000
0010
1000
0010
,
1000
0010
1000
0010
1000
0010
1000
0010
,
1000
0001
1000
0001
1000
0001
1000
0001
,
1000
0001
1000
0001
1000
0001
1000
0001
,
1010
0100
0001
0010
0100
1000
0100
0001
,
1010
0100
0001
0010
0100
1000
0100
0001
,
1010
0100
0001
0010
0100
1000
0100
0002
,
0223
0000
0000
0000
0000
0000
0000
0330
,
1001
0000
0010
0000
0001
0000
0100
0000
2000
3000
0200
0300
0020
0030
0002
0003
,
1010
0000
0100
0000
0001
0000
0010
0000
2000
3000
0200
0300
0020
0030
0002
0003
,
1100
0000
0010
0000
0001
0000
0100
0000
2000
3000
0200
0300
0020
0030
0002
0003
,
1100
0010
0001
0100
0002
1003
0020
0130
,
1000
0001
1000
0001
1000
0010
1000
0010
,
0100
0001
0100
0001
1000
0001
1000
0001
,
0010
0100
0010
0001
0010
1000
0010
0001
,
0100
1000
0100
0010
0100
1000
0100
0001
,
1000
0000
0100
0000
1010
0000
0100
0000
2000
3000
0200
0300
0020
0030
0002
0003
,
0010
0000
1000
0000
0011
0000
0100
0000
0002
0003
0200
0300
0020
0030
2000
3000
,
0100
0000
0001
0000
1010
0000
0100
0000
0002
0003
2000
3000
0020
0030
0200
0300
,
1000
0100
0010
0001
0100
1000
0100
0010
1000
0001
0100
0010
0001
0100
1000
0010
,
0101
0000
0000
0000
1001
0000
0100
1000
0011
0000
0100
0000
1010
0000
0001
0000
,
0100
0000
1000
0000
0110
0000
0001
0000
0020
0000
0000
0000
1001
0030
0100
0000
,
0010
0000
1000
0000
0101
0000
0010
0000
1002
0000
0003
0020
0001
0030
0200
0300
,
1020
0000
0000
0000
0000
0030
1000
0100
0002
0003
0010
0100
2000
0000
0000
3000
,
0202
0000
0303
0000
1100
0000
0001
0010
2000
0000
3000
0200
0001
0300
0020
0030
,
0101
1000
0011
0100
2010
0000
3101
0010
,
0011
1000
0011
0100
0011
1000
1100
0010
,
2002
0000
0000
0000
0110
0000
3003
0000
0100
1000
0020
0000
0000
0030
0001
0010
,
0200
0000
0000
0300
1001
0000
0100
1000
0011
0000
0100
0000
1010
0000
0001
0000
,
0100
0000
1000
0000
0110
0000
0001
0000
0020
0000
0100
0000
1001
0030
0100
0000
,
0010
0000
1000
0000
1010
0000
0001
0000
0102
0000
0003
0020
1000
0030
0200
0300
,
1002
0000
0000
0000
0000
0003
1000
0100
0020
0030
0001
0100
2000
0000
0000
3000
,
0202
0000
0303
0000
1100
0000
0001
0010
2000
0000
3000
0200
0001
0300
0020
0030
,
0101
1000
0011
0100
2010
0000
3101
0010
,
0011
1000
0011
0100
0011
1000
1100
0010
,
2002
0000
0110
3003
0100
0010
1001
0010
,
0001
0100
1000
0000
0001
0010
0000
0010
1000
0100
0001
0000
1000
0010
0000
0010
,
0100
1000
0001
0000
0100
0010
0000
0010
0001
0100
1000
0000
0101
0000
0010
0000
,
2100
0000
0000
0000
3011
0000
0100
0000
2002
0000
0000
3003
0220
0000
0000
0330
,
2002
0000
0000
0000
0000
0000
0000
0000
0000
0000
0000
0000
3003
0000
0100
0010
2000
0000
0000
0000
0000
0000
0000
0000
0000
0000
0000
0000
3010
0000
0000
0000
,
0001
0000
0000
0000
0000
0000
0000
0000
1000
0000
0000
0000
0010
0000
0000
0000
0000
0000
0000
0000
0000
0000
0000
0000
0100
0010
0000
0000
0000
0000
0000
0000
,
1001
0000
1100
0001
0000
0000
0110
0000
,
1001
0000
0101
1000
0000
0000
0110
0000
,
2010
0000
0000
0000
0000
0000
0000
0000
0000
0000
0000
0000
3000
0000
0001
0010
0200
0000
0000
0000
0000
0000
0000
0000
0000
0000
0000
0000
0300
0000
0000
0000
,
1000
0010
0001
0000
1000
0100
0000
0100
0001
0010
1000
0000
0001
0100
0000
0100
,
0010
0001
1000
0000
0010
0100
0000
0100
1000
0010
0001
0000
1010
0000
0100
0000
,
0012
0000
0000
0000
1103
0000
0010
0000
2002
0000
0000
3003
0220
0000
0000
0330
,
2002
0000
0000
0000
0000
0000
0000
0000
0000
0000
0000
0000
3003
0000
0010
0100
0002
0000
0000
0000
0000
0000
0000
0000
0000
0000
0000
0000
0103
0000
0000
0000
,
1010
0000
0000
0000
0000
0000
0000
0000
0001
0000
0000
0000
0100
0000
0000
0000
0000
0000
0000
0000
0000
0000
0000
0000
0100
0010
0000
0000
0000
0000
0000
0000
,
1001
0000
0011
0100
0000
0000
1010
0000
,
1001
0000
0101
0010
0000
0000
0110
0000
,
1002
0000
0000
0000
0000
0000
0000
0000
0000
0000
0000
0000
0003
0000
0100
0010
2000
0000
0000
0000
0000
0000
0000
0000
0000
0000
0000
0000
0000
0000
3000
0000
,
0001
0010
0001
0000
0100
0010
0100
0001
1000
0100
1000
0000
0010
0100
0010
1000
,
0001
0010
0100
1000
0001
0010
0100
1000
0001
0000
0110
0000
1001
0000
0010
0000
,
1100
0001
1110
0001
1000
0010
1101
0010
,
1000
0001
1110
0001
1000
0010
1101
0010
,
1000
0100
0001
0100
1000
0100
0001
0100
1000
0010
0001
0010
1000
0010
0001
0010
,
1000
0100
1000
0010
1000
0100
1000
0010
0001
0001
0010
0100
0001
1000
0010
0100
,
0011
1000
0111
1000
0001
0100
1011
0100
,
0001
1000
0111
1000
0001
0100
1011
0100
,
0001
0010
1000
0100
0001
0010
1000
0100
0001
0010
0100
1000
0001
0010
0100
1000
,
0010
0100
0001
0010
1000
0100
0001
0100
0010
1000
0010
0100
0001
1000
0001
1000
,
0202
0000
0000
0020
0000
0000
0000
2000
,
0000
0000
0000
0000
0000
0000
0000
3333
,
0100
1000
0100
0010
1000
0001
0010
0100
0001
1000
0010
0001
0100
0010
0001
1000
,
0010
0100
0001
0100
1000
0010
0001
0100
1000
0010
1000
0001
0100
1000
0010
0100
,
2002
0000
0000
0200
0000
0000
0000
0020
,
0000
0000
0000
0000
0000
0000
0000
3333
,
0001
0010
0001
0100
0010
1000
0010
1000
0100
0001
0010
1000
0100
0001
1000
0010
,
1000
0001
0100
0010
1000
0100
0001
0010
0001
0100
1000
0001
0100
1000
0001
0020
,
0000
0000
0000
0000
,
0000
0000
0000
0030
,
0000
0000
0000
0000
0000
0000
0000
0000
2000
0000
0000
0000
0000
3000
0100
0010
,
0001
1000
0100
0010
0001
1000
0010
0001
,
0200
0000
0000
0310
0001
1000
0010
0100
,
0002
0000
0003
0020
0000
0030
0200
0300
2000
0000
0000
0000
3000
0000
0010
0100
,
0001
0000
0100
0010
1000
0000
0000
0000
0200
0000
0000
0300
0010
0000
0001
0010
,
1000
0000
0000
0100
0000
0000
0010
0000
1000
0000
0100
0000
0001
0000
0010
0000
,
2002
0000
0000
3103
0001
0010
0001
1000
,
0010
0100
1000
0001
0020
0000
0000
0030
,
0001
0100
2000
0000
0000
0000
0000
0000
0000
0000
0000
0000
3000
0000
0000
0000
,
0101
0000
0000
0000
1001
0000
0100
1000
0011
0000
0100
0000
1010
0000
0001
0000
,
0100
0000
1000
0000
0110
0000
0001
0000
0020
0000
0100
0000
1001
0030
0100
0000
,
0010
0000
1000
0000
0101
0000
0010
0000
1002
0000
0003
0020
0001
0030
0200
0300
,
1022
0000
0000
0000
0003
0030
1000
0100
0002
0003
0010
0100
2000
0000
0000
3000
,
0202
0000
0303
0000
1100
0000
0001
0010
2000
0000
3000
0200
0001
0300
0020
0030
,
0101
1000
0011
0100
2010
0000
3101
0010
,
1001
0100
1001
0010
1001
0100
1100
0010
,
2002
0000
0000
0000
0110
0000
3003
0000
0100
1000
0020
0000
0000
0030
0001
0010
,
0200
0000
0000
0300
1001
0000
0100
1000
0011
0000
0100
0000
1010
0000
0001
0000
,
0100
0000
1000
0000
0110
0000
0001
0000
0020
0000
0100
0000
1001
0030
0100
0000
,
0010
0000
1000
0000
1010
0000
0001
0000
0102
0000
0003
0020
1000
0030
0200
0300
,
1002
0000
0100
0000
0010
0003
1000
0100
0020
0030
0001
0100
2000
0000
0010
3000
,
0202
0000
0303
0000
1100
0000
0001
0010
2000
0000
3000
0200
0001
0300
0020
0030
,
0101
1000
0011
0100
2010
0000
3101
0010
,
1001
0100
1001
0010
1001
0100
1100
0010
,
2002
0000
0110
3003
0100
0010
1001
0010
,
0102
0000
0000
0000
1010
0000
0003
0000
2100
0000
0010
3000
0102
0000
0010
0003
,
0100
1000
0100
0000
1010
0001
0010
0100
0001
0000
0010
0000
1100
0000
0010
0000
,
0201
0000
0000
0000
0311
0000
0100
0000
2002
0000
0000
3003
0220
0000
0000
0330
,
2002
0000
0000
0000
0000
0000
0000
0000
0110
0000
0000
0000
3003
0000
0100
0010
2000
0000
0000
0000
0000
0000
0000
0000
0011
0000
0000
0000
3100
0000
0000
0000
,
0010
0000
0000
0000
0000
0000
0000
0000
1000
0000
0000
0000
0001
0000
0000
0000
0000
0000
0000
0000
0000
0000
0000
0000
0100
0010
0000
0000
0000
0000
0000
0000
,
1001
0000
1100
0001
0000
0000
0110
0000
,
1001
0000
0101
1000
0000
0000
0110
0000
,
2010
0000
0000
0000
0000
0000
0000
0000
0000
0000
0000
0000
3000
0000
0001
0010
0200
0000
0000
0000
0000
0000
0000
0000
0000
0000
0000
0000
0300
0000
0000
0000
,
2010
0000
0000
0000
0101
0000
3000
0000
0012
0000
0100
0003
2010
0000
0100
3000
,
0010
0001
0010
0000
0101
1000
0100
0001
0010
0000
0100
0000
1001
0000
0010
0000
,
0102
0000
0000
0000
1103
0000
0010
0000
2002
0000
0000
3003
0220
0000
0000
0330
,
2002
0000
0000
0000
0000
0000
0000
0000
0110
0000
0000
0000
3003
0000
0010
0100
0002
0000
0000
0000
0000
0000
0000
0000
0000
0000
0000
0000
0103
0000
0000
0000
,
1020
0000
0000
0000
0000
0000
0030
0000
1001
0000
0000
0000
0200
0000
0000
0000
0000
0000
0000
0000
0300
0000
0000
0000
0100
0010
0000
0000
0000
0000
0000
0000
,
1001
0000
0011
0200
0000
0300
1010
0000
,
1001
0000
0101
0020
0000
0030
0110
0000
,
1002
0000
0000
0000
0000
0000
0000
0000
0000
0000
0000
0000
0003
0000
0100
0010
2000
0000
0000
0000
0000
0000
0000
0000
0110
0000
0000
0000
0000
0000
3000
0000
,
0001
0010
0001
0000
1000
0010
0100
0001
1000
0100
1000
0000
0010
0001
0100
0010
,
1100
0000
0011
0000
1100
0000
0011
0000
1000
0001
1000
0001
1000
0001
1000
0001
,
0110
1110
0100
1110
,
0001
1101
0001
1101
,
0010
0111
0010
0111
,
1000
1011
1000
1011
,
0100
0001
1110
0001
0100
0001
1110
0001
,
0010
1000
0111
1000
0010
1000
0111
1000
,
0100
0010
1101
0010
0100
0010
1101
0010
,
0001
0100
1011
0100
0001
0100
1011
0100
,
0010
1000
0001
0000
0100
0010
1000
0010
0100
0001
1000
0000
0010
0100
0001
0100
,
0010
1000
0001
0000
0010
0001
0100
0010
1000
0001
0100
0000
0010
1000
0001
0100
,
0010
1000
0010
0000
0100
0001
0010
0001
1000
0100
1000
0000
0010
0100
0001
1000
,
0010
0001
0100
0000
1001
0000
0010
0100
0001
1000
0100
0010
1000
0001
0100
0010
,
1000
0100
1000
0000
1001
0000
0010
0000
0001
0100
0001
0000
1001
0000
0100
0000
,
0010
1000
0001
0000
0110
0000
1000
0000
0001
0000
0010
0000
1001
0000
0100
0000
,
0010
0001
1000
0000
1100
0001
0010
0000
0100
0000
1000
0000
0101
0000
0010
0000
,
0110
0000
1001
0000
0110
0000
1001
0000
0100
0010
0100
0010
0100
0010
0100
0020
,
0030
0000
0000
0000
,
1002
0010
0100
0010
1000
0010
0100
0013
,
2000
0001
0100
0001
0010
0001
0100
3001
,
0210
1000
0010
0001
,
0020
0000
0330
0000
;

//---------------dance-single - Copied from----------------
#NOTES:
     dance-single:
     Copied from:
     Challenge:
     17:
     1.000,1.000,1.000,0.294,1.000,1987.000,479.000,73.000,0.000,24.000:
2000
0000
0000
0000
0000
3000
0100
0010
0001
0000
1000
0000
0100
0000
0010
0000
,
0001
1000
0010
0001
0200
0000
0000
0310
,
0001
0000
1000
0000
0010
0000
0100
0000
0002
0000
0003
0020
0000
0030
0200
0300
,
2000
0000
0000
0000
3000
0000
0010
0100
0001
0000
0100
0010
1000
0000
0000
0000
,
0200
0000
0000
0300
0010
0000
0001
0010
1000
0000
0000
0100
0000
0000
0010
0000
,
1000
0100
0001
0010
2002
0000
0000
3103
,
0001
0010
0001
1000
0010
0100
1000
0001
,
0020
0000
0000
0000
0000
0000
0030
0000
0001
0100
2000
0000
0000
3000
0010
0100
,
2000
0000
0000
0000
0000
3000
0100
0010
0001
0000
1000
0000
0100
0000
0010
0000
,
0001
1000
0100
0001
0020
0000
0000
0130
,
0001
0000
1000
0000
0010
0000
0100
0000
2000
0000
3000
0002
0000
0003
0200
0300
,
0020
0000
0000
0000
0000
0030
1000
0100
0001
0000
0001
0010
2000
0000
0000
3000
,
0200
0000
0000
0300
0010
0000
0001
0010
1000
0000
0000
0100
0000
0000
0010
0000
,
0100
0001
1000
0010
2000
0000
0000
3100
,
0010
1000
0001
0100
0010
1000
0100
0001
,
0220
0000
0000
0000
0000
0330
1002
0000
,
2000
0000
0000
0000
,
0000
0000
0000
0000
,
3003
0000
0000
0000
,
1010
0001
0001
0000
0100
0010
0000
0010
1000
0001
0001
0000
0100
0010
0000
0010
,
1000
0001
0001
0000
0100
0010
0000
0010
1000
0001
0001
0000
0100
0010
0000
0010
,
0001
1000
1000
0000
0100
0010
0000
0010
0001
1000
1000
0000
0100
0010
0000
0010
,
0001
1000
1000
0000
0100
0010
0000
0010
0001
1000
1000
0000
0100
0010
0000
0010
,
1001
0100
0100
0000
0010
0001
0000
0001
1000
0100
0100
0000
0010
0001
0000
0001
,
1000
0100
0100
0000
0010
0001
0000
0001
1000
0100
0100
0000
0010
0001
0000
0001
,
1010
0100
0100
0000
0001
0010
0000
0010
1000
0100
0100
0000
0001
0010
0000
0010
,
1000
0100
0100
0000
0001
0010
0000
0010
1000
0100
0100
0000
0001
0010
0000
0010
,
1001
0100
0001
1010
0100
1001
0110
0000
0001
0000
0110
0000
1000
0000
0011
0000
,
1001
0010
0100
0011
1000
0110
1001
0000
0100
0000
0011
0000
1000
0000
0110
0000
,
1001
0010
1000
0101
0010
1001
0110
0000
1000
0000
0110
0000
0001
0000
1100
0000
,
1001
0100
0001
0010
0100
0010
0001
1000
0110
0000
1100
0000
0011
0000
0110
0000
,
1001
0010
0001
0100
0011
1000
0100
0001
0010
0010
0100
0100
0001
0001
1000
1000
,
0101
0010
1000
0100
1001
0010
0100
0001
1000
1000
0100
0100
0010
0010
0001
0001
,
1100
0010
0100
0001
1010
0100
0001
1000
0010
0010
0100
0100
0001
0001
1000
1000
,
0101
0010
1000
0001
0110
0001
1000
0010
1200
0000
0310
0000
1002
0000
0013
0000
,
1001
0100
1000
0010
1100
0001
0010
1000
0101
0010
0001
1000
0110
0001
1000
0100
,
0011
1000
0001
0010
0101
1000
0010
0100
1001
0010
0001
0100
1010
0100
0001
0010
,
1001
0100
1000
0001
1100
0010
0100
0001
1010
0100
1000
0010
0101
1000
0001
0010
,
1100
0001
0100
0001
1010
0001
0100
0010
1001
0100
0001
0100
0011
1000
0010
0100
,
1001
0010
0001
0100
1010
0100
0001
0010
1000
1000
0100
0100
0001
0001
0010
0010
,
1100
0001
1000
0010
0101
0010
1000
0100
0001
0001
0100
0100
0010
0010
1000
1000
,
0110
0001
1000
0100
1001
0010
0100
1000
0010
0010
1000
1000
0001
0001
0100
0100
,
1000
0100
0010
0001
0100
1000
0100
0010
1000
0001
0100
0010
0001
0100
1000
0010
,
0202
0000
0303
0000
1101
0000
1001
0100
0010
0000
0101
0000
1100
0000
0110
0000
,
1001
0010
0000
0010
1001
0100
0010
0000
1100
0000
0010
0000
1001
0000
0011
0000
,
0110
0001
1100
0001
0110
0000
1001
0000
1100
0000
0010
0100
1001
0000
0110
0000
,
0011
0100
1000
0100
0011
0000
1100
0010
0011
0000
0101
0010
1010
0000
0100
0000
,
0012
0000
0000
0003
1101
0000
1001
0100
0010
0000
0100
0001
1010
0000
0101
0000
,
1001
0110
0011
0110
1101
0010
0101
1100
,
1001
0010
0101
0010
1100
0010
1001
0100
0011
1000
0110
1000
0011
0100
1010
0001
,
0120
1000
0000
1000
0130
0000
1001
0000
0011
0100
2000
0000
3010
0000
1000
0100
,
0022
0000
0033
0000
0111
0000
1001
0100
0010
0000
0101
0000
1100
0000
0110
0000
,
1001
0000
0110
0000
1001
0100
0010
0000
1100
0000
0010
0000
1001
0000
0011
0000
,
0110
0001
1100
0001
0110
0000
1001
0000
1100
0000
0010
0100
1001
0000
0110
0000
,
1100
0010
0001
0010
1100
0000
0011
0100
1100
0000
1010
0100
0101
0000
0010
0000
,
0102
0000
0000
0003
1011
0000
0110
1000
0001
0000
0100
0001
1010
0000
0101
0000
,
1001
0110
0011
0110
1101
0010
0101
1100
,
1001
0010
0101
0010
1100
0010
1001
0100
0011
1000
0110
1000
0011
0100
1010
0001
,
0120
1000
0000
0001
0130
0000
1001
0000
0011
0000
1000
0000
0111
0000
1010
0000
,
1001
0010
0001
0100
1001
0010
0100
0001
1100
0010
1000
0001
0110
0001
0100
0001
,
1010
0100
0001
0010
1100
0001
0100
0010
0101
1000
0010
0100
0011
1000
0001
1000
,
0110
0001
1000
0001
0110
1000
0011
0100
1001
0010
0001
0100
1010
0100
1000
0010
,
1001
0100
0010
0100
1000
0100
0001
0010
0101
1000
0001
0010
1001
0100
0010
0001
,
1100
0010
1000
0001
0110
0001
1010
0001
0100
1000
0010
0100
0101
1000
0001
0010
,
1001
0100
0010
0001
0110
1000
0101
0010
0001
0100
0010
1000
1001
0100
0001
0010
,
1100
0001
1000
0010
0101
1000
0011
0100
0001
0010
0100
1000
0101
0010
1000
0100
,
1001
0010
0001
0010
0100
1000
0010
0001
0100
1000
0100
1000
0010
0001
1000
0100
,
1011
0100
0001
0010
0101
1000
0010
0100
0011
0100
0001
1000
0110
1000
0010
1000
,
0101
0010
1000
0100
0011
1000
0001
1000
0110
0001
0100
0001
1010
0100
1000
0010
,
0101
1000
0010
1000
0110
0001
1100
0010
1001
0100
1000
0010
0101
0010
0001
0100
,
1001
0010
0100
0010
0001
0010
1000
0100
1010
0001
0100
0010
1001
0100
0010
1000
,
0011
0100
0001
1000
0110
1000
0011
0100
0010
0001
0100
0010
1010
0001
1000
0100
,
1001
0010
0100
1000
0110
0001
1010
0100
1000
0010
0100
0010
1001
0010
1000
0100
,
0011
1000
0001
0100
1010
0001
1100
0010
1000
0100
0010
0001
1010
0100
0001
0010
,
1001
0100
1000
0100
0010
0001
0100
1000
0010
0001
0010
0001
0100
1000
0001
0010
,
1100
0010
0001
0010
1000
0001
0100
0010
1000
0100
0010
0100
0001
1000
0010
0100
,
0002
0023
0230
2300
3200
0320
0032
0023
1031
0000
0110
0000
1001
0000
0010
0000
,
1100
0000
0001
0000
1110
0000
1000
0001
0110
1000
0100
0001
0010
1000
0100
0000
,
0011
0000
1000
0000
0111
0000
0001
1000
0110
0001
0010
1000
0100
0001
0020
0030
,
1001
0100
0010
0001
1001
0100
0010
0001
1010
0100
0001
0010
1010
0100
0001
0010
,
1100
0100
1000
0010
0101
0001
0010
0001
1001
1000
0010
0100
0101
0001
1000
0100
,
0011
0000
1000
0000
0111
0000
0001
1000
0110
0001
0010
1000
0100
0001
0010
0000
,
1100
0000
0001
0000
1110
0000
1000
0001
0110
1000
0100
0001
0010
1000
0200
0300
,
1001
0010
0100
1000
1001
0010
0100
1000
0101
0010
1000
0100
0101
0010
1000
0100
,
0001
1000
0100
0010
1000
0001
0010
0100
0001
1000
0010
0100
1001
0110
1001
0110
,
1001
0100
0010
1000
0110
0001
0010
0100
0011
1000
0010
0001
1100
0010
0200
0300
,
1010
0100
0001
1000
0011
0100
0001
0010
1001
0100
0001
1000
0110
0001
0010
1000
,
0101
1000
0010
0001
1100
0010
0001
0100
1001
0100
0010
0001
1100
0001
0010
0100
,
1001
0010
0001
0100
1010
0100
0001
0010
0101
1000
0010
0001
1001
0100
0010
0100
,
1001
0010
0001
1000
0110
0001
1000
0010
0101
1000
0010
0001
1100
0010
0200
0300
,
1001
0010
0100
0001
1100
0010
0100
0010
1001
0010
0100
0001
1010
0001
0100
1000
,
0011
0100
0001
0010
0101
1000
0010
1000
0110
0001
1000
0001
1100
0010
0001
0100
,
1001
0010
0100
0010
1001
0100
0001
0010
1001
0100
0010
0100
1001
0110
1001
0220
,
0000
0000
0000
0000
,
0000
0000
0000
0330
,
0000
0000
0000
0000
0000
0000
0000
0000
2000
0000
0000
0000
0000
3000
0100
0010
,
0001
1000
0100
0010
0001
1000
0010
0001
,
0200
0000
0000
0310
0001
1000
0010
0100
,
0002
0000
0003
0020
0000
0030
0200
0300
2000
0000
0000
0000
3000
0000
0010
0100
,
0001
0000
0100
0010
1000
0000
0000
0000
0200
0000
0000
0300
0010
0000
0001
0010
,
1000
0000
0000
0100
0000
0000
0010
0000
1000
0000
0100
0000
0001
0000
0010
0000
,
2002
0000
0000
3103
0001
0010
0001
1000
,
0010
0100
1000
0001
0020
0000
0000
0030
,
0001
0100
2000
0000
0000
0000
0000
0000
0000
0000
0000
0000
3000
0000
0000
0000
,
1001
0010
0100
0001
1100
0010
0100
0010
1000
0001
0100
0001
1010
0100
0010
0100
,
0001
0010
0001
1000
0011
0100
0001
1000
0010
0100
0010
0100
1001
0010
0100
0010
,
0100
1000
0001
0100
0101
1000
0001
0010
0100
0001
0010
0001
1001
0100
0001
0010
,
1000
0100
0001
1000
0010
0001
0100
0010
1001
0000
0010
0001
0220
0000
0000
0330
,
1001
0010
0001
0010
0101
1000
0010
0100
1000
0010
0001
0100
1001
0010
0100
0010
,
1000
0100
0001
0100
1010
0100
0001
0100
0001
0010
1000
0010
0101
0010
1000
0100
,
0011
1000
0101
1000
0011
0100
1001
0100
1010
0001
0110
1000
0011
1000
0101
0010
,
1001
0100
0010
1000
0100
0001
0100
0010
1001
0010
0200
0000
0311
0000
0100
0010
,
1001
0100
1000
0010
0101
1000
0100
0010
1000
0001
0100
0001
1100
0010
1000
0001
,
0010
0100
1000
0100
0011
1000
0001
0010
0100
0001
1000
0010
1100
0001
0100
0010
,
0001
0100
1000
0100
0011
0100
1000
0010
1001
0010
0100
0001
1000
0001
0100
0010
,
0011
0100
1000
0010
0101
0010
1000
0100
1001
0000
0001
0010
2200
0000
0310
0000
,
3101
1000
0010
0100
1001
0010
0100
0010
1000
0100
0001
0100
1001
0010
0100
0010
,
1000
0100
0001
0010
0101
1000
0001
0010
0100
1000
0001
1000
0101
1000
0010
0100
,
1001
0010
1100
0010
0101
1000
0011
0100
1010
0100
0011
1000
0101
1000
0110
0001
,
2100
0010
0001
0100
0010
0001
3100
0001
0010
0100
1000
0100
2001
0010
0100
3010
,
1001
0010
0001
0100
1001
0010
0100
0001
1100
0010
1000
0001
0110
0001
0100
0001
,
1010
0100
0001
0010
1100
0001
1000
0010
0101
1000
0010
0100
0011
1000
0100
1000
,
0110
0001
1000
0001
0110
1000
0011
0100
1001
0010
0001
0100
1010
0100
1000
0010
,
1001
0100
0010
0100
1010
0100
0001
0010
0101
1000
0010
0100
1001
0100
0010
0001
,
1100
0010
1000
0001
0110
0001
1010
0001
0100
1000
0010
0100
0101
1000
0001
0010
,
1001
0100
0010
0001
0110
1000
0101
0010
0001
0100
0010
1000
1001
0100
0001
0010
,
1100
0001
1000
0010
0101
1000
0011
0100
0001
0010
0100
1000
0101
0010
1000
0100
,
1001
0000
0010
0000
0001
0000
1000
0000
0010
0000
0100
0000
1000
0000
0001
0010
0100
0000
1000
0000
0001
0000
1000
0000
0110
0000
0001
0000
1000
0000
0100
0000
,
1001
0010
0100
0010
1100
0001
1000
0001
1010
0100
1000
0001
0110
0001
0100
0001
,
1010
0100
0001
0010
1100
0001
0100
0010
0101
1000
0010
0100
0011
1000
0001
0100
,
1010
0001
0100
0001
0110
1000
0011
0100
1001
0010
0001
0100
1010
0100
1000
0010
,
1001
0100
0001
0100
1010
0100
0001
0010
0101
1000
0001
0010
1001
0100
1000
0010
,
0101
0010
1000
0001
0110
0001
1010
0001
0100
1000
0010
0100
0101
1000
0010
0100
,
1001
0100
0010
0001
0110
1000
0101
0010
1000
0001
0010
0100
1001
0010
0100
0010
,
1100
0001
1000
0010
0101
1000
0011
0100
0001
0010
0100
1000
0101
0010
1000
0100
,
1001
0000
0010
0000
0001
0000
0010
0000
0100
0000
1000
0000
0010
0000
0001
1000
0110
0000
0001
0000
0100
0000
0001
0000
0010
0000
1000
0000
0100
0000
0010
0000
,
1001
0100
0001
0010
1100
0001
0010
0001
0110
1000
0001
0010
1100
0001
1000
0100
,
1001
0000
0110
0000
1100
0000
0011
0000
1100
0011
1100
0011
1100
0011
1100
0011
,
1001
0100
0010
0001
1100
0010
0100
0010
1001
0010
0100
1000
0101
0010
0001
0010
,
0101
1000
0100
0010
1001
0010
0100
0010
1100
0001
0100
0010
1001
0100
0001
0010
,
0100
1000
0001
0010
0101
1000
0010
0001
0100
0010
0001
1000
0011
0100
0001
0010
,
0100
1000
0010
1000
0101
1000
0010
0100
0001
1000
0100
0010
0101
1000
0100
0010
,
1001
0100
1000
0010
0101
1000
0001
0010
1001
0100
0001
0010
1100
0001
1000
0010
,
0100
1000
0100
0010
0101
1000
0001
0010
1000
0001
0100
0001
1010
0100
0001
0010
,
0100
1000
0001
0010
0101
1000
0100
1000
0010
0001
0100
1000
0011
0100
0001
0100
,
0001
1000
0010
0100
1001
0010
0100
0010
1000
0100
0010
0100
1001
0010
0001
0100
,
0110
1000
0001
0010
0101
1000
0010
1000
0110
0001
1000
0100
0011
1000
0010
0100
,
1001
0010
0001
0100
1010
0001
0100
0010
0011
1000
0001
0100
1010
0001
0100
0010
,
1001
0100
0010
1000
0110
0001
1000
0010
0101
1000
0010
0100
1001
0100
0010
1000
,
0011
0100
0001
0010
1001
0100
0010
1000
0101
1000
0100
0010
1001
0001
0100
0010
,
1000
0100
1000
0001
1100
0010
1000
0001
0010
0100
0001
0010
0101
1000
0010
0100
,
0010
1000
0001
1000
0110
0001
1000
0100
0001
1000
0010
0100
1001
0100
0010
1000
,
0110
0001
1000
0010
1100
0001
0100
0001
1010
0100
0001
1000
0011
0100
0010
0100
,
1001
0010
1100
0011
1000
0100
1001
0010
0110
1001
0110
1001
0110
1001
0110
2002
,
3003
0000
0000
0000
,
2010
0001
0000
0001
0110
0000
0001
0000
0100
0000
0010
0000
0101
0000
3010
0000
,
0102
1000
0000
1000
0110
0000
1000
0000
0010
0000
1000
0000
1010
0000
0103
0000
,
1120
0101
1000
0001
,
0200
0000
0330
0000
;
