#TITLE:System Doctor;
#SUBTITLE:;
#ARTIST:RoughSketch;
#TITLETRANSLIT:;
#SUBTITLETRANSLIT:;
#ARTISTTRANSLIT:;
#CREDIT:;
#BANNER:system-bn.png;
#BACKGROUND:system-bg.png;
#LYRICSPATH:;
#CDTITLE:;
#MUSIC:System Doctor.ogg;
#OFFSET:0.009;
#SAMPLESTART:103.362;
#SAMPLELENGTH:12.000;
#SELECTABLE:YES;
#BPMS:0.000=260.000;
#STOPS:;
#BGCHANGES:;
// cache tags:
#FIRSTBEAT:28.500;
#LASTBEAT:642.500;
#SONGFILENAME:Songs/SPEEEDCOOOORE 4/System Doctor - [Aoreo]/System Doctor.sm;
#HASMUSIC:1;
#HASBANNER:1;
#MUSICLENGTH:150.461;
// end cache tags

//---------------dance-single - J. Nero----------------
#NOTES:
     dance-single:
     J. Nero:
     Challenge:
     13:
     0.976,1.000,0.246,0.166,0.405,895.000,37.000,25.000,7.000,0.000:
0000
0000
0000
0000
,
0000
0000
0000
0000
,
0000
0000
0000
0000
,
0000
0000
0000
0000
,
0000
0000
0000
0000
,
0000
0000
0000
0000
,
0000
0000
0000
0000
,
0000
00M0
00M0
0000
0000
0000
4000
3000
,
1010
0101
1001
1000
,
0100
0010
0011
0001
,
1001
0000
1010
0000
0110
0000
0100
0001
,
0000
1000
1100
0000
1100
0000
0100
0000
,
0110
0000
0010
0001
1000
0000
0010
0000
,
0100
0001
0011
0010
,
0400
0300
1000
0000
0004
0003
0100
0000
0010
0100
0001
0000
1000
0000
0100
0000
,
1000
0000
0000
0000
0001
0000
0100
0000
0001
0000
0000
0000
1000
0010
0100
0001
,
0100
0001
0010
0100
1000
0001
0100
0010
,
0100
0001
0010
0100
1000
0001
1000
0010
,
0100
0000
0000
0000
,
0101
0000
1001
0000
1100
0000
0100
0010
,
0001
1000
0100
1000
0010
0100
0001
1000
,
0001
0010
0100
1000
0001
0100
0010
0100
,
0001
0000
0000
0000
0000
0000
0000
0000
1000
0100
1000
0000
0001
0100
0010
0000
,
1000
0000
0100
1000
0001
0000
0100
0000
0010
0000
0100
0000
0001
0000
0010
0000
,
0100
1000
0010
0100
0010
1000
0100
0010
,
0001
1000
0100
1000
0001
0100
0010
0100
,
0004
0003
0000
0000
1000
0000
0400
0300
0000
0000
1000
0000
0004
0003
0000
0000
,
4000
3000
0000
0000
0004
0003
0000
0000
0040
0030
0000
0000
0400
0300
0000
0000
,
1000
0100
0010
0100
1000
0010
0100
0001
,
1000
0000
0001
0000
0010
0000
0100
0000
1000
0000
0001
0000
0400
0300
0040
0030
,
2000
0000
0000
0000
3002
0203
0302
0023
,
0130
1000
0001
0000
0100
0010
0100
0000
0001
0010
0100
0000
1000
0001
1000
0000
,
0001
0100
0001
1000
0100
0010
0100
1000
,
0010
0100
0001
1000
0001
0010
0100
1000
,
0001
0100
0001
1000
0100
0010
0100
1000
,
0001
0100
0001
1000
0010
0100
0001
0010
,
0100
1000
0001
0000
1000
0000
0010
0000
0400
0300
0004
0003
0010
0000
0100
0000
,
4000
3000
0001
0000
0100
0000
0010
0000
4000
3000
0000
0000
0004
0000
0003
0000
,
1001
0000
0000
0000
,
1000
0000
0000
0000
0100
0000
0000
0000
0010
0000
0000
0000
0001
0000
0000
0000
0000
0000
1000
0000
0000
0000
0000
0000
0040
0000
0000
0030
0000
0000
1000
0000
0000
0000
0000
0000
0100
0000
0000
0000
0000
0000
0010
0000
0000
0000
0000
0000
,
0100
1000
0010
0100
0001
1000
0100
1000
,
0001
0100
0010
0100
0001
1000
0001
0010
,
0100
1000
0001
0100
0010
0100
0001
1000
,
0100
0010
0001
1000
0100
1000
0001
0001
,
0010
0000
0000
0000
0100
0000
1000
0000
0000
0000
1000
0000
0000
0000
0004
0003
,
1000
0000
0100
0000
0010
0000
0100
0000
4000
3000
0010
0000
0400
0300
0000
0000
,
0001
0000
0000
0000
,
0000
0000
0000
0000
0000
0000
0000
0000
0000
0000
0000
0000
2002
3003
0000
0000
,
2002
3003
0000
0000
0001
0000
0010
0000
0100
0000
0000
0000
1000
0000
0100
0000
,
0000
0100
0000
1000
0001
0000
0100
0001
,
1000
0000
0000
0000
1100
0000
0000
0100
,
0000
0100
0000
1000
0010
0000
0010
0100
,
0001
0000
0000
0000
0101
0000
0000
0100
,
0000
0100
0000
0001
0010
0000
0100
1000
,
0001
0000
0100
0001
0000
0100
0000
0010
,
0000
0010
0000
1000
0100
1000
0001
0100
,
0010
0000
0000
0000
1010
0000
1000
0100
,
0000
0100
0000
0010
0001
0000
1000
0010
,
0100
0000
0000
0000
0101
0000
0000
0001
,
0000
0001
0000
1000
0100
0000
0100
0010
,
0001
0000
0000
0000
1001
0000
0000
1000
,
0000
0000
1000
0000
0000
0000
0010
0000
0100
0000
0001
1000
0001
0000
1000
0000
,
0100
0010
0001
0000
0100
0010
1000
0001
,
0000
0001
0000
0010
0000
0010
0100
1000
,
2002
3003
0001
0100
0010
0000
1000
0100
,
0000
0100
0000
1000
0010
0000
0100
0001
,
0010
0000
0000
0000
0110
0000
0000
0100
,
0000
0100
0000
1000
0001
0000
0001
0100
,
0010
0000
0000
0000
1010
0000
0000
1000
,
0000
1000
0000
0100
0010
0000
0001
1000
,
0010
0000
0100
0010
0000
0100
0000
0001
,
0000
0001
0000
1000
0010
1000
0001
0010
,
0100
0000
0000
0000
1100
0000
1000
0010
,
0000
0010
0000
0100
0001
0000
1000
0001
,
0100
0000
0000
0000
0101
0000
0000
0001
,
0000
0001
0000
0010
0100
0000
0100
1000
,
0001
0000
0000
0000
1001
0000
0000
1000
,
0000
0000
1000
0000
0000
0000
0001
0000
0010
0000
0100
1000
0001
0000
0100
0000
,
0004
0000
0000
0000
,
0000
0000
0000
0000
0000
0000
0000
0000
0000
0000
0000
0000
0000
0000
0000
0000
0000
0000
0000
0000
0000
0000
0000
0003
,
1000
0100
0010
0100
1000
0010
0100
0001
,
0010
0100
1000
0001
0100
0001
1000
0000
,
0001
0100
0001
0010
0100
1000
0001
0100
,
0010
1000
0100
0010
0001
0000
0001
0000
,
1000
0010
0100
0000
0001
0010
0100
0000
,
1000
0010
0100
0000
0001
0010
0100
0000
,
1000
0000
0001
0100
0010
0000
0100
0000
0001
0000
0000
0000
0001
0000
0000
0000
,
1000
0010
1000
0001
0010
0100
1000
0000
,
0001
0100
0010
0100
0001
1000
0100
0010
,
0001
1000
0100
1000
0001
0100
0010
0000
,
1000
0100
1000
0001
0100
0010
0100
0001
,
0010
0100
1000
0001
0100
0000
0001
1000
,
0100
0010
0100
1000
0010
0100
0001
1000
,
0010
0100
0010
1000
0001
0001
0010
0100
,
1000
0000
0004
0003
0101
0000
0100
0001
,
0020
0000
0000
0000
,
0130
1000
0001
0000
0100
0000
0001
0000
1000
0000
0000
0000
0001
0000
0100
0000
,
0000
0000
0100
0000
0000
0000
0001
0000
1000
0010
1000
0000
0001
0000
0010
0000
,
0000
0000
0100
1000
0001
0000
1000
0001
1000
0000
0000
0000
0001
0100
0001
1000
,
0000
0000
0001
0010
0100
0000
0000
0000
1000
0000
0100
0000
0010
0000
0100
0000
,
4000
3000
0000
0000
0040
0030
0000
0000
0400
0300
0000
0000
0001
0000
4000
3000
,
0000
0000
0040
0030
4000
3000
0400
0300
0010
0000
0001
1000
0001
0000
1000
0000
,
0001
0100
0040
0030
1000
0100
0040
0030
,
0100
0000
1000
0000
0040
0000
0030
0000
1000
0001
1000
0100
0010
0001
1000
0001
,
0100
0000
0000
0010
0000
0000
1000
0000
0000
0001
0000
0000
1000
0000
0100
0000
0010
0000
0001
0000
0000
1000
0000
0000
,
0040
0000
0000
0000
1030
0000
0001
0000
1000
0000
0400
0300
0020
0000
0030
0000
,
0100
0000
0000
0000
4000
3000
0000
0000
0010
0000
0000
0000
4000
3000
0000
0000
0100
0000
0000
0000
4000
3000
0000
0000
0010
0000
0000
0000
4000
3000
0000
0000
,
2002
3003
0022
0033
0220
0330
0400
0300
,
1000
0000
0000
0000
0001
0000
0000
0000
1000
0000
0000
0000
0100
0000
0000
0000
0010
0000
0000
0000
0001
0000
0000
0000
0100
0000
0000
0000
0001
0000
0000
0000
1000
0000
0000
0000
0040
0000
0000
0030
0000
0000
1000
0000
0000
0000
0000
0000
,
0001
0000
0100
0000
0010
0000
1000
0000
0400
0300
1000
0000
0004
0003
0040
0030
,
0100
0000
0100
0000
1000
0010
0100
0000
,
0202
0000
0000
0303
0000
0000
0001
0000
,
1000
0010
1000
0100
0010
0001
1000
0001
,
0100
0010
1000
0001
0010
0001
1000
0010
,
0100
0000
0010
1000
0000
0100
1000
0001
,
0010
0000
0100
1000
0010
0000
0100
0010
,
1000
0001
0010
0100
0010
0001
1000
0010
,
0100
0010
1000
0001
0010
0100
1000
0001
,
1000
0000
0010
1000
0010
0000
0100
0000
0001
0000
1000
0000
0100
0000
0010
0000
,
0001
0000
0000
0000
1000
0000
0010
0000
0400
0300
0001
0000
0040
0030
0001
0000
,
1000
0100
0010
0100
1000
0010
0100
0001
,
1000
0001
0010
0100
1000
0010
0100
0001
,
1000
0000
0100
0010
0000
0001
1000
0100
,
1000
0000
0010
0100
0001
0000
1000
0100
,
1000
0001
0100
0000
0010
0000
1000
0000
0004
0003
0040
0030
0400
0300
1000
0000
,
0004
0003
0100
0000
0010
0000
0100
0000
0004
0000
0003
0000
4000
0000
3000
0000
,
1001
0000
0000
0000
,
0001
0000
0000
0000
1000
0000
0000
0000
0001
0000
0000
0000
0010
0000
0000
0000
0000
0000
0100
0000
0000
0000
0000
0000
4000
0000
0000
3000
0000
0000
0000
0000
0000
0000
0000
0000
0001
0000
0000
0000
0000
0000
1000
0000
0000
0000
0000
0000
,
0100
0000
0010
0000
0100
0000
1000
0000
0010
0000
0000
0000
0400
0000
0000
0300
,
0001
0000
0010
0000
0100
0000
0010
0000
0001
0000
0000
0000
0400
0000
0000
0300
,
0010
0000
1000
0000
0100
0000
1000
0000
0010
0000
0000
0000
0400
0000
0000
0300
,
0001
0000
0010
0000
0100
0000
0010
0000
0001
0000
0000
0000
0400
0000
0000
0300
,
0010
0000
1000
0000
0100
0000
1000
0000
0010
0000
0000
0000
0400
0000
0000
0300
,
0001
0000
0010
0000
0100
0000
0010
0000
0001
0000
0000
0000
0400
0000
0000
0300
,
0010
0000
1000
0000
0100
0000
0010
0000
0001
0000
0000
0000
4000
3000
0400
0300
,
0010
0000
0001
0000
1000
0000
0010
0000
0100
0000
0000
0000
0004
0003
0400
0300
,
0010
1000
0001
0010
0100
1000
0001
0100
,
0010
0100
0001
1000
0100
0010
0001
1000
,
0010
0000
0000
0000
0100
0000
0000
0000
0010
0000
0000
0000
4000
3000
0000
0000
0400
0300
0000
0000
0010
0000
0000
0000
0001
0000
0000
0000
0400
0300
0000
0000
,
0040
0030
0000
0000
1000
0000
0000
0000
0100
0000
0000
0000
1000
0000
0000
0000
0001
0000
0000
0000
0100
0000
0000
0000
0010
0000
0000
0000
1000
0000
0000
0000
,
0001
1000
0001
0010
0100
1000
0001
1000
0010
0100
0010
1000
0001
1000
0100
0010
,
0001
1000
0001
0100
0010
1000
0001
1000
0100
0010
0001
1000
0001
0100
0010
0100
,
0004
0000
0000
0000
,
2003
0000
0000
0000
0000
0000
0000
0000
3M00
0000
0000
0000
00M0
00M0
00M0
00M0
,
0001
0100
0001
0010
0100
1000
0010
0100
,
0001
1000
0100
0010
0100
1000
0010
0100
,
0001
1000
0001
0010
0100
1000
0001
0100
,
0010
0100
0001
1000
0100
0010
0001
0001
,
1000
0010
0100
0001
1000
0001
0010
0100
,
1000
0010
0100
0001
1000
0100
0010
0001
,
1000
0100
1000
0001
0100
0010
0100
0001
,
1000
0000
0000
0100
0000
0000
1000
0000
0000
0001
0000
0000
0100
0000
0001
0000
0010
0000
0100
0000
1000
0000
0010
0000
,
0100
0001
1000
0100
0010
0100
1000
0001
,
0100
0001
1000
0100
0010
0100
1000
0001
,
0100
0010
0100
0001
1000
0100
0010
0001
,
1000
0100
1000
0001
0100
0010
1000
1000
,
0010
0000
0000
0000
0100
0000
0001
0000
0000
0000
0001
0000
0000
0000
0040
0030
,
0100
0000
1000
0000
0010
0000
0100
0000
0004
0003
1000
0000
0400
0300
0010
0000
,
0002
0000
0000
0000
,
0000
0000
0000
1003
,
2002
3003
0004
0003
0400
0300
0000
0000
;

//---------------dance-single - J. Nero----------------
#NOTES:
     dance-single:
     J. Nero:
     Hard:
     11:
     0.976,1.000,0.246,0.272,0.352,879.000,37.000,41.000,7.000,0.000:
0000
0000
0000
0000
,
0000
0000
0000
0000
,
0000
0000
0000
0000
,
0000
0000
0000
0000
,
0000
0000
0000
0000
,
0000
0000
0000
0000
,
0000
0000
0000
0000
,
0000
00M0
00M0
0000
0000
0000
4000
3000
,
1010
0101
1001
1000
,
0100
0010
0011
0001
,
1001
0000
1010
0000
0110
0000
0100
0001
,
0000
1000
1100
0000
1100
0000
0100
0000
,
0110
0000
0010
0001
1000
0000
0010
0000
,
0100
0001
0011
0010
,
0400
0300
1000
0000
0004
0003
0100
0000
0010
0100
0001
0000
1000
0000
0100
0000
,
1000
0000
0000
0000
0001
0000
0100
0000
0001
0000
0000
0000
1000
0010
0100
0001
,
0100
0001
0010
0100
1000
0001
0100
0010
,
0100
0001
0010
0100
1000
0001
1000
0010
,
0100
0000
0000
0000
,
0101
0000
1001
0000
1100
0000
0100
0010
,
0001
1000
0100
1000
0010
0100
0001
1000
,
0001
0010
0100
1000
0001
0100
0010
0100
,
0001
0000
0000
0000
0000
0000
0000
0000
1000
0100
1000
0000
0001
0100
0010
0000
,
1000
0000
0100
1000
0001
0000
0100
0000
0010
0000
0100
0000
0001
0000
0010
0000
,
0100
1000
0010
0100
0010
1000
0100
0010
,
0001
1000
0100
1000
0001
0100
0010
0100
,
0004
0003
0000
0000
1000
0000
0400
0300
0000
0000
1000
0000
0004
0003
0000
0000
,
4000
3000
0000
0000
0004
0003
0000
0000
0040
0030
0000
0000
0400
0300
0000
0000
,
1000
0100
0010
0100
1000
0010
0100
0001
,
1000
0000
0001
0000
0010
0000
0100
0000
1000
0000
0001
0000
0400
0300
0040
0030
,
2000
0000
0000
0000
3002
0203
0302
0023
,
0130
1000
0001
0000
0100
0010
0100
0000
0001
0010
0100
0000
1000
0001
1000
0000
,
0001
0100
0001
1000
0100
0010
0100
1000
,
0010
0100
0001
1000
0001
0010
0100
1000
,
0001
0100
0001
1000
0100
0010
0100
1000
,
0001
0100
0001
1000
0010
0100
0001
0010
,
0100
1000
0001
0000
1000
0000
0010
0000
0400
0300
0004
0003
0010
0000
0100
0000
,
4000
3000
0001
0000
0100
0000
0010
0000
4000
3000
0000
0000
0004
0000
0003
0000
,
1001
0000
0000
0000
,
1000
0000
0000
0000
0100
0000
0000
0000
0010
0000
0000
0000
0001
0000
0000
0000
0000
0000
1000
0000
0000
0000
0000
0000
0040
0000
0000
0030
0000
0000
1000
0000
0000
0000
0000
0000
0100
0000
0000
0000
0000
0000
0010
0000
0000
0000
0000
0000
,
0100
1000
0010
0100
0001
1000
0100
1000
,
0001
0100
0010
0100
0001
1000
0001
0010
,
0100
1000
0001
0100
0010
0100
0001
1000
,
0100
0010
0001
1000
0100
1000
0001
0001
,
0010
0000
0000
0000
0100
0000
1000
0000
0000
0000
1000
0000
0000
0000
0004
0003
,
1000
0000
0100
0000
0010
0000
0100
0000
4000
3000
0010
0000
0400
0300
0000
0000
,
0001
0000
0000
0000
,
0000
0000
0000
0000
0000
0000
0000
0000
0000
0000
0000
0000
2002
3003
0000
0000
,
2002
3003
0000
0000
0001
0000
0010
0000
0100
0000
0000
0000
1000
0000
0100
0000
,
0000
0100
0000
1000
0001
0000
0100
0001
,
1000
0000
0000
0000
1100
0000
0000
0100
,
0000
0100
0000
1000
0010
0000
0010
0100
,
0001
0000
0000
0000
0101
0000
0000
0100
,
0000
0100
0000
0001
0010
0000
0100
1000
,
0001
0000
0100
0001
0000
0100
0000
0010
,
0000
0010
0000
1000
0100
1000
0001
0100
,
0010
0000
0000
0000
1010
0000
1000
0100
,
0000
0100
0000
0010
0001
0000
1000
0010
,
0100
0000
0000
0000
0101
0000
0000
0001
,
0000
0001
0000
1000
0100
0000
0100
0010
,
0001
0000
0000
0000
1001
0000
0000
1000
,
0000
0000
1000
0000
0000
0000
0010
0000
0100
0000
0001
1000
0001
0000
1000
0000
,
0100
0010
0001
0000
0100
0010
1000
0001
,
0000
0001
0000
0010
0000
0010
0100
1000
,
2002
3003
0001
0100
0010
0000
1000
0100
,
0000
0100
0000
1000
0010
0000
0100
0001
,
0010
0000
0000
0000
0110
0000
0000
0100
,
0000
0100
0000
1000
0001
0000
0001
0100
,
0010
0000
0000
0000
1010
0000
0000
1000
,
0000
1000
0000
0100
0010
0000
0001
1000
,
0010
0000
0100
0010
0000
0100
0000
0001
,
0000
0001
0000
1000
0010
1000
0001
0010
,
0100
0000
0000
0000
1100
0000
1000
0010
,
0000
0010
0000
0100
0001
0000
1000
0001
,
0100
0000
0000
0000
0101
0000
0000
0001
,
0000
0001
0000
0010
0100
0000
0100
1000
,
0001
0000
0000
0000
1001
0000
0000
1000
,
0000
0000
1000
0000
0000
0000
0001
0000
0010
0000
0100
1000
0001
0000
0100
0000
,
0004
0000
0000
0000
,
0000
0000
0000
0000
0000
0000
0000
0000
0000
0000
0000
0000
0000
0000
0000
0000
0000
0000
0000
0000
0000
0000
0000
0003
,
1000
0100
0010
0100
1000
0010
0100
0001
,
0010
0100
1000
0001
0100
0001
1000
0000
,
0001
0100
0001
0010
0100
1000
0001
0100
,
0010
1000
0100
0010
0001
0000
0001
0000
,
1000
0010
0100
0000
0001
0010
0100
0000
,
1000
0010
0100
0000
0001
0010
0100
0000
,
1000
0000
0001
0100
0010
0000
0100
0000
0001
0000
0000
0000
0001
0000
0000
0000
,
1000
0010
1000
0001
0010
0100
1000
0000
,
0001
0100
0010
0100
0001
1000
0100
0010
,
0001
1000
0100
1000
0001
0100
0010
0000
,
1000
0100
1000
0001
0100
0010
0100
0001
,
0010
0100
1000
0001
0100
0000
0001
1000
,
0100
0010
0100
1000
0010
0100
0001
1000
,
0010
0100
0010
1000
0001
0001
0010
0100
,
1000
0000
0004
0003
0101
0000
0100
0001
,
0020
0000
0000
0000
,
0130
1000
0001
0000
0100
0000
0001
0000
1000
0000
0000
0000
0001
0000
0100
0000
,
0000
0000
0100
0000
0000
0000
0001
0000
1000
0010
1000
0000
0001
0000
0010
0000
,
0000
0000
0100
1000
0001
0000
1000
0001
1000
0000
0000
0000
0001
0100
0001
1000
,
0000
0000
0001
0010
0100
0000
0000
0000
1000
0000
0100
0000
0010
0000
0100
0000
,
4000
3000
0000
0000
0040
0030
0000
0000
0400
0300
0000
0000
0001
0000
4000
3000
,
0000
0000
0040
0030
4000
3000
0400
0300
0010
0000
0001
1000
0001
0000
1000
0000
,
0001
0100
0040
0030
1000
0100
0040
0030
,
0100
0000
1000
0000
0040
0000
0030
0000
1000
0001
1000
0100
0010
0001
1000
0001
,
0100
0000
0000
0010
0000
0000
1000
0000
0000
0001
0000
0000
1000
0000
0100
0000
0010
0000
0001
0000
0000
1000
0000
0000
,
0040
0000
0000
0000
1030
0000
0001
0000
1000
0000
0400
0300
0020
0000
0030
0000
,
0100
0000
0000
0000
4000
3000
0000
0000
0010
0000
0000
0000
4000
3000
0000
0000
0100
0000
0000
0000
4000
3000
0000
0000
0010
0000
0000
0000
4000
3000
0000
0000
,
2002
3003
0022
0033
0220
0330
0400
0300
,
1000
0000
0000
0000
0001
0000
0000
0000
1000
0000
0000
0000
0100
0000
0000
0000
0010
0000
0000
0000
0001
0000
0000
0000
0100
0000
0000
0000
0001
0000
0000
0000
1000
0000
0000
0000
0040
0000
0000
0030
0000
0000
1000
0000
0000
0000
0000
0000
,
0001
0000
0100
0000
0010
0000
1000
0000
0400
0300
1000
0000
0004
0003
0040
0030
,
0100
0000
0100
0000
1000
0010
0100
0000
,
0202
0000
0000
0303
0000
0000
0001
0000
,
1000
0010
1000
0100
0010
0001
1000
0001
,
0100
0010
1000
0001
0010
0001
1000
0010
,
0100
0000
0010
1000
0000
0100
1000
0001
,
0010
0000
0100
1000
0010
0000
0100
0010
,
1000
0001
0010
0100
0010
0001
1000
0010
,
0100
0010
1000
0001
0010
0100
1000
0001
,
1000
0000
0010
1000
0010
0000
0100
0000
0001
0000
1000
0000
0100
0000
0010
0000
,
0001
0000
0000
0000
1000
0000
0010
0000
0400
0300
0001
0000
0040
0030
0001
0000
,
1000
0100
0010
0100
1000
0010
0100
0001
,
1000
0001
0010
0100
1000
0010
0100
0001
,
1000
0000
0100
0010
0000
0001
1000
0100
,
1000
0000
0010
0100
0001
0000
1000
0100
,
1000
0001
0100
0000
0010
0000
1000
0000
0004
0003
0040
0030
0400
0300
1000
0000
,
0004
0003
0100
0000
0010
0000
0100
0000
0004
0000
0003
0000
4000
0000
3000
0000
,
1001
0000
0000
0000
,
0001
0000
0000
0000
1000
0000
0000
0000
0001
0000
0000
0000
0010
0000
0000
0000
0000
0000
0100
0000
0000
0000
0000
0000
4000
0000
0000
3000
0000
0000
0000
0000
0000
0000
0000
0000
0001
0000
0000
0000
0000
0000
1000
0000
0000
0000
0000
0000
,
0100
0000
0010
0000
0100
0000
1000
0000
0010
0000
0000
0000
0400
0000
0000
0300
,
0001
0000
0010
0000
0100
0000
0010
0000
0001
0000
0000
0000
0400
0000
0000
0300
,
0010
0000
1000
0000
0100
0000
1000
0000
0010
0000
0000
0000
0400
0000
0000
0300
,
0001
0000
0010
0000
0100
0000
0010
0000
0001
0000
0000
0000
0400
0000
0000
0300
,
0010
0000
1000
0000
0100
0000
1000
0000
0010
0000
0000
0000
0400
0000
0000
0300
,
0001
0000
0010
0000
0100
0000
0010
0000
0001
0000
0000
0000
0400
0000
0000
0300
,
0010
0000
1000
0000
0100
0000
0010
0000
0001
0000
0000
0000
4000
3000
0400
0300
,
0010
0000
0001
0000
1000
0000
0010
0000
0100
0000
0000
0000
0004
0003
0400
0300
,
0010
1000
0001
0010
0100
1000
0001
0100
,
0010
0100
0001
1000
0100
0010
0001
1000
,
0010
0000
0000
0000
0100
0000
0000
0000
0010
0000
0000
0000
4000
3000
0000
0000
0400
0300
0000
0000
0010
0000
0000
0000
0001
0000
0000
0000
0400
0300
0000
0000
,
0040
0030
0000
0000
1000
0000
0000
0000
0100
0000
0000
0000
1000
0000
0000
0000
0001
0000
0000
0000
0100
0000
0000
0000
0010
0000
0000
0000
1000
0000
0000
0000
,
0002
0023
0230
2300
3002
0203
0320
2030
,
3002
0023
0230
2300
3002
0203
0320
2030
,
3004
0000
0000
0000
,
2003
0000
0000
0000
0000
0000
0000
0000
3M00
0000
0000
0000
00M0
00M0
00M0
00M0
,
0001
0100
0001
0010
0100
1000
0010
0100
,
0001
1000
0100
0010
0100
1000
0010
0100
,
0001
1000
0001
0010
0100
1000
0001
0100
,
0010
0100
0001
1000
0100
0010
0001
0001
,
1000
0010
0100
0001
1000
0001
0010
0100
,
1000
0010
0100
0001
1000
0100
0010
0001
,
1000
0100
1000
0001
0100
0010
0100
0001
,
1000
0000
0000
0100
0000
0000
1000
0000
0000
0001
0000
0000
0100
0000
0001
0000
0010
0000
0100
0000
1000
0000
0010
0000
,
0100
0001
1000
0100
0010
0100
1000
0001
,
0100
0001
1000
0100
0010
0100
1000
0001
,
0100
0010
0100
0001
1000
0100
0010
0001
,
1000
0100
1000
0001
0100
0010
1000
1000
,
0010
0000
0000
0000
0100
0000
0001
0000
0000
0000
0001
0000
0000
0000
0040
0030
,
0100
0000
1000
0000
0010
0000
0100
0000
0004
0003
1000
0000
0400
0300
0010
0000
,
0002
0000
0000
0000
,
0000
0000
0000
1003
,
2002
3003
0004
0003
0400
0300
0000
0000
;
