#TITLE:Heaven;
#SUBTITLE:;
#ARTIST:DJ Sammy & Yanou feat. DO;
#TITLETRANSLIT:;
#SUBTITLETRANSLIT:;
#ARTISTTRANSLIT:;
#CREDIT:;
#BANNER:../BN.png;
#BACKGROUND:../BG.png;
#LYRICSPATH:;
#CDTITLE:../CDTitleBRAEDEN.png;
#MUSIC:Heaven.OGG;
#OFFSET:-1.459;
#SAMPLESTART:77.940;
#SAMPLELENGTH:14.980;
#SELECTABLE:YES;
#BPMS:0.000=69.000,16.000=138.000,152.000=69.000,156.000=138.000,292.000=69.000,296.000=138.000,360.000=69.000,372.000=138.000,484.000=69.000;
#STOPS:;
#BGCHANGES:;
// cache tags:
#FIRSTBEAT:0.000;
#LASTBEAT:484.000;
#SONGFILENAME:Songs/Index Gradation/Heaven - [Braeden]/Heaven.SM;
#HASMUSIC:1;
#HASBANNER:1;
#MUSICLENGTH:235.126;
// end cache tags

//---------------dance-single - ----------------
#NOTES:
     dance-single:
     :
     Hard:
     16:
     1.000,1.000,0.340,0.391,1.000,1524.000,80.000,92.000,0.000,0.000:

1000
0100
0010
0001
1001
0010
0100
0000
0002
0000
0000
0000
0003
0000
1000
0010
,
0100
0000
0001
0010
0000
0010
0002
0000
2003
0000
3020
0000
1030
0000
0000
0001
,
0100
0010
1000
0010
0000
0100
0020
0000
2030
0000
3001
0000
0010
0100
1000
0002
,
0000
0000
0003
0000
,
0101
0000
0000
0000
1001
0000
0000
0000
2000
0000
0000
0010
0000
0000
0001
0000
,
3001
0000
0010
0000
0100
0000
1000
0000
0001
0000
0100
0010
0000
0010
0100
0000
,
0101
0000
0000
0000
1010
0000
0000
0000
2000
0000
0000
0100
0000
0000
0001
0000
,
3001
0000
0010
0000
0100
0000
1000
0000
0001
0000
0100
0010
0000
0010
0100
0000
,
0001
0010
0100
1000
0001
0010
0001
1000
0100
0010
0001
0010
0100
1000
0001
0100
,
0010
1000
0100
0010
0100
1000
0001
0100
0010
1000
0100
0010
0100
1000
0001
0100
,
0010
1000
0100
0010
0001
0010
0100
1000
0001
0010
0001
0100
0010
1000
0001
0010
,
0100
1000
0001
0100
0010
1000
0100
0010
0001
0010
0100
1000
0001
0100
0010
1000
0100
0010
0100
1000
0001
0010
0100
1000
0001
0100
0010
1000
0001
0010
0100
1000
,
0002
0000
0103
0000
0002
0000
0103
0010
0200
0000
0000
0320
0000
0000
1030
0000
,
0002
0000
0103
0000
0020
0000
1030
0000
0100
0010
0000
0010
0100
0000
1000
0001
,
0200
0000
0310
0000
2000
0000
3001
0001
0010
0000
0100
1000
0001
0000
0100
0000
,
0020
0000
1030
0000
0200
0000
0310
0000
0001
1000
0000
1000
0001
0000
0100
0010
,
0200
0000
0301
0000
0200
0000
0310
0000
1000
0100
0000
0100
1000
0001
0100
0010
,
1000
0001
0010
0001
1000
0100
0010
0001
0010
0100
1000
0001
0100
0010
1000
0010
,
0100
0001
1000
0100
0010
0001
0010
0100
1000
0001
0100
0010
0100
0001
0010
0001
,
1000
0100
0010
0001
1000
0100
1000
0001
0010
0100
1000
0001
0100
0010
1000
0001
0010
0001
1000
0100
0010
0100
1000
0001
0100
0010
0100
0001
1000
0010
0100
0001
,
0100
0000
0010
0000
0100
0000
0010
0000
1000
0000
0001
0100
0000
0100
0001
0000
,
1000
0000
0001
0100
0010
0000
1000
0100
0010
0000
0001
0100
0000
0100
0010
0000
,
1010
1000
0001
0100
0001
0100
0101
0010
,
1000
0001
0100
0010
1000
0100
0010
0100
,
1000
0000
0000
0000
0001
0000
0000
0000
0100
0000
0000
0000
0001
0010
0100
1000
0001
0000
0000
0000
0100
0000
0000
0000
0010
0000
1000
0000
0010
0000
0000
0000
,
0100
0000
0001
0000
0100
0000
0000
0000
0010
0000
1000
0000
0010
0000
0000
0000
0100
0000
0001
0000
0100
0010
1000
0010
1000
0000
0000
0000
0001
0000
0000
0000
,
1001
0000
0000
0000
1000
0000
0000
0000
0100
0000
0000
0000
0010
0001
1000
0100
1000
0000
0010
0000
0100
0000
0001
0000
1000
0000
0010
0000
1000
0000
0001
0000
,
0010
0001
1000
0100
0010
0001
0010
0100
1000
0001
0100
0010
1000
0100
0010
0001
,
1000
0010
0100
0001
1000
0100
0010
0100
1000
0001
0100
0010
0100
0001
1000
0100
,
0010
0000
0100
0000
1000
0000
0001
0000
0100
0000
0010
0000
1000
0000
0001
0000
0100
0000
0010
0000
1000
0001
1000
0001
0100
0000
0000
0000
0010
0000
0000
0000
,
0011
0100
1000
0000
0001
0000
1000
0100
1000
0001
0100
0000
0010
0000
1000
0100
,
1000
0001
0100
0000
0010
0000
1000
0000
0100
0010
0100
0000
1000
0000
0001
0100
,
0001
0000
0000
0000
1000
0000
0000
0000
0001
0000
0000
0000
1000
0100
0010
0001
0010
0100
1000
0001
0010
0001
1000
0100
0010
0000
0001
0000
0100
0000
0010
0000
,
0100
0000
0001
0000
1000
0000
0100
0000
1000
0000
0001
0000
0100
0000
0010
0000
1000
0000
0001
0000
0010
0000
0100
0000
1000
0000
0001
0000
1000
0010
0100
0010
,
0100
0000
0001
0000
0010
0000
0100
0000
1000
0000
0001
0000
0100
0010
0100
0010
0100
0000
0010
0000
1000
0000
0001
0000
0100
0000
0010
0000
1000
0000
0100
0000
,
1000
0000
0001
0000
0010
0000
0100
0000
1000
0000
0001
0000
0100
0000
0010
0000
1000
0000
0010
0000
1000
0001
1000
0001
1000
0000
0010
0000
0100
0000
0001
0000
,
1000
0100
1000
0100
0010
0001
0010
0001
0100
0010
0100
0010
0100
0010
1000
0100
,
0010
0001
0010
0100
1000
0001
0100
0010
1000
0100
0010
0001
1000
0010
0100
0001
,
1001
0010
0000
0000
0100
0000
0010
2000
0000
0000
3002
0000
0000
0000
0003
0000
,
2002
3003
1000
0000
2020
3030
0100
0001
0100
0000
0010
1000
0000
1000
0010
0000
,
0202
0303
0100
0000
0220
0330
0010
0000
1000
0010
0100
0000
0001
0000
1000
0001
,
2002
3003
0010
0000
2002
3003
0010
0100
0001
0000
1000
0100
0000
0100
1000
0000
,
2002
3003
0010
0000
2002
3003
0100
0000
0001
1000
0000
0010
0100
0000
0001
0000
,
2002
3003
0010
0000
2002
3003
0100
0010
0100
0000
0001
1000
0000
0010
0100
0000
,
0202
0303
0001
0000
2002
3003
1000
0000
0100
0010
0100
0000
1000
0000
0001
0100
,
0202
0303
0010
0000
2020
3030
1000
0001
0100
0000
0010
1000
0000
1000
0010
0000
,
2020
3030
1000
0000
2002
3003
0001
0000
1000
0010
0000
0010
1000
0000
0001
0000
,
1001
0000
1000
0000
1010
0000
0010
0100
0010
0000
0100
0001
0000
0001
0100
0000
,
0101
0000
0010
0000
1010
0000
1000
0000
0001
0100
0000
0100
0010
0000
1000
0000
,
2020
0000
3030
0000
0100
0000
0000
0000
0202
0000
0303
0000
0001
0000
0000
0000
2002
0000
3003
0000
0010
0000
0100
0000
0010
0000
0000
0000
1000
0100
1000
0100
,
1000
0000
0001
0000
2002
3003
0010
0000
0100
0001
0000
0001
0100
0000
0000
0000
,
0010
0001
0010
0100
1000
0001
0100
0010
0100
0001
1000
0100
0010
0001
1000
0010
,
0100
0001
0010
0100
1000
0001
0100
0010
1000
0100
0010
0100
1000
0001
0010
0100
,
1000
0001
0100
0010
0100
0001
0010
0001
1000
0100
0010
0001
0010
0100
1000
0001
,
0010
0001
0100
0010
1000
0001
0010
0100
1000
0001
0100
0010
0100
0001
0010
0001
1000
0100
0010
0100
1000
0001
0100
0010
1000
0100
0010
0001
1000
0010
0100
0001
,
0020
0000
0031
0000
0020
0000
0031
1000
0010
0000
0100
0001
0000
0001
0100
0000
,
0020
0000
1030
0000
0020
0000
0130
0000
0001
0100
0000
0100
0001
0000
1000
0000
,
0020
0000
0130
0000
0002
0000
1003
0010
0200
0000
0000
0301
0000
0000
1000
0000
,
0020
0000
0130
0000
0020
0000
0130
0000
0001
0100
0000
0010
1000
0000
0001
0000
,
2000
0000
3010
0000
0200
0000
0301
0000
1000
0100
0000
0010
0001
0000
1000
0000
,
0020
0000
0130
0000
0020
0030
0100
0000
0001
0010
0000
0010
0001
1000
0010
0100
,
0001
1000
0100
0010
0001
0010
0100
1000
0001
0100
0010
1000
0001
0010
0001
1000
,
0100
0010
0001
0010
0100
1000
0001
0010
0001
0100
0010
1000
0001
0010
0001
1000
0100
0010
0100
1000
0001
0100
0010
0100
0001
0010
0001
1000
0100
0010
0001
1000
,
0001
0000
0100
0000
1001
0000
0010
0000
1010
0000
0100
0001
0000
0001
0100
0000
,
1010
0000
0010
0000
0010
0000
0100
0000
0001
0000
0001
1000
0000
1000
0010
0000
,
0101
0000
0001
0000
0100
0000
0010
0100
0010
0000
0100
0000
0001
0000
0100
0010
,
0100
0000
0010
0000
0100
0000
0001
0000
0010
0100
0010
0000
0001
0000
0010
0100
,
0010
0000
0001
0000
0100
0000
0010
1000
0010
0000
0100
0000
0001
0000
0100
0000
,
0010
0000
1000
0000
0100
0000
1000
0000
0001
0000
0100
0000
0010
0000
0100
0000
0001
0000
1000
0000
0001
1000
0001
1000
0001
0000
0010
0000
0100
0000
1000
0000
,
0001
0100
0010
1000
0100
0010
0001
0010
0100
1000
0001
0100
0010
0100
0001
1000
,
0010
0100
0001
0010
0001
1000
0100
0010
0001
0010
0100
1000
0001
0100
0010
0100
,
0001
0010
0001
1000
0100
0010
0001
0010
0100
1000
0001
0100
0010
0100
0001
0010
,
0001
0000
1000
0000
0100
0000
0010
0000
0001
0000
0100
0000
0010
0000
1000
0000
0001
0000
0100
0000
0001
0100
0010
1000
0001
0000
0000
0000
0100
0000
0000
0000
,
1001
0100
0000
0000
0010
0000
1000
0020
0000
0000
0000
0000
0000
0000
0000
0030
,
2002
3003
0010
0000
2002
3003
1000
0010
0200
0000
0000
0301
0000
0000
0010
0000
,
2200
3300
1000
0000
2002
3003
0010
0000
0100
0001
0100
0000
0010
0000
1000
0001
,
0200
0000
0310
0000
0200
0000
0301
0000
1000
0100
0010
0001
0010
0100
1000
0000
,
1001
0000
0001
0000
0101
0000
0100
0000
0020
0000
0000
1030
0000
0000
0001
0000
,
1001
0000
1000
0000
1100
0000
0010
0001
0010
0000
0100
1000
0001
0000
1000
0000
,
1001
0000
0001
0000
0101
0000
0100
0000
0010
1000
0010
0000
0100
0000
0001
0010
,
0002
0000
0103
0000
0020
0000
1030
0100
1000
0000
0010
0100
0010
0000
1000
0000
,
0110
0000
0001
0000
1001
0000
1000
0010
0100
0000
0001
1000
0001
0000
0001
1000
,
1001
0000
0010
0000
0200
0000
0301
1000
0010
0000
0100
0001
0100
0000
0010
0000
,
1010
0000
1000
0000
1001
0000
0001
0000
0100
0010
0100
0001
1000
0000
0001
0000
,
1000
0000
0001
0100
0001
0000
1000
0010
0100
0000
0001
0100
0000
0100
0010
0000
,
1001
0000
0001
0000
0101
0000
0010
0000
1000
0100
1000
0000
0001
0000
0100
0010
,
0100
0001
1000
0010
0100
0001
0010
0001
1000
0100
0010
0001
0010
0100
1000
0001
,
0100
0010
0100
0001
0010
0100
1000
0001
0100
0010
1000
0100
0010
0001
0010
0100
,
1000
0001
0100
0010
0100
0001
0010
0001
1000
0100
0010
0001
0010
0100
1000
0001
,
0100
0010
1000
0001
0010
0100
1000
0001
0010
0001
1000
0100
0010
0001
0010
0100
1000
0001
0100
0010
0100
0001
0010
0100
1000
0001
0100
0010
1000
0001
0010
0100
,
1000
0000
0001
0100
0000
0100
0010
1000
0010
0000
0100
0001
0000
0001
0010
0001
,
0100
0000
0010
1000
0000
1000
0010
0100
0010
0000
0100
0001
0000
0001
0010
0001
,
0010
0000
0001
0100
0000
0100
0010
1000
0010
0000
1000
0010
0000
0100
0010
0100
,
0001
1000
0100
1000
0001
0010
0001
1000
0100
1000
0001
0010
0100
1000
0001
0100
,
0010
0100
0001
0010
0100
1000
0001
0100
0010
1000
0100
0010
0001
1000
0010
0100
,
0001
0010
0001
0010
0100
1000
0001
0100
0010
1000
0100
0010
0001
1000
0010
0100
,
0001
0100
0010
1000
0001
0010
0100
1000
0001
0010
0001
1000
0100
0010
0001
0010
0100
1000
0001
0100
0010
0100
0001
0010
0100
1000
0001
0010
0001
1000
0100
0010
,
0100
0000
0000
0000
1100
0000
0000
0000
1001
0000
0000
0010
0000
0000
0100
0000
,
1001
0000
0000
0000
0101
0000
0000
0000
0101
0000
0000
0010
0000
0000
1000
0000
,
1010
0000
0000
0000
0101
0000
0000
0000
0011
0000
0000
0001
0000
0000
0100
0000
,
0101
0000
0000
0000
1010
0000
0000
0000
1010
0000
0000
0010
0000
0000
1000
0000
,
0101
0000
0000
0000
0010
0000
0000
0000
1000
0000
0000
0010
0000
0000
0100
0000
,
0110
0000
0000
0000
0011
0000
0000
0000
0001
0000
0000
0100
0000
0000
0010
0000
,
0110
0000
0000
0000
1001
0000
0000
0000
0001
0000
0000
0010
0000
0000
0001
0000
,
0010
0000
0100
0000
1000
0000
0001
0000
0100
0000
0010
1000
0000
0010
0100
0000
,
0101
0000
0001
0000
1001
0000
1000
0010
0100
0000
0100
0001
0000
0100
0010
0000
,
1100
0000
1000
0000
1001
0000
0001
0100
0010
0000
1000
0100
0000
0010
0001
0000
,
1001
0000
0001
0000
0101
0000
0100
0010
0100
0000
0010
1000
0010
0000
0100
0000
,
1001
0000
0010
0000
1001
0000
1000
0100
1000
0000
0001
0100
0010
0000
0000
0000
,
1000
0100
0010
0001
1000
0100
0010
0100
1000
0001
0100
0010
0100
0001
0010
0100
,
1000
0001
0100
0010
0100
0001
0010
0001
1000
0100
0010
0001
0010
0100
1000
0001
,
0100
0010
1000
0001
0010
0100
1000
0001
0010
0001
1000
0100
0010
0001
1000
0010
,
1000
0001
0010
0100
0010
0001
0100
0010
1000
0001
0010
0100
1000
0001
0100
0010
1000
0100
0010
0001
0010
0100
1000
0001
0100
0010
1000
0001
0010
0100
1000
0001
,
1000
0000
0000
0000
0010
0000
0000
0000
0100
0000
0000
0001
0000
0000
0100
0000
,
0010
0000
0000
0000
1000
0000
0000
0000
0001
0000
0000
0010
0000
0000
0001
0000
,
0010
0000
0000
0000
0001
0000
0000
0000
0100
0000
0000
0010
0000
0000
1000
0000
,
0010
0000
0000
0000
0100
0000
0000
0000
0001
0000
0000
0010
0000
0000
0001
0000
,
1000
0100
0010
0001
0010
0100
1000
0001
0010
0001
1000
0100
0010
0001
0010
0100
,
1000
0001
0100
0010
1000
0100
0010
0100
1000
0001
0100
0010
1000
0100
0010
0001
,
0100
0010
1000
0001
0010
0100
1000
0001
0100
0010
1000
0001
0100
0010
1000
0100
,
0010
0001
1000
0100
0010
0001
1000
0010
0100
0001
0010
0001
1000
0100
0010
0100
1000
0001
0010
0100
1000
0001
0100
0010
1000
0001
0010
0100
1000
0001
0100
0001
,
0010
0000
0000
0000
;
