#TITLE:Barrel Roll [Seph];
#SUBTITLE:;
#ARTIST:S.S.H;
#TITLETRANSLIT:;
#SUBTITLETRANSLIT:;
#ARTISTTRANSLIT:;
#CREDIT:;
#BANNER:../thisandthat-bn.png;
#BACKGROUND:../thisnthat-bg.png;
#LYRICSPATH:;
#CDTITLE:;
#MUSIC:Barrel_Roll2.ogg;
#OFFSET:-0.205;
#SAMPLESTART:30.568;
#SAMPLELENGTH:12.000;
#SELECTABLE:YES;
#DISPLAYBPM:196.000;
#BPMS:0.000=196.000,61.500=392.000,63.000=300.000,64.000=200.000,65.000=180.000,65.500=150.000,65.750=196.000;
#STOPS:;
#BGCHANGES:;
// cache tags:
#FIRSTBEAT:4.000;
#LASTBEAT:566.000;
#SONGFILENAME:Songs/Seph, Gson & Shpadoinkle's Pack of This 'n That/Barrel Roll [12-13]/Barrel Roll.sm;
#HASMUSIC:1;
#HASBANNER:1;
#MUSICLENGTH:105.000;
// end cache tags

//---------------dance-single - Seph----------------
#NOTES:
     dance-single:
     Seph:
     Challenge:
     13:
     1.000,1.000,0.210,1.000,0.838,971.000,22.000,227.000,55.000,0.000:

0000
0000
0000
0000
,
1000
0000
0000
0000
,
1000
0000
0000
0000
,
0001
0000
1000
0100
1000
1100
0000
0001
,
0000
0011
0000
2000
0000
3100
0010
0000
,
MMM1
0000
0010
0200
0000
1300
0010
0000
,
M1MM
0000
0001
2000
0000
3010
1000
0000
,
MMM1
0000
0000
0000
0010
0000
0100
0000
1000
0001
1000
0001
1000
0100
1000
0001
,
1000
0001
1000
0100
0010
0001
0010
0100
1000
0100
1000
0001
2000
0000
0000
0000
,
3MM1
0000
0100
0020
0000
0000
M13M
0000
,
0001
0000
1000
0200
0000
0000
M31M
0000
,
0100
0000
1000
0100
0000
0010
0000
0011
,
0000
0100
0000
1200
0000
0310
1000
0000
,
MM1M
0000
0001
2000
0000
3100
0010
0000
,
MMM1
0000
0010
0200
0300
0100
1MMM
0000
,
1MMM
0000
0001
0200
0000
0000
0000
0000
,
0000
0000
0000
0000
0000
0000
0000
0000
0300
0000
0001
0000
0000
0000
0001
0100
,
0001
0000
1000
0100
1000
0000
0010
0100
0001
0000
0100
0001
0100
0000
0010
1000
,
0001
1000
0010
1000
0001
1000
0010
1000
0010
1000
0200
0000
0000
0300
1000
0010
,
0100
0001
1000
0001
1000
0010
1000
0001
1000
0001
1000
0010
1000
0010
0100
0001
,
0010
0100
1000
0100
0010
0001
0100
0010
1000
0001
1000
0001
0010
0100
1000
0100
,
1000
0001
1000
0100
0010
0001
1000
0010
1000
0001
1000
0001
0010
0100
1000
0001
,
1000
0100
0010
0001
0010
0100
1000
0001
1000
0001
0010
0100
1000
0001
1000
0010
,
1000
0001
1000
0001
1000
0100
1000
0001
1000
0001
1000
0100
1000
0100
0010
0001
,
0010
0100
0010
0001
0010
0100
1000
0010
0100
0001
1000
0200
0000
0000
0000
0000
,
00M0
0000
00M0
00M0
00M0
M000
0300
000M
,
0000
0000
0000
0000
0100
0000
0100
0000
1000
0000
0200
0000
0000
0300
0100
0000
,
0000
0000
0000
0000
1000
0000
1000
0000
0100
0000
0020
0000
0000
0030
0001
0000
,
0000
0000
0002
0203
2300
3200
0000
0302
,
0000
2003
0000
3200
0320
2030
0000
3020
,
0000
0032
0003
2000
3200
0320
0030
0000
,
0011
0000
0100
1000
0000
0110
0000
0000
,
0001
0000
2000
3200
0302
0203
0000
2300
,
0000
3020
0000
0032
2003
3200
0000
0320
,
0030
2000
3200
0320
0032
2003
0000
3000
,
0110
0000
0001
0000
0011
0001
0000
1000
,
0000
0000
0010
1000
0100
1200
0000
0310
,
0001
0000
1000
0000
0001
0010
0001
0000
0020
0000
0230
0000
0000
0000
2300
0000
,
3000
2000
3020
0032
0023
2030
0000
0000
,
00M0
0000
000M
3000
M100
0020
0000
0000
,
0000
0000
0000
0000
0030
0000
0000
0000
0001
0000
0000
0000
1000
0000
0000
0000
0001
0000
0000
0000
0200
0000
0000
0000
0300
0000
0000
0000
0200
0300
0000
0000
,
0200
0000
0000
0000
0300
0000
0000
0000
0001
0000
0000
0000
1000
0000
0000
0000
0001
0000
0000
0000
0200
0000
0000
0000
0300
0000
0000
0000
0200
0300
0000
0000
,
0200
0300
0001
1000
0100
2000
0000
3000
,
1000
0000
0000
0000
0010
0000
0110
0000
0000
0000
0020
0000
1030
0100
0010
0001
,
1000
0000
0000
0000
0001
0000
0000
0000
1000
0000
0000
0000
0001
0000
0000
0000
0010
0000
0000
0000
0100
0000
0000
0000
1000
0000
0000
0000
0001
0000
0000
0000
1000
0000
0000
0000
0000
0000
0000
0000
2002
3003
0000
0000
0000
0000
0000
0000
0000
0000
0000
0000
0000
0000
0000
0000
0000
0000
0000
0000
0000
0000
0000
0000
,
2MMM
0000
0000
0000
0000
3M2M
0000
0000
,
0000
0000
0032
0023
2030
3200
0000
2300
,
3002
0000
0013
0120
0000
0230
0000
0310
,
0012
0000
0000
0000
0000
0000
0000
0000
1003
0000
0000
0000
1100
0000
0000
0000
0000
0000
0000
0000
2000
3000
0000
0000
0000
0000
0000
0000
0000
0000
0000
0000
,
2MMM
0000
0000
0000
0000
3M2M
0000
0000
,
0000
0000
0032
0023
2030
3200
0300
0000
,
2000
0000
3001
0000
1000
1100
0000
M1MM
,
0000
0000
1000
0100
0010
0002
0000
1003
,
0001
1000
0010
1000
0001
2000
0000
3100
,
0010
0000
0000
0000
0000
0000
0002
0000
0000
0000
0000
0000
0003
0000
0000
0000
0000
0000
0002
0000
0000
0003
0000
0000
0000
0000
0000
0000
0100
0000
0020
0000
0000
0000
0000
0000
0000
0000
0000
0000
0000
0000
0000
0000
0000
0000
0000
0000
,
0M00
0000
0M00
0000
2030
3200
0000
0000
,
00M0
0000
0000
0000
13M0
0000
0001
0000
1000
0000
0020
0000
0000
0030
1000
0100
,
1000
0000
0001
1000
0001
0000
0100
0001
0100
0000
0002
0000
0000
0000
1003
0100
,
1000
0010
0100
0001
1000
0200
0000
0000
,
0000
0000
0000
0000
0000
0000
0000
0000
1300
0100
0020
0000
0000
0000
0000
0000
,
MM31
0000
0000
0000
0000
0000
0000
0000
2000
3000
0000
0000
0200
0300
0000
0000
0020
0030
0000
0000
0002
0000
0000
0000
0000
0000
0000
0000
0013
0000
0000
0000
,
1000
0020
0000
0031
0100
2000
0000
3100
,
0010
0002
0000
0013
0100
2000
0000
3100
,
0001
0000
0000
0000
2000
0000
0000
0000
0000
0000
0000
0000
3100
0000
0000
0000
0010
0000
0000
0000
0002
0000
0000
0000
0003
0000
0000
0000
0002
0003
0000
0000
,
0020
0030
0001
0010
0001
0020
0000
0130
,
0010
0000
0002
0000
0003
0000
0010
0001
0010
0000
0002
0000
0003
0000
1000
0100
,
0010
0000
0001
0000
0000
0000
0001
0100
0001
0000
0002
0000
0000
0000
1003
0000
,
0001
1000
0010
1000
0001
2000
0000
0000
,
3000
0000
0001
0010
0100
2000
0000
3100
,
0001
0200
0000
1300
0010
0002
0000
0013
,
0100
2000
0000
3100
0010
0002
0000
0013
,
1000
0000
0000
0000
0002
0000
0000
0000
0000
0000
0000
0000
0013
0000
0000
0000
0100
0000
0000
0000
2000
0000
0000
0000
3000
0000
0000
0000
2000
3000
0000
0000
,
0200
0300
1000
0100
0010
0200
0000
0310
,
0100
0000
0000
0000
1000
0000
0000
0000
0000
0000
0000
0000
0100
0000
1000
0000
0100
0000
0000
0000
2000
3000
0000
0000
0000
0000
0000
0000
2000
3000
0000
0000
,
0000
0000
0000
0000
2000
3000
0000
0000
0000
0000
0000
0000
0020
0030
0000
0000
0000
0000
0000
0000
2000
0000
0000
0000
0000
0000
0000
0000
0000
0000
0000
0000
,
3002
0000
0000
0000
0013
0100
1000
0000
0100
0000
2000
0000
0000
0000
3001
0000
,
0011
0000
0001
1000
0001
0002
0000
1003
,
0001
1000
0010
1000
0100
1000
0001
1000
,
0010
1000
0001
1000
0100
1000
0010
1000
,
0001
0000
1000
0000
0100
0000
0010
0000
0001
0000
2000
0000
0000
3000
0001
0010
,
0001
1000
0100
1000
0001
0002
0000
0013
,
0100
1000
0001
0010
0100
1000
0100
0010
,
0001
0000
1000
0000
0100
0000
0010
0000
0001
0010
0002
0000
0000
0003
0001
0000
,
0010
0100
1000
1000
0100
2000
3000
1000
,
0001
0000
1000
0000
0001
0000
1000
0000
0100
0000
1000
0000
0000
0000
0100
1000
,
0100
0000
1000
0001
1000
0000
0001
0010
0001
0000
0010
0100
0010
0000
0100
1000
,
0100
0000
1000
0100
1000
0100
1000
0001
1000
0001
1000
0100
0010
0001
0010
0100
,
1000
0000
0000
0100
0000
0000
1000
0000
0000
0001
0000
0000
1000
0000
0000
0001
0000
0000
1000
0000
0000
0001
0000
0000
0010
0000
0000
0100
0000
0000
1000
0000
0000
0100
0000
0000
2000
0000
0000
0000
0000
0000
0000
0000
3200
0000
0000
0000
,
0000
0000
0000
0000
0320
0000
0000
0000
0000
0000
0000
0000
0032
0000
0000
0000
0000
0000
0000
0000
0000
0000
0000
0000
1000
0000
0000
0103
0000
0000
2000
0000
0000
0000
0000
0000
0000
0000
0000
0000
0000
0000
3100
0000
0000
0010
0000
0000
,
1001
0000
0100
0000
1000
0000
0100
0000
0010
0000
0002
0000
0000
0000
0103
0010
,
1000
0001
1000
0100
1000
0020
0000
0000
,
0000
0000
0000
0000
0000
0000
0000
0000
0000
0000
0000
0000
0000
0000
0000
0000
0000
0000
0000
0000
0000
0000
0000
0000
0000
0000
0000
0000
0000
0000
0000
0000
0000
0000
0000
0000
0000
0000
0000
0000
0000
0000
0000
0000
0000
0000
0000
0000
0000
0000
0000
0000
0000
0000
0000
0000
0000
0000
0000
0000
0000
0000
0000
0000
0000
0000
0000
0000
0000
0000
0000
0000
0000
0000
0000
0000
0000
0000
0000
0000
0000
0000
0000
0000
0000
0000
0000
0000
0000
0000
0000
0000
0000
0000
0000
0000
1030
0000
0000
0000
0000
0000
0000
0000
0001
0000
0000
0000
0000
0000
0000
0000
1000
0000
0000
0000
0000
0000
0000
0000
0002
0000
0000
0000
0000
0000
0000
0000
0000
0000
0000
0000
0000
0000
0000
0000
0000
0000
0000
0000
0000
0000
0000
0000
0003
0000
0000
0000
0000
0000
0000
0000
0000
0000
0000
0000
0000
0000
0000
0000
0000
0000
0000
0000
0000
0000
0000
0000
0002
0000
0000
0000
0000
0000
0003
0000
0000
0000
0000
0000
0000
0000
0000
0000
0000
0000
0000
0000
0000
0000
0000
0000
,
0002
0003
0000
0000
0000
0000
0000
0000
2000
3000
0000
0000
0200
0300
0000
0000
0020
0030
0000
0000
0002
0000
0000
0000
0000
0000
0000
0000
0013
0000
0000
0000
,
0001
0020
0000
0031
0100
2000
0000
3100
,
0010
0002
0000
0013
0100
2000
0000
3100
,
0001
0000
0000
0000
2000
0000
0000
0000
0000
0000
0000
0000
3100
0000
0000
0000
0010
0000
0000
0000
0002
0000
0000
0000
0003
0000
0000
0000
0002
0003
0000
0000
,
0020
0030
0001
0010
0100
0020
0000
0130
,
1000
0000
0002
0000
0003
0000
1000
0010
1000
0000
0002
0000
0003
0000
0010
0001
,
0010
0000
0001
0000
0000
0000
0010
0001
0100
0000
0002
0000
0000
0000
1003
0000
,
0001
1000
0010
1000
0001
2000
0000
0000
,
3000
0000
0001
0010
0100
2000
0000
3100
,
0001
0200
0000
1300
0010
0002
0000
0013
,
0100
2000
0000
3100
0010
0002
0000
0013
,
1000
0000
0000
0000
0002
0000
0000
0000
0000
0000
0000
0000
0013
0000
0000
0000
0100
0000
0000
0000
2000
0000
0000
0000
3000
0000
0000
0000
2000
3000
0000
0000
,
0200
0300
1000
0100
1000
0200
0000
0310
,
0100
0000
0000
0000
2000
0000
0000
0000
3000
0000
0000
0000
0100
0000
1000
0000
0010
0000
0000
0000
2000
3000
0000
0000
0000
0000
0000
0000
2000
3000
0000
0000
,
0000
0000
0000
0000
2000
3000
0000
0000
0000
0000
0000
0000
0020
0030
0000
0000
0000
0000
0000
0000
2000
0000
0000
0000
0000
0000
0000
0000
0000
0000
0000
0000
,
3002
0000
0000
0000
0003
0000
0100
0000
0010
0000
2000
3001
1000
0001
1000
0010
,
1000
0010
1000
0100
1000
0100
1000
0001
1000
0000
2100
0000
0000
0000
3100
0000
,
0010
0002
0000
0013
0100
2000
0000
3010
,
0001
0020
0000
0130
0001
2000
0000
3100
,
0001
0000
0000
0000
0200
0000
0000
0000
0000
0000
0000
0000
1300
0000
0000
0000
0010
0000
0000
0000
0002
0000
0000
0000
0003
0000
0000
0000
0002
0003
0000
0000
,
0020
0000
1030
0100
1000
0020
0030
0010
,
1000
0000
0002
0000
0000
0000
1003
0100
1000
0000
0002
0000
0003
0000
0010
0001
,
0010
0200
0300
1000
0100
1000
0000
1000
,
0001
1000
0010
1000
0001
2000
0000
0000
,
3000
0000
0001
0010
0100
2000
0000
3100
,
0001
0200
0000
1300
0010
0002
0000
0013
,
0100
2000
0000
3100
0010
0002
0000
0013
,
1000
0000
0000
0000
0002
0000
0000
0000
0000
0000
0000
0000
0013
0000
0000
0000
0100
0000
0000
0000
2000
0000
0000
0000
3000
0000
0000
0000
2000
3000
0000
0000
,
0200
0300
1000
0001
1000
0200
0000
0310
,
0100
0000
0000
0000
2000
0000
0000
0000
0000
0000
0000
0000
3001
0000
0010
0000
0001
0000
0000
0000
2000
0000
0000
0000
3000
0000
0000
0000
0200
0300
0000
0000
,
0000
0000
0000
0000
0020
0030
0000
0000
0000
0000
0000
0000
0002
0003
0000
0000
0000
0000
0000
0000
2000
0000
0000
0000
0000
0000
0000
0000
0000
0000
0000
0000
,
3020
0000
0000
0000
0000
0000
0130
0000
0010
0000
1000
0100
0010
0001
1000
0100
,
1000
0100
1000
0001
1000
0010
1000
0001
1000
0001
0200
0000
0000
0000
0301
0000
,
0100
0010
1000
0001
1000
0001
0010
0100
,
1000
0000
0010
0000
0001
0000
0010
0000
1000
0000
2000
0000
0000
0000
3100
0010
,
0001
1000
0010
1000
0010
1000
0001
1000
0001
1000
0100
1000
0100
1000
0100
0010
,
0001
0010
0001
0010
0001
1000
0001
1000
0001
0010
0100
2000
0000
0000
3100
1000
,
0100
1000
0100
1000
0001
1000
0001
1000
0010
1000
0010
1000
0100
0010
0001
1000
,
0100
1000
0001
1000
0100
1000
0001
0010
0100
1000
0100
1000
0100
1000
0001
1000
,
0001
1000
0100
0010
0002
0000
0023
0000
0230
0000
2300
0000
3000
0000
1000
0000
,
1100
1000
0000
1000
0000
0020
0000
0030
,
0020
0000
0000
0000
0000
0000
0000
0000
1030
0000
0000
0000
0001
0000
0000
0000
1000
0000
0000
0000
0020
0000
0000
0000
0030
0000
0000
0000
0020
0030
0000
0000
,
0020
0000
1030
0100
0010
0001
0000
0001
,
0010
0100
1000
0001
1000
0001
1000
0010
,
1000
0100
1000
0010
1000
0002
0003
0001
,
0001
1000
0001
1000
0001
2000
3000
1000
,
1000
0010
0001
0010
1000
0200
0300
1100
,
0200
0000
0000
0000
0310
0000
0011
0000
0002
0000
1003
0100
0010
0001
1000
0010
,
1000
0010
1000
0001
1000
0001
0010
0100
1000
0000
2200
0000
0000
0000
0000
0000
,
0000
0000
0000
0000
3300
0000
1000
0100
0010
0000
0000
0000
0000
0000
0000
0000
;
