#TITLE:Storming the Burning Fields;
#SUBTITLE:;
#ARTIST:Dragonforce;
#TITLETRANSLIT:;
#SUBTITLETRANSLIT:;
#ARTISTTRANSLIT:;
#CREDIT:;
#BANNER:stormingtheburningfields-bn.PNG;
#BACKGROUND:stormingtheburningfields-bg.PNG;
#LYRICSPATH:;
#CDTITLE:OMEGAspike.PNG;
#MUSIC:03-dragonforce-storming_the_burning_fields-qtxmp3.mp3;
#OFFSET:-0.800;
#SAMPLESTART:100.000;
#SAMPLELENGTH:11.940;
#SELECTABLE:YES;
#BPMS:0.000=200.001,873.000=100.001,903.000=200.001;
#STOPS:95.000=1.200
,668.000=4.500
;
#BGCHANGES:;
// cache tags:
#FIRSTBEAT:4.000;
#LASTBEAT:999.250;
#SONGFILENAME:Songs/keyboard/(OMEGAspike)Storming the Burning Fields/03-dragonforce-storming_the_burning_fields-qtxmp3.sm;
#HASMUSIC:1;
#HASBANNER:1;
#MUSICLENGTH:319.791;
// end cache tags

//---------------dance-single - ----------------
#NOTES:
     dance-single:
     :
     Hard:
     12:
     1.000,1.000,1.000,0.303,1.000,2359.000,578.000,97.000,0.000,71.000:
0000
0000
0000
0000
,
1010
0000
0101
0000
,
1001
0000
1100
0000
,
0202
0000
0000
0000
,
0000
0000
0010
1303
,
0001
0100
0001
0100
0001
0100
0001
0100
0010
1000
0010
1000
0010
1000
0010
1000
,
0001
0100
0010
1000
0001
0100
0010
1000
0001
0010
0100
1000
0001
0010
0100
1000
,
0001
1000
0001
1000
0001
1000
0001
1000
0100
0010
0100
0010
0100
0010
0100
0010
,
1001
1100
0110
0011
0220
0000
0000
0330
,
1000
0010
0100
0001
0100
0010
1000
0001
1000
0010
0100
0001
0100
0010
1000
0001
,
1000
0100
0010
0001
0010
0100
1000
0001
1000
0100
0010
0001
0010
0100
1000
0001
,
1000
0100
0010
0001
1000
0100
0010
0001
1000
0100
0010
0001
1000
0100
0010
0001
,
2200
0000
0000
0000
0000
0000
0000
3300
,
1000
0010
0100
0001
0100
0010
1000
0001
1000
0010
0100
0001
0100
0010
1000
0001
,
1000
0100
0010
0001
0100
0010
1000
0001
1000
0100
0010
0001
0100
0010
1000
0001
,
1000
0100
1000
0100
1000
0100
1000
0100
0010
0001
0010
0001
0010
0001
1000
0100
,
2000
0100
0100
0100
0100
0100
0100
3100
,
1000
0100
0010
0001
0010
0100
1000
0001
1000
0100
0010
0001
0010
0100
1000
0001
,
1000
0010
0100
0001
0100
0010
1000
0001
1000
0010
0100
0001
0100
0010
1000
0001
,
1000
0000
0000
0010
0000
0000
0100
0000
0000
0001
0000
0000
0100
0000
0000
0010
0000
0000
1000
0000
0000
0100
0000
0000
0011
0000
0000
0000
0000
0000
0000
0000
1010
0000
0000
0000
0000
0000
0000
0000
1100
0000
0000
0000
0000
0000
0000
0000
,
0101
1000
0100
1000
0100
1000
0100
1000
0100
1000
0100
1000
0100
1000
0100
1000
,
0101
0000
1100
0000
,
0102
0100
0100
0103
,
0110
0000
0000
1001
0000
0000
1001
0000
,
1100
0000
0101
0000
0110
0000
1100
1100
,
0000
0110
0000
0101
0101
0000
2020
0000
,
3131
0000
1100
0000
0101
0000
1010
0101
,
0000
0110
0000
1100
0011
0000
2200
0000
,
3311
0000
1100
0011
0000
0101
0000
1100
,
0000
0011
0000
1100
0110
0000
0011
1100
,
0101
1010
0101
0110
,
2001
0000
0120
0000
,
3131
0010
1010
0100
0011
0001
1100
1100
,
0100
0010
0011
0100
1100
1000
0101
0001
,
1010
0100
0110
0101
1000
0100
0101
1000
,
0101
0010
0100
1100
0001
1000
0010
0100
,
0101
0010
1100
0011
1000
0001
1010
0100
,
0110
1000
0011
1100
0010
0001
0101
1000
,
1100
0010
0011
1100
0100
0010
0101
0001
,
2100
0000
0000
0102
0000
0000
0000
0000
,
3113
0101
1010
0101
1100
0000
0101
1010
,
0000
0101
1100
0110
,
0101
0000
0000
1100
,
0101
0000
0101
1100
0000
0000
0000
0000
,
0110
1100
0110
0011
0110
1010
0101
0110
,
1010
0101
0011
1100
0110
1001
0101
1010
,
1000
0100
0010
0001
0010
0100
1000
0100
0010
0001
0010
0100
1000
0100
0010
0001
,
0110
0000
0110
1010
,
0101
0000
1100
0101
1100
0000
0000
0000
,
0011
0000
1001
0110
1001
0000
0000
0000
,
1100
0000
0011
1100
0110
0000
0011
0000
,
2100
0000
0100
0010
0001
0000
0100
0010
,
3101
0000
1010
0101
1010
0000
0000
0000
,
0011
0000
1100
0011
1100
0000
0000
0110
,
0110
0110
1001
1001
0101
0000
0110
0000
,
1100
0001
0100
0010
1000
0000
0000
0000
0001
0010
0100
1000
0100
0000
0000
0000
,
2001
0110
0011
0101
,
3101
1000
0100
0010
0001
0100
0010
1000
0001
0100
0010
1000
0001
0100
0010
1000
,
0001
1000
0100
0010
0001
0100
0010
1000
0001
0010
0100
1000
0010
0100
0001
1000
,
0001
0100
0010
1000
0001
0010
0100
1000
0010
0100
0001
1000
0100
0010
0001
0100
,
0010
1000
0001
0100
0001
1000
0100
1000
0001
0100
0010
1000
0010
0100
0001
1000
,
0100
0010
0001
0100
0010
1000
0001
0100
0010
1000
0100
0010
0001
0100
0010
1000
,
0001
0010
0100
1000
0001
1000
0100
0010
0001
1000
0001
0010
0100
1000
0010
1000
,
0101
1000
0100
0010
0001
0100
0010
1000
0100
0010
0001
0100
,
1010
0100
0001
1000
0100
0010
0100
0001
1000
0001
0100
0010
,
0101
1000
0010
0100
0001
1000
0010
0100
0001
1000
0100
0010
0001
1000
0100
0010
,
0001
0100
0001
0100
0010
1000
0010
1000
0001
0100
0001
0100
0010
1000
0010
1000
,
0001
0010
0100
1000
0010
0100
0001
1000
0100
0010
0001
0100
0010
1000
0001
1000
,
0001
0100
0001
0100
0010
1000
0010
1000
0001
0100
0001
0100
0010
1000
0010
1000
,
0001
0010
0100
1000
0010
0100
0010
1000
0100
0010
0001
0100
0010
0100
0001
0010
,
0100
1000
0001
0100
0010
1000
0001
1000
0010
0100
0001
1000
0001
0010
0100
1000
,
0101
1000
0010
0100
0001
1000
0001
0100
0010
1000
0100
1000
,
2001
0001
0010
0100
,
3010
0100
1000
0010
0100
0001
2000
0000
3001
0100
0010
1000
0001
0100
0010
1000
,
0100
0010
0001
0100
0010
1000
0001
0100
0010
1000
0001
0100
0020
0000
0000
0000
,
1030
0100
1000
0100
1000
0100
1000
0100
1000
0100
1000
0100
1000
0100
1000
0100
,
0011
1100
0101
2020
,
3031
0100
0001
0100
0001
0100
0002
0000
1003
0100
1000
0100
1000
0100
2000
0000
,
3001
0010
0100
1000
0010
0100
0002
0000
1003
0010
0100
0001
1000
0100
0020
0000
,
1130
0110
0000
0011
0000
1100
0000
0110
,
1001
0110
0000
2002
0000
0000
0000
0000
,
3113
1100
0000
0101
0000
1100
0101
1010
,
0101
0110
1100
0101
0000
2002
0000
0000
,
3113
0101
1010
0101
0000
0110
0000
0110
,
1001
0000
0101
0000
1100
0110
0022
0000
,
1133
0110
1100
0101
0000
1100
0000
0110
,
0000
1100
0110
0011
0110
1100
0110
0011
,
1000
0100
1000
0100
1000
0100
0010
0001
0010
0001
0010
0001
1000
0100
1000
0100
,
1000
0100
1000
0100
0010
0001
0010
0001
0010
0001
0010
0001
0010
0001
0010
0001
,
1100
0000
1100
0000
0110
0000
0101
1100
,
0000
1100
0000
0101
0101
0000
2020
0000
,
3131
0000
1010
0000
0011
0000
1100
1100
,
0000
0011
0000
1100
0110
0000
2002
0000
,
3113
0101
1100
0000
0011
0000
1100
0110
,
0000
0101
0000
1010
0101
0000
1100
0101
,
1100
0101
0110
1001
,
0102
0000
2100
0000
,
3113
1000
0101
1000
0101
1000
0110
0101
,
1000
0010
1100
0010
1100
0010
0110
0100
,
0110
1000
1010
1001
0001
0100
0101
0010
,
1010
0100
0001
1100
0001
0010
0100
1000
,
1100
0010
1010
0101
0010
0100
1100
0010
,
1100
0001
1100
1001
0010
1000
0101
0100
,
1010
0001
0101
1010
1000
0010
0101
0100
,
2010
0000
0000
0102
0000
0000
0000
0000
,
3113
0101
1010
0110
1001
0000
0110
1001
,
0000
0101
0101
1010
,
0101
0000
0000
1100
,
0101
0000
0110
1001
0000
0000
0000
0000
,
1100
1100
1100
1100
0011
0011
0011
0011
,
0110
0110
0110
0110
1001
1001
1001
1001
,
2002
0000
0000
0000
,
3003
0000
0101
1010
,
1100
0000
0011
1100
0011
0000
0000
0000
,
1010
0000
0011
0110
1100
0000
0000
0000
,
0011
0000
1100
0110
0011
0000
0110
0000
,
2001
0000
0001
0010
0100
0000
0001
0100
,
3011
0000
1100
0110
0011
0000
0000
0000
,
0101
0000
1010
0101
0110
0000
0000
0110
,
1100
0011
0110
1010
0101
0000
0110
0000
,
1010
0001
0010
0100
1000
0010
0100
0001
1000
0100
0010
0001
0100
0010
1000
0001
,
1020
1100
0101
1001
,
0131
1000
0100
0010
0001
0100
0010
1000
0001
0100
0010
1000
0001
0100
0010
1000
,
0001
0010
0100
1000
0010
0100
0001
0100
0010
1000
0001
1000
0010
0100
0001
0100
,
0010
1000
0100
0010
0001
0100
0010
1000
0010
0100
0001
1000
0001
0100
0010
1000
,
0010
0100
0001
1000
0100
0010
0001
1000
0001
0010
0100
1000
0001
1000
0100
0010
,
0001
1000
0001
1000
0001
1000
0001
1000
0100
0010
0100
0010
0100
0010
0100
0010
,
0001
1000
0100
0010
0001
0100
0010
1000
0001
0100
0010
1000
0001
1000
0100
0010
,
1001
0100
0010
0001
1000
0010
0100
0001
1000
0010
0100
0001
,
1100
0001
0010
0100
1000
0010
0100
0001
1000
0010
0100
0001
,
1100
0001
0010
0100
1000
0010
0100
0001
1000
0010
0100
0001
1000
0001
1000
0001
,
1000
0100
1000
0100
0010
0001
0010
0001
1000
0100
1000
0100
0010
0001
0010
0001
,
1000
0010
0100
0001
0100
0010
1000
0001
1000
0010
0100
0001
0100
0010
1000
0001
,
1000
0100
1000
0100
0010
0001
0010
0001
1000
0100
1000
0100
0010
0001
0010
0001
,
1000
0100
0010
0001
1000
0001
0010
0100
1000
0001
1000
0100
0010
0001
1000
0100
,
0010
0001
0100
0010
1000
0001
0100
0010
1000
0001
0010
0100
1000
0001
0010
0100
,
1001
1001
0110
0110
0101
0101
1010
1010
,
2001
0001
0010
0100
,
3110
0000
0000
1100
0011
0000
0000
1100
,
0011
0110
1100
0000
1001
0000
0110
1001
,
0000
0101
1010
0000
0101
1010
0011
1100
,
0101
0011
1100
0011
1100
0011
0110
0101
,
1010
1001
0101
0110
1100
0011
1100
0101
,
2010
0000
0102
0000
,
0000
0000
0000
0000
,
3203
0000
0000
0000
0000
0000
0002
0023
,
2030
0000
0000
0000
,
3301
0010
0100
1000
0100
0010
0001
0010
0100
1000
0100
0010
0001
0010
0100
1000
,
0100
0010
0001
0010
1001
0000
0110
0000
1001
0000
0000
0000
0000
0000
0000
0000
,
1000
0100
0010
0001
0010
0100
1000
0100
0010
0001
0010
0100
1000
0100
0010
0001
,
0010
0100
1000
0100
1001
0000
0101
0000
1010
0000
0010
0000
0010
0000
0010
0000
,
1000
1000
1000
0100
0100
0100
0010
0010
0010
0001
0001
0001
,
1000
1000
1000
0100
0100
0100
0010
0010
0010
0001
0001
0001
,
1000
0100
0010
0001
0100
0010
1000
0100
0010
0001
0100
0010
,
0001
0001
0001
0100
0100
0100
0010
0010
0010
1000
1000
1000
,
0101
1010
0101
1000
0100
0010
0001
0100
,
0010
1000
0110
1001
0110
0001
0010
0100
,
1000
1000
1000
1000
0001
0000
0100
0000
0001
0000
0100
0000
0010
0000
1000
0000
,
0100
0010
0101
1010
0101
1000
0010
0100
,
0001
0001
0001
0001
0001
0001
0100
0100
0100
0100
0100
0100
,
0010
0010
0010
0010
0010
0010
1000
1000
1000
1000
1000
1000
,
0001
0001
0001
0001
0001
0001
0010
0010
0010
0010
0010
0010
,
0100
0100
0100
0100
0100
0100
1000
1000
1000
1000
1000
1000
,
0001
0001
0001
0001
0001
0001
0100
0100
0100
0100
0100
0100
,
0010
0010
0010
0010
0010
0010
1000
1000
1000
1000
1000
1000
,
0010
0010
0010
0010
0010
0010
0100
0100
0100
0100
0100
0100
,
0001
0001
0001
0001
0001
0001
1000
1000
1000
1000
1000
1000
,
0101
0000
1010
0101
0000
0000
0110
0000
,
0000
0000
0000
0000
1000
0100
0010
0000
0001
0100
0010
0000
1000
0100
0010
0000
,
0001
0100
0010
0000
1100
0000
0000
0000
0011
0000
0000
0000
0110
0000
0000
0000
,
1001
0102
0000
2000
,
3200
0000
1313
0101
,
1010
0100
0101
0000
0000
0100
0110
0000
,
2002
0000
3113
0101
,
1010
0000
0101
1010
0101
1010
1100
0011
,
1100
0011
1100
1100
0011
0011
1001
1001
,
0110
1001
0110
0110
0102
2100
0000
0000
,
0000
0000
3113
0110
0110
0110
0011
0011
,
0011
0011
1100
1100
1100
1100
1100
0011
,
1100
0000
0000
0000
0001
0010
0100
1000
0010
0100
0010
0100
0001
0010
0100
1000
,
0010
0100
0010
0100
0001
1000
0100
0010
0001
1000
0001
0010
0100
1000
0100
0010
,
0002
0000
0000
0000
1003
0100
0010
0001
0100
0010
1000
0100
0010
0001
0100
0010
,
1000
0100
0010
0001
1000
0010
0100
0001
0100
0010
1000
0001
0100
0010
1000
0010
,
0100
0001
1000
0100
0010
0001
0100
0010
1000
0001
0100
0010
1000
0001
1000
0100
,
0010
0001
0100
0010
1000
0100
0010
0001
0100
0010
1000
0001
0100
0001
0100
0010
,
1000
0010
1000
0001
1100
0000
0110
0000
1100
0000
1100
0000
0101
0000
1010
0000
,
0102
0000
0000
0000
1003
0100
1000
0000
1100
0000
0101
0000
1010
0000
0101
0000
,
2010
0000
3101
1010
0110
0101
1010
0110
,
0011
1100
0011
1001
1100
0101
2010
0000
,
0000
0000
0000
0000
3001
0100
0001
0100
0001
0100
0001
0100
0001
1000
0100
0010
,
0002
0000
0000
0000
1003
0100
1000
0100
1000
0100
1000
0100
1000
0001
0010
0100
,
2000
0000
0000
0000
3001
0100
0010
1000
0001
0010
0100
1000
0001
0100
0010
1000
,
0010
0000
0000
0100
0000
0000
0001
0000
0000
1000
0000
0000
0100
0000
0000
0010
0000
0000
0001
0000
0000
0100
0000
0000
0010
0000
0000
1000
0000
0000
0010
0000
0000
0100
0000
0000
0001
0000
1000
0000
0001
0000
1000
0000
0000
0000
0000
0000
,
0101
0000
1100
0000
0001
0010
0100
1000
0001
0010
0100
1000
0001
0100
0010
1000
,
0001
0100
0010
1000
0001
0100
0010
1000
0010
0100
0001
1000
0010
0100
0001
1000
,
0002
0000
0000
0000
1013
0000
1000
0100
1000
0000
0101
1000
0100
0010
0001
0100
,
0010
1000
0001
1000
0010
0100
0001
0010
1100
0000
1100
0000
0011
0000
0000
0000
,
1000
0001
1000
0001
2000
0000
0000
0000
3001
0000
0010
0000
0100
0000
1000
0000
0010
0000
0100
0000
0001
0000
1000
0000
0010
0000
0100
0000
0001
0000
1000
0000
,
0100
0010
0001
0100
0010
1000
0001
0010
0100
1000
0010
0100
0001
1000
0100
0010
,
0002
0000
0000
0000
1003
0100
0010
0001
0100
0010
1000
0001
0110
0000
1001
0000
,
0210
0000
0000
0000
0301
0010
0100
1000
0100
0010
0001
0010
0100
1000
0100
1000
,
0100
1000
0100
1000
0100
0010
0001
0010
0100
1000
0100
0010
0001
0010
0100
1000
,
0100
0010
0001
0010
1100
0000
0000
0000
0110
0000
0101
0000
0000
0000
0000
0000
,
0110
1001
0000
1100
0000
0101
0101
0000
,
1010
0000
0102
0000
0000
1200
0000
0000
,
2313
3102
0000
0000
,
0000
0000
0000
0000
1003
0100
0010
0001
0100
0010
1000
0001
0010
0100
1000
0010
,
0100
0001
1000
0100
0010
0001
0100
0010
1000
0001
1000
0001
0010
0100
1000
0010
,
0100
0001
1000
0001
1100
0000
1100
0000
0110
0000
0110
0000
0011
0000
0011
0000
,
0110
0000
0000
0110
0000
0000
0001
0100
0001
0100
0000
0000
0010
1000
0010
1000
0000
0000
0001
1000
0001
1000
0000
0000
,
0010
0000
0100
0000
0010
0000
0100
0000
0000
0000
0000
0000
0001
0000
0000
0010
0000
0000
0100
0000
0000
1000
0000
0000
0001
0000
0000
1000
0000
0000
0100
0000
0000
0010
0000
0000
0001
0000
0000
1000
0000
0000
0001
0000
0000
0010
0000
0000
,
0100
1000
0100
0010
0001
0100
0001
0100
0010
1000
0010
1000
0001
0010
0100
1000
,
0010
0100
0001
1000
0101
0000
0101
0000
0101
0000
0101
0000
1010
0000
1010
0000
,
1010
1010
0110
0101
0110
1010
0110
1001
,
2200
0000
3311
1100
0011
1100
0000
1100
,
0011
0000
1100
0000
0001
0010
0100
1000
0001
0010
0100
1000
0002
0000
0000
0000
,
0000
0000
0000
0000
1003
0100
0010
0001
0100
0010
1000
0001
0100
0010
1000
0001
,
0010
0100
1000
0001
1100
0000
0011
0000
0101
0000
1010
0000
0110
0000
1001
0000
,
0110
0000
1001
0000
0102
0000
0000
2013
0000
0000
3210
0000
1302
0000
0000
0000
,
0000
0000
0000
0000
1023
0000
0000
1230
0000
0000
2310
0000
3210
0000
0000
0000
,
0321
0000
0000
0000
2031
0000
0000
3102
0000
0000
2103
0000
3120
0000
0000
2001
,
0030
3120
1032
0000
0000
0000
0000
0000
,
0000
0000
1103
0010
0101
0010
1000
0100
,
0101
1000
0010
0100
1010
0100
0001
1000
,
0101
1000
0010
0100
0011
1000
0100
0010
,
0011
0100
2100
0000
0000
0000
3102
0000
,
1100
0000
0000
0000
1100
0000
0000
0000
1100
0000
0000
0000
1013
0100
0010
0001
,
1000
0010
0100
0001
1000
0100
0010
0001
0100
0010
1000
0001
0010
0100
1000
0010
,
0100
0001
1000
0100
0010
0001
0100
0010
1000
0010
0100
0001
1000
0100
0010
0001
,
0100
0010
1000
0010
0100
0001
0010
0100
1000
0010
0100
0001
0100
0010
1000
0001
,
1000
0010
0100
0001
0100
0010
1000
0100
0010
0001
1000
0010
0100
0001
1000
0010
,
0100
0001
1000
0100
0010
0001
0100
0010
1000
0001
0010
0100
1000
0010
0100
0001
,
1000
0000
0000
0100
0000
0000
0010
0000
0000
0001
0000
0000
0100
0000
0000
0010
0000
0000
1000
0000
0000
0010
0000
0000
0100
0000
0000
0001
0000
0000
1000
0000
0000
0001
0000
0000
1100
0000
0000
0000
0010
0000
0000
0000
0001
0000
0000
0000
,
0100
0010
1000
0010
0100
0001
1000
0010
0100
1010
0100
0001
,
0010
0000
0000
0000
0100
0000
0000
0000
1000
0000
0000
0000
0010
0000
0000
0000
0100
0000
0000
0000
0001
0000
0000
0000
1000
0000
0000
0000
0010
0000
0000
0000
0100
0000
0000
0000
1001
0000
0000
0100
0000
0000
0010
0000
0000
0001
0000
0000
,
0100
0010
1000
0010
0100
0001
1000
0010
0100
0001
1000
0010
1000
0100
1000
0100
,
0010
0001
0010
0001
1000
0100
1000
0100
0010
0001
0010
0001
1000
0010
0100
0001
,
1000
0100
0010
0001
0100
0010
1000
0001
0010
0100
1000
0001
1000
0100
1000
0100
,
0010
0001
0010
0001
1000
0100
1000
0100
0010
0001
0010
0001
1000
0100
0010
0001
,
0100
0010
1000
0001
0010
0100
1000
0010
0100
0001
1000
0010
1000
0100
1000
0100
,
0010
0001
0010
0001
1000
0100
1000
0100
0010
0001
0010
0001
1000
0010
0100
0001
,
1000
0010
0100
0001
1000
0100
0010
0001
0100
0010
1000
0001
2100
0000
0000
0000
,
0011
0000
0000
0000
0110
0000
0000
0000
0011
0000
0000
0000
3001
0010
0001
0010
,
0001
0010
0001
0010
0001
0010
0001
0010
0001
0010
0001
0010
0100
1000
0100
1000
,
0100
1000
0100
1000
0100
1000
0100
1000
0100
1000
0100
1000
0101
0000
0000
0000
,
0000
1100
0000
0101
,
0000
0000
0000
1010
0000
0000
0000
0000
0000
0001
0001
0001
,
0001
0000
0000
0000
0001
0000
0000
0000
0001
0000
0000
0000
0001
0000
0000
0000
0001
0000
0000
0000
0001
0000
0000
0000
0001
0000
0000
0000
0001
0000
0000
0000
0001
0000
0000
0000
0001
0000
0000
0010
0000
0000
0100
0000
0000
1000
0000
0000
,
0100
0010
0001
0010
0100
1000
0100
0010
0001
0010
0100
1000
0101
0000
0000
0000
,
2020
0000
0000
0000
0000
0000
0000
0000
0000
0000
0000
0000
0000
0000
0000
0000
0000
0000
0000
0000
0000
0000
0000
0000
3031
0100
0001
0000
0000
0000
0000
0000
;

//---------------dance-single - Copied from----------------
#NOTES:
     dance-single:
     Copied from:
     Challenge:
     12:
     1.000,1.000,1.000,0.285,1.000,2579.000,558.000,91.000,0.000,67.000:
0000
0000
0000
0000
,
1010
0000
0101
0000
,
1001
0000
1100
0000
,
0202
0000
0000
0000
,
0000
0000
0010
1303
,
0001
0100
0001
0100
0001
0100
0001
0100
0010
1000
0010
1000
0010
1000
0010
1000
,
0001
0100
0010
1000
0001
0100
0010
1000
0001
0010
0100
1000
0001
0010
0100
1000
,
0001
1000
0001
1000
0001
1000
0001
1000
0100
0010
0100
0010
0100
0010
0100
0010
,
1001
1100
0110
0011
0220
0000
0000
0330
,
1000
0010
0100
0001
0100
0010
1000
0001
1000
0010
0100
0001
0100
0010
1000
0001
,
1000
0100
0010
0001
0010
0100
1000
0001
1000
0100
0010
0001
0010
0100
1000
0001
,
1000
0100
0010
0001
1000
0100
0010
0001
1000
0100
0010
0001
1000
0100
0010
0001
,
2200
0000
0000
0000
0000
0000
0000
3300
,
1000
0010
0100
0001
0100
0010
1000
0001
1000
0010
0100
0001
0100
0010
1000
0001
,
1000
0100
0010
0001
0100
0010
1000
0001
1000
0100
0010
0001
0100
0010
1000
0001
,
1000
0100
1000
0100
1000
0100
1000
0100
0010
0001
0010
0001
0010
0001
1000
0100
,
2000
0100
0010
0010
0001
0100
0010
3010
,
1000
0100
0010
0001
0010
0100
1000
0001
1000
0100
0010
0001
0010
0100
1000
0001
,
1000
0010
0100
0001
0100
0010
1000
0001
1000
0010
0100
0001
0100
0010
1000
0001
,
1000
0000
0000
0010
0000
0000
0100
0000
0000
0001
0000
0000
0100
0000
0000
0010
0000
0000
1000
0000
0000
0100
0000
0000
0011
0000
0000
0000
0000
0000
0000
0000
1010
0000
0000
0000
0000
0000
0000
0000
1100
0000
0000
0000
0000
0000
0000
0000
,
0101
1000
0100
1000
0100
1000
0100
1000
0100
1000
0100
1000
0100
1000
0100
1000
,
0101
0000
1100
0000
,
0102
0100
0100
0103
,
0110
0000
0000
1001
0000
0000
1001
0000
,
1010
0000
0101
0000
0001
1000
0001
0000
1001
0000
0101
0000
1000
0010
0100
0000
,
0101
0000
1100
0000
0100
0010
0100
0000
1100
0000
0011
0000
1000
0010
0100
0000
,
1001
0000
0110
0000
0001
1000
0100
0000
0011
0000
1100
0000
0001
0100
0010
0000
,
0110
0000
0110
0000
0001
1000
0001
0000
0110
0000
1001
0000
0001
0100
0010
0000
,
1100
0000
0110
0000
0001
0010
0100
0000
1010
0000
0101
0000
1000
0001
0100
0000
,
0011
0000
1100
0000
0100
0010
0001
0000
0110
0000
1001
0000
0100
0010
1000
0000
,
0101
0000
1010
0000
1000
0001
0100
0000
1100
0000
0011
0000
0010
0100
1000
0000
,
2001
0000
0120
0000
,
3031
0100
0001
0100
0001
0100
0001
0100
0001
0100
0001
0100
0001
0100
0001
0100
,
0010
1000
0010
1000
0010
1000
0010
1000
0010
1000
0010
1000
0010
1000
0010
1000
,
0001
0010
0100
1000
0001
0010
0100
1000
0001
0010
0100
1000
0001
0010
0100
1000
,
0010
0100
0010
0100
0010
0100
0010
0100
0010
0100
0010
0100
0010
0100
0010
0100
,
0001
0010
0001
0010
0001
0010
0001
0010
0001
0010
0001
0010
0001
0010
0001
0010
,
0100
1000
0100
1000
0100
1000
0100
1000
0100
1000
0100
1000
0100
1000
0100
1000
,
0001
0010
0100
1000
0100
0010
0001
0010
0100
1000
0100
0010
0001
0010
0100
1000
,
0102
0000
0000
2010
0000
0000
0000
0000
,
3113
0000
0110
0000
1000
0001
1000
0000
0101
0000
1010
0000
0001
0010
0001
0000
,
1100
0000
1100
0000
0010
0100
0010
0000
1001
0000
0101
0000
1000
0100
1000
0000
,
0011
0000
1100
0000
0001
0100
0010
0000
1100
0000
0011
0000
1000
0001
1000
0000
,
0110
0000
0101
0000
1000
0100
0010
0000
0101
0000
1010
0000
0001
1000
0001
0000
,
0110
1100
0110
0011
0110
1010
0101
0110
,
1010
0101
0011
1100
0110
1001
0101
1010
,
1000
0100
0010
0001
0010
0100
1000
0100
0010
0001
0010
0100
1000
0100
0010
0001
,
0110
0000
0110
1010
,
0101
0000
1100
0101
1100
0000
0000
0000
,
0011
0000
1001
0110
1001
0000
0000
0000
,
1100
0000
0011
1100
0110
0000
0011
0000
,
2100
0000
0100
0010
0001
0000
0100
0010
,
3101
0000
1010
0101
1010
0000
0000
0000
,
0011
0000
1100
0011
1100
0000
0000
0110
,
0110
0110
1001
1001
0101
0000
0110
0000
,
1100
0001
0100
0010
1000
0000
0000
0000
0001
0010
0100
1000
0100
0000
0000
0000
,
2001
0110
0011
0101
,
3101
1000
0100
0010
0001
0100
0010
1000
0001
0100
0010
1000
0001
0100
0010
1000
,
0001
1000
0100
0010
0001
0100
0010
1000
0001
0010
0100
1000
0010
0100
0001
1000
,
0001
0100
0010
1000
0001
0010
0100
1000
0010
0100
0001
1000
0100
0010
0001
0100
,
0010
1000
0001
0100
0001
1000
0100
1000
0001
0100
0010
1000
0010
0100
0001
1000
,
0100
0010
0001
0100
0010
1000
0001
0100
0010
1000
0100
0010
0001
0100
0010
1000
,
0001
0010
0100
1000
0001
1000
0100
0010
0001
1000
0001
0010
0100
1000
0010
1000
,
0101
1000
0100
0010
0001
0100
0010
1000
0100
0010
0001
0100
,
1010
0100
0001
1000
0100
0010
0100
0001
1000
0001
0100
0010
,
0101
1000
0010
0100
0001
1000
0010
0100
0001
1000
0100
0010
0001
1000
0100
0010
,
0001
0100
0001
0100
0010
1000
0010
1000
0001
0100
0001
0100
0010
1000
0010
1000
,
0001
0010
0100
1000
0010
0100
0001
1000
0100
0010
0001
0100
0010
1000
0001
1000
,
0001
0100
0001
0100
0010
1000
0010
1000
0001
0100
0001
0100
0010
1000
0010
1000
,
0001
0010
0100
1000
0010
0100
0010
1000
0100
0010
0001
0100
0010
0100
0001
0010
,
0100
1000
0001
0100
0010
1000
0001
1000
0010
0100
0001
1000
0001
0010
0100
1000
,
0101
1000
0010
0100
0001
1000
0001
0100
0010
1000
0100
1000
,
2001
0001
0010
0100
,
3001
0010
0100
1000
0001
0100
2000
0000
3001
0100
0010
1000
0001
0100
0010
1000
,
0100
0010
0001
0100
0010
1000
0001
0100
0010
1000
0001
1000
0002
0000
0000
0000
,
1003
0100
1000
0100
1000
0100
1000
0100
1000
0100
1000
0100
1000
0100
1000
0100
,
0011
1100
0101
2020
,
3031
0100
0001
0100
0001
0100
0002
0000
1003
0100
1000
0100
1000
0100
2000
0000
,
3001
0010
0100
1000
0010
0100
0002
0000
1003
0010
0100
0001
1000
0100
0002
0000
,
1103
0110
0000
0011
0000
1100
0000
0110
,
1001
0110
0000
2002
0000
0000
0000
0000
,
3113
1100
0000
0101
0000
1100
0101
1010
,
0101
0110
1100
0101
0000
2002
0000
0000
,
3113
0101
1010
0101
0000
0110
0000
0110
,
1001
0000
0101
0000
1100
0110
0022
0000
,
1133
0110
1100
0101
0000
1100
0000
0110
,
0000
1100
0110
0011
0110
1100
0110
0011
,
1000
0100
1000
0100
1000
0100
0010
0001
0010
0001
0010
0001
1000
0100
1000
0100
,
1000
0100
1000
0100
0010
0001
0010
0001
0010
0001
0010
0001
0010
0001
0010
0001
,
1100
0000
0011
0000
1000
0001
1000
0000
0110
0000
1001
0000
0010
0100
0001
0000
,
0101
0000
1010
0000
1000
0100
0010
0000
0011
0000
1100
0000
0001
1000
0001
0000
,
1010
0000
0101
0000
1000
0100
0010
0000
0011
0000
1100
0000
0001
1000
0001
0000
,
0110
0000
0101
0000
1000
0010
1000
0000
1010
0000
0101
0000
1000
0100
1000
0000
,
0011
0000
0110
0000
1000
0100
0010
0000
0101
0000
1010
0000
0001
0100
0010
0000
,
1100
0000
0110
0000
0001
0100
0010
0000
1100
0000
0101
0000
0010
0100
0010
0000
,
1001
0000
0110
0000
0001
0100
0010
0000
1100
0000
0101
0000
1000
0100
0010
0000
,
0102
0000
2100
0000
,
3113
0000
0110
0000
1000
0001
1000
0000
0101
0000
0101
0000
1000
0100
1000
0000
,
0011
0000
0011
0000
1000
0100
1000
0000
1001
0000
0110
0000
0001
1000
0001
0000
,
1100
0000
0011
0000
1000
0100
0010
0000
0101
0000
1010
0000
0001
0010
0100
0000
,
1100
0000
1100
0000
0010
0001
0010
0000
1001
0000
1010
0000
0100
0010
0100
0000
,
0101
0000
0101
0000
1000
0100
1000
0000
0110
0000
0101
0000
1000
0100
0010
0000
,
0011
0000
1100
0000
0001
1000
0001
0000
1100
0000
0101
0000
0010
0100
0010
0000
,
1010
0000
0101
0000
1000
0010
0100
0000
0101
0000
0011
0000
0010
0100
1000
0000
,
2010
0000
0000
0102
0000
0000
0000
0000
,
3113
0000
0101
0000
1000
0100
0010
0000
1001
0000
0101
0000
1000
0100
0010
0000
,
0101
0000
1010
0000
0001
0100
0001
0000
0110
0000
1001
0000
0010
0100
0010
0000
,
1100
0000
1100
0000
0010
0001
0010
0000
1100
0000
0011
0000
1000
0100
0010
0000
,
0011
0000
0011
0000
1000
0100
1000
0000
0110
0000
0110
0000
0001
1000
0001
0000
,
1100
1100
1100
1100
0011
0011
0011
0011
,
0110
0110
0110
0110
1001
1001
1001
1001
,
0101
1000
0010
0100
0001
1000
0100
0010
0001
0100
0010
1000
0001
0100
0010
1000
,
0101
0000
0101
1010
,
1100
0000
0011
1100
0011
0000
0000
0000
,
1010
0000
0011
0110
1100
0000
0000
0000
,
0011
0000
1100
0110
0011
0000
0110
0000
,
2001
0000
0001
0010
0100
0000
0001
0100
,
3011
0000
1100
0110
0011
0000
0000
0000
,
0101
0000
1010
0101
0110
0000
0000
0110
,
1100
0011
0110
1010
0101
0000
0110
0000
,
1010
0001
0010
0100
1000
0010
0100
0001
1000
0100
0010
0001
0100
0010
1000
0001
,
1020
1100
0101
1001
,
0131
1000
0100
0010
0001
0100
0010
1000
0001
0100
0010
1000
0001
0100
0010
1000
,
0001
0010
0100
1000
0010
0100
0001
0100
0010
1000
0001
1000
0010
0100
0001
0100
,
0010
1000
0100
0010
0001
0100
0010
1000
0010
0100
0001
1000
0001
0100
0010
1000
,
0010
0100
0001
1000
0100
0010
0001
1000
0001
0010
0100
1000
0001
1000
0100
0010
,
0001
1000
0001
1000
0001
1000
0001
1000
0100
0010
0100
0010
0100
0010
0100
0010
,
0001
1000
0100
0010
0001
0100
0010
1000
0001
0100
0010
1000
0001
1000
0100
0010
,
1001
0100
0010
0001
1000
0010
0100
0001
1000
0010
0100
0001
,
1100
0001
0010
0100
1000
0010
0100
0001
1000
0010
0100
0001
,
1100
0001
0010
0100
1000
0010
0100
0001
1000
0010
0100
0001
1000
0001
1000
0001
,
1000
0100
1000
0100
0010
0001
0010
0001
1000
0100
1000
0100
0010
0001
0010
0001
,
1000
0010
0100
0001
0100
0010
1000
0001
1000
0010
0100
0001
0100
0010
1000
0001
,
1000
0100
1000
0100
0010
0001
0010
0001
1000
0100
1000
0100
0010
0001
0010
0001
,
1000
0100
0010
0001
1000
0001
0010
0100
1000
0001
1000
0100
0010
0001
1000
0100
,
0010
0001
0100
0010
1000
0001
0100
0010
1000
0001
0010
0100
1000
0001
0010
0100
,
1001
1001
0110
0110
0101
0101
1010
1010
,
2001
0001
0010
0100
,
3110
0000
0000
1100
0011
0000
0000
1100
,
0011
0110
1100
0000
1001
0000
0110
1001
,
0000
0101
1010
0000
0101
1010
0011
1100
,
0101
0011
1100
0011
1100
0011
0110
0101
,
1010
1001
0101
0110
1100
0011
1100
0101
,
2010
0000
0102
0000
,
0000
0000
0000
0000
,
3203
0000
0000
0000
0000
0000
0002
0023
,
2030
0000
0000
0000
,
3301
0010
0100
1000
0100
0010
0001
0010
0100
1000
0100
0010
0001
0010
0100
1000
,
0100
0010
0001
0010
1001
0000
0110
0000
1001
0000
0010
0000
0100
0000
0010
0000
,
1000
0100
0010
0001
0010
0100
1000
0100
0010
0001
0010
0100
1000
0100
0010
0001
,
0010
0100
1000
0100
1001
0000
0101
0000
1020
0030
0020
0030
0020
0030
0020
0030
,
1000
1000
1000
0100
0100
0100
0010
0010
0010
0001
0001
0001
,
1000
1000
1000
0100
0100
0100
0010
0010
0010
0001
0001
0001
,
1000
0100
0010
0001
0100
0010
1000
0100
0010
0001
0100
0010
,
0001
0001
0001
0100
0100
0100
0010
0010
0010
1000
1000
1000
,
0101
1010
0101
1000
0100
0010
0001
0100
,
0010
1000
0110
1001
0110
0001
0010
0100
,
1000
1000
1000
1000
0001
0000
0100
0000
0001
0000
0100
0000
0010
0000
1000
0000
,
0100
0010
0101
1010
0101
1000
0010
0100
,
0001
0001
0001
0001
0001
0001
0100
0100
0100
0100
0100
0100
,
0010
0010
0010
0010
0010
0010
1000
1000
1000
1000
1000
1000
,
0001
0001
0001
0001
0001
0001
0010
0010
0010
0010
0010
0010
,
0100
0100
0100
0100
0100
0100
1000
1000
1000
1000
1000
1000
,
0001
0001
0001
0001
0001
0001
0100
0100
0100
0100
0100
0100
,
0010
0010
0010
0010
0010
0010
1000
1000
1000
1000
1000
1000
,
0010
0010
0010
0010
0010
0010
0100
0100
0100
0100
0100
0100
,
0001
0001
0001
0001
0001
0001
1000
1000
1000
1000
1000
1000
,
0101
0000
1010
0101
0000
0000
0110
0000
,
0000
0000
0000
0000
1000
0100
0010
0000
0001
0100
0010
0000
1000
0100
0010
0000
,
0001
0100
0010
0000
1100
0000
0000
0000
0011
0000
0000
0000
0110
0000
0000
0000
,
1001
0102
0000
2000
,
3200
0000
1313
0101
,
1010
0110
0101
0000
0000
1001
0110
0000
,
2002
0000
3113
0101
,
1010
0000
0101
1010
0101
1010
1100
0011
,
1100
0011
1100
1100
0011
0011
1001
1001
,
0110
1001
0110
0110
0102
2100
0000
0000
,
0000
0000
3113
0110
0110
0110
0011
0011
,
0011
0011
1100
1100
1100
1100
1100
0011
,
1100
0000
0000
0000
0001
0010
0100
1000
0010
0100
0010
0100
0001
0010
0100
1000
,
0010
0100
0010
0100
0001
1000
0100
0010
0001
1000
0001
0010
0100
1000
0100
0010
,
0002
0000
0000
0000
1003
0100
0010
0001
0100
0010
1000
0100
0010
0001
0100
0010
,
1000
0100
0010
0001
1000
0010
0100
0001
0100
0010
1000
0001
0100
0010
1000
0010
,
0100
0001
1000
0100
0010
0001
0100
0010
1000
0001
0100
0010
1000
0001
1000
0100
,
0010
0001
0100
0010
1000
0100
0010
0001
0100
0010
1000
0001
0100
0001
0100
0010
,
1000
0010
1000
0001
1100
0000
0110
0000
1100
0000
1100
0000
0101
0000
1010
0000
,
0102
0000
0000
0000
1003
0100
1000
0000
1100
0000
0101
0000
1010
0000
0101
0000
,
2010
0000
3101
1010
0110
0101
1010
0110
,
0011
1100
0011
1001
1100
0101
2010
0000
,
0000
0000
0000
0000
3001
0100
0001
0100
0001
0100
0001
0100
0001
1000
0100
0010
,
0002
0000
0000
0000
1003
0100
1000
0100
1000
0100
1000
0100
1000
0001
0010
0100
,
2000
0000
0000
0000
3001
0100
0010
1000
0001
0010
0100
1000
0001
0100
0010
1000
,
0010
0000
0000
0100
0000
0000
0001
0000
0000
1000
0000
0000
0100
0000
0000
0010
0000
0000
0001
0000
0000
0100
0000
0000
0010
0000
0000
1000
0000
0000
0010
0000
0000
0100
0000
0000
0001
0000
0010
0000
0100
0000
1000
0000
0010
0000
0100
0000
,
0001
0000
1000
0000
0100
0000
0010
0000
0001
0000
1000
0000
0001
0000
0000
0010
0000
0000
0100
0000
0000
1000
0000
0000
0001
0000
0000
0010
0000
0000
0100
0000
0000
1000
0000
0000
0001
0000
0000
0100
0000
0000
0010
0000
0000
1000
0000
0000
,
0001
0100
0010
1000
0001
0100
0010
1000
0010
0100
0001
1000
0010
0100
0001
1000
,
0002
0000
0000
0000
1013
0000
1000
0100
1000
0000
0101
1000
0100
0010
0001
0100
,
0010
1000
0001
1000
0010
0100
0001
0010
1100
0000
1100
0000
0011
0000
0000
0000
,
1000
0001
1000
0001
2000
0000
0000
0000
3001
0000
0010
0000
0100
0000
1000
0000
0010
0000
0100
0000
0001
0000
1000
0000
0010
0000
0100
0000
0001
0000
1000
0000
,
0100
0010
0001
0100
0010
1000
0001
0010
0100
1000
0010
0100
0001
1000
0100
0010
,
0002
0000
0000
0000
1003
0100
0010
0001
0100
0010
1000
0001
0110
0000
1001
0000
,
0210
0000
0000
0000
0301
0010
0100
1000
0100
0010
0001
0010
0100
1000
0100
1000
,
0100
1000
0100
1000
0100
0010
0001
0010
0100
1000
0100
0010
0001
0010
0100
1000
,
0100
0010
0001
0010
1100
0000
0000
0000
0110
0000
0101
0000
0000
0000
0000
0000
,
0110
1001
0000
1100
0000
0101
0101
0000
,
1010
0000
0102
0000
0000
1200
0000
0000
,
2313
3102
0000
0000
,
0000
0000
0000
0000
1003
0100
0010
0001
0100
0010
1000
0001
0010
0100
1000
0010
,
0100
0001
1000
0100
0010
0001
0100
0010
1000
0001
1000
0001
0010
0100
1000
0010
,
0100
0001
1000
0001
1100
0000
1100
0000
0110
0000
0110
0000
0011
0000
0011
0000
,
0110
0000
0000
0110
0000
0000
0001
0100
0001
0100
0000
0000
0010
1000
0010
1000
0000
0000
0001
1000
0001
1000
0000
0000
,
0010
0000
0100
0000
0010
0000
0100
0000
0000
0000
0000
0000
0001
0000
0000
0010
0000
0000
0100
0000
0000
1000
0000
0000
0001
0000
0000
1000
0000
0000
0100
0000
0000
0010
0000
0000
0001
0000
0000
1000
0000
0000
0001
0000
0000
0010
0000
0000
,
0100
1000
0100
0010
0001
0100
0001
0100
0010
1000
0010
1000
0001
0010
0100
1000
,
0010
0100
0001
1000
0101
0000
0101
0000
0101
0000
0101
0000
1010
0000
1010
0000
,
1010
1010
0110
0101
0110
1010
0110
1001
,
2200
0000
3311
1100
0011
1100
0000
1100
,
0011
0000
1100
0000
0001
0010
0100
1000
0001
0010
0100
1000
0002
0000
0000
0000
,
0000
0000
0000
0000
1003
0100
0010
0001
0100
0010
1000
0001
0100
0010
1000
0001
,
0010
0100
1000
0001
1100
0000
0011
0000
0101
0000
1010
0000
0110
0000
1001
0000
,
0110
0000
1001
0000
0102
0000
0000
2013
0000
0000
3210
0000
1302
0000
0000
0000
,
0000
0000
0000
0000
1023
0000
0000
1230
0000
0000
2310
0000
3210
0000
0000
0000
,
0321
0000
0000
0000
2031
0000
0000
3102
0000
0000
2103
0000
3120
0000
0000
2001
,
0030
3120
1032
0000
0000
0000
0000
0000
,
0000
0000
0000
0000
1013
0000
0010
1100
0000
0000
0011
0000
1100
0000
0010
0101
,
0000
0000
1100
0000
0101
0000
0100
1010
0000
0000
0110
0000
0001
0000
1000
1100
,
0000
0000
1001
0000
0110
0000
0100
1100
0000
0000
0110
0000
0101
0000
0100
1010
,
0000
0110
2100
0000
0000
0000
3102
0000
,
1100
0000
0000
0000
1100
0000
0000
0000
1100
0000
0000
0000
1013
0100
0010
0001
,
1000
0010
0100
0001
1000
0100
0010
0001
0100
0010
1000
0001
0010
0100
1000
0010
,
0100
0001
1000
0100
0010
0001
0100
0010
1000
0010
0100
0001
1000
0100
0010
0001
,
0100
0010
1000
0010
0100
0001
0010
0100
1000
0010
0100
0001
0100
0010
1000
0001
,
1000
0010
0100
0001
0100
0010
1000
0100
0010
0001
1000
0010
0100
0001
1000
0010
,
0100
0001
1000
0100
0010
0001
0100
0010
1000
0001
0010
0100
1000
0010
0100
0001
,
1000
0000
0000
0100
0000
0000
0010
0000
0000
0001
0000
0000
0100
0000
0000
0010
0000
0000
1000
0000
0000
0010
0000
0000
0100
0000
0000
0001
0000
0000
1000
0000
0000
0001
0000
0000
1100
0000
0000
0000
0010
0000
0000
0000
0001
0000
0000
0000
,
0100
0010
1000
0010
0100
0001
1000
0010
0100
1010
0100
0001
,
0010
0000
0000
0000
0100
0000
0000
0000
1000
0000
0000
0000
0010
0000
0000
0000
0100
0000
0000
0000
0001
0000
0000
0000
1000
0000
0000
0000
0010
0000
0000
0000
0100
0000
0000
0000
1001
0000
0000
0100
0000
0000
0010
0000
0000
0001
0000
0000
,
0100
0010
1000
0010
0100
0001
1000
0010
0100
0001
1000
0010
1000
0100
1000
0100
,
0010
0001
0010
0001
1000
0100
1000
0100
0010
0001
0010
0001
1000
0010
0100
0001
,
1000
0100
0010
0001
0100
0010
1000
0001
0010
0100
1000
0001
1000
0100
1000
0100
,
0010
0001
0010
0001
1000
0100
1000
0100
0010
0001
0010
0001
1000
0100
0010
0001
,
0100
0010
1000
0001
0010
0100
1000
0010
0100
0001
1000
0010
1000
0100
1000
0100
,
0010
0001
0010
0001
1000
0100
1000
0100
0010
0001
0010
0001
1000
0010
0100
0001
,
1000
0010
0100
0001
1000
0100
0010
0001
0100
0010
1000
0001
2100
0000
0000
0000
,
0011
0000
0000
0000
0110
0000
0000
0000
0011
0000
0000
0000
3001
0010
0001
0010
,
0001
0010
0001
0010
0001
0010
0001
0010
0001
0010
0001
0010
0100
1000
0100
1000
,
0100
1000
0100
1000
0100
1000
0100
1000
0100
1000
0100
1000
0101
0000
0000
0000
,
0000
1100
0000
0101
,
0000
0000
0000
1010
0000
0000
0000
0000
0000
0001
0001
0001
,
0001
0000
0000
0000
0001
0000
0000
0000
0001
0000
0000
0000
0001
0000
0000
0000
0001
0000
0000
0000
0001
0000
0000
0000
0001
0000
0000
0000
0001
0000
0000
0000
0001
0000
0000
0000
0001
0000
0000
0010
0000
0000
0100
0000
0000
1000
0000
0000
,
0100
0010
0001
0010
0100
1000
0100
0010
0001
0010
0100
1000
0101
0000
0000
0000
,
2020
0000
0000
0000
0000
0000
0000
0000
0000
0000
0000
0000
0000
0000
0000
0000
0000
0000
0000
0000
0000
0000
0000
0000
3031
0100
0001
0000
0000
0000
0000
0000
;
