#TITLE:Salvame;
#SUBTITLE:;
#ARTIST:RBD;
#TITLETRANSLIT:;
#SUBTITLETRANSLIT:;
#ARTISTTRANSLIT:;
#CREDIT:;
#BANNER:;
#BACKGROUND:RBD.jpg;
#LYRICSPATH:;
#CDTITLE:;
#MUSIC:Salvame.ogg;
#OFFSET:0.000;
#SAMPLESTART:40.015;
#SAMPLELENGTH:12.000;
#SELECTABLE:YES;
#BPMS:0.000=149.942;
#STOPS:;
#BGCHANGES:;
// cache tags:
#FIRSTBEAT:0.000;
#LASTBEAT:544.000;
#SONGFILENAME:Songs/new cedric/Salvame/Salvame.sm;
#HASMUSIC:1;
#HASBANNER:0;
#MUSICLENGTH:105.000;
// end cache tags

//---------------dance-single - iSa!----------------
#NOTES:
     dance-single:
     iSa!:
     Hard:
     9:
     1.000,1.000,1.000,0.438,0.076,636.000,136.000,46.000,44.000,3.000:
2000
0000
0000
0000
,
0000
0000
3020
0000
,
0230
0000
0000
0000
,
0000
0000
0302
0000
,
0023
0000
0000
0000
,
0000
0000
0000
0000
,
0230
0000
0000
0000
,
2300
0000
0000
0000
0000
0000
0000
0000
0000
0000
0000
0000
0000
0000
0000
0000
0000
0000
0000
0000
0000
0000
0000
0000
0000
0000
0000
0000
0000
0000
0000
0000
0000
0000
0000
0000
0000
0000
0000
0000
0000
0000
0000
0000
0000
0000
0000
0000
0000
0000
0000
0000
0000
0000
0000
0000
0000
0000
0000
0000
0000
0000
0000
0000
0000
0000
0000
0000
0000
0000
0000
0000
0000
0000
0000
0000
0000
0000
0000
0000
0000
0000
0000
0000
0000
0000
0000
0000
0000
0000
0000
0000
0000
0000
0000
0000
0000
0000
0000
0000
0000
0000
0000
0000
0000
0000
0000
0000
0000
0000
0000
0000
0000
0000
0000
0000
0000
0000
0000
0000
0000
0000
0000
0000
0000
0000
0000
0000
0000
0000
0000
0000
0000
0000
0000
0000
0000
0000
0000
0000
0000
0000
0000
0000
0000
0000
0000
0000
0000
0000
0000
0000
0000
0000
0000
0000
0000
0000
0000
0000
0000
0000
0000
0000
0000
0000
0000
0000
0000
0000
0000
0000
0000
0000
0000
0000
0000
0000
0000
0000
0000
0000
0000
0000
0000
0000
0000
0000
0000
0000
0000
3000
,
1100
1010
0110
0011
,
0010
0010
0110
0100
,
0101
0000
0001
0000
1100
M000
0200
0001
,
1300
0000
0021
000M
0130
0000
0100
0000
,
1020
M001
0130
0000
1200
00M0
1300
0000
,
0001
0000
1000
0100
1100
0000
0001
0100
,
0001
1000
0100
0000
0010
0100
0001
0000
,
0100
0000
0210
10M0
0301
0000
0010
0000
,
2200
0000
0000
0000
0000
0000
0000
0000
0000
0000
0000
0000
0000
0000
0000
0000
0000
0000
0000
0000
0000
0000
0000
0000
0000
0000
0000
0000
0000
0000
0000
0000
0000
0000
0000
0000
0000
0000
0000
0000
0000
0000
0000
0000
0000
0000
0000
0000
0000
0000
0000
0000
0000
0000
0000
0000
0000
0000
0000
0000
0000
0000
0000
0000
0000
0000
0000
0000
0000
0000
0000
0000
0000
0000
0000
0000
0000
0000
0000
0000
0000
0000
0000
0000
0000
0000
0000
0000
0000
0000
0000
0000
0000
0000
0000
3000
2000
0000
0000
0000
0000
0000
0000
0000
0000
0000
0000
0000
0000
0000
0000
0000
0000
0000
0000
0000
0000
0000
0000
0300
0200
0000
0000
0000
0000
0000
0000
0000
3000
0000
0000
0000
0000
0000
0000
0000
0000
0000
0000
0000
0000
0000
0000
0000
0020
0000
0000
0000
0000
0000
0000
0000
0000
0000
0000
0000
0000
0000
0000
0000
0000
0000
0000
0000
0000
0000
0000
0300
0200
0000
0000
0000
0000
0000
0000
0000
0000
0000
0000
0000
0000
0000
0000
0000
0000
0000
0000
0000
0000
0000
0000
0030
,
0020
0000
0000
0000
0000
0000
0000
0000
0000
0000
0000
0000
0000
0000
0000
0000
0000
0000
0000
0000
0000
0000
0000
0300
0000
0000
0000
0000
0000
0000
0000
0000
0000
0000
0000
0000
0000
0000
0000
0000
0000
0000
0000
0000
0000
0000
0000
0000
0002
0000
0000
0000
0000
0000
0000
0000
0000
0000
0000
0000
0000
0000
0000
0000
0000
0000
0000
0000
0000
0030
0000
0000
0020
0000
0000
0000
0000
0000
0000
0000
0000
0000
0000
0000
0000
0000
0000
0000
0000
0000
0000
0000
0000
0000
0000
0000
0000
0000
0000
0000
0000
0000
0000
0000
0000
0000
0000
0000
0000
0000
0000
0000
0000
0000
0000
0000
0000
0000
0000
0003
0002
0000
0000
0000
0000
0000
0000
0000
0000
0000
0000
0000
0000
0000
0000
0000
0000
0000
0000
0000
0000
0000
0000
0030
0020
0000
0000
0000
0000
0000
0000
0000
0000
0000
0000
0000
0000
0000
0000
0000
0000
0000
0000
0000
0000
0000
0000
0000
0000
0000
0000
0000
0000
0000
0000
0000
0000
0000
0000
0000
0000
0000
0000
0000
0000
0000
0000
0000
0000
0000
0000
0000
,
0000
0000
0033
MMMM
2002
0000
3013
0100
,
0010
0000
0001
0010
0100
1000
0101
0000
,
0001
0100
0001
0000
0100
0010
0001
0010
,
1100
0000
0000
0000
0000
0000
0000
0000
0000
0000
0000
0000
0000
0000
0000
0000
0000
0000
0000
0000
0000
0000
0000
0000
0000
0000
0000
0000
0000
0000
0000
0000
0000
0000
0000
0000
0000
0000
0000
0000
0000
0000
0000
0000
0000
0000
0000
0000
1000
0000
0000
0000
0000
0000
0000
0000
0000
0000
0000
0000
0000
0000
0000
0000
0000
0000
0000
0000
0000
0000
0000
0000
0200
0000
0000
0000
0000
0000
0000
0000
0000
0000
0000
0000
0000
0000
0000
0000
0000
0000
0000
0000
0000
0000
0000
0000
0010
0000
0000
0000
0000
0000
0000
0000
0000
0000
0000
0000
0000
0000
0000
0000
0000
0000
0000
0000
0000
0000
0000
0000
0000
0000
0000
0000
0000
0000
0000
0000
0000
0000
0000
0000
0000
0000
0000
0000
0000
0000
0000
0000
0000
0000
0000
0000
0020
0000
0000
0000
0000
0000
0000
0000
0000
0000
0000
0000
0000
0000
0000
0000
0000
0000
0000
0000
0000
0000
0000
0000
0000
0000
0000
0000
0000
0000
0000
0000
0000
0000
0000
0000
0000
0000
0000
0000
0000
0000
0000
0000
0000
0000
0000
0300
,
0200
0000
0000
0000
0000
0000
0000
0000
0000
0000
0000
0000
0000
0000
0000
0000
0000
0000
0000
0000
0000
0000
0000
0000
0000
0000
0000
0000
0000
0000
0000
0000
0000
0000
0000
0000
0000
0000
0000
0000
0000
0000
0000
0000
0000
0000
0000
0030
0310
0000
0000
0000
0000
0000
0000
0000
0000
0000
0000
0000
0000
0000
0000
0000
0000
0000
0000
0000
0000
0000
0000
0000
0100
0000
0000
0000
0000
0000
0000
0000
0000
0000
0000
0000
0000
0000
0000
0000
0000
0000
0000
0000
0000
0000
0000
0000
0010
0000
0000
0000
0000
0000
0000
0000
0000
0000
0000
0000
0000
0000
0000
0000
0000
0000
0000
0000
0000
0000
0000
0000
0001
0000
0000
0000
0000
0000
0000
0000
0000
0000
0000
0000
0000
0000
0000
0000
0000
0000
0000
0000
0000
0000
0000
0000
0010
0000
0000
0000
0000
0000
0000
0000
0000
0000
0000
0000
0000
0000
0000
0000
0000
0000
0000
0000
0000
0000
0000
0000
0100
0000
0000
0000
0000
0000
0000
0000
0000
0000
0000
0000
0000
0000
0000
0000
0000
0000
0000
0000
0000
0000
0000
0000
,
1000
0100
0010
0000
0010
0100
1001
0000
,
0010
0100
1001
0001
0010
0100
1000
0100
,
0010
0000
0001
0100
0001
1000
0100
1000
,
1001
0000
0000
0000
0001
0000
1000
0000
0001
0000
1000
0000
0001
0010
0100
1000
,
0100
0010
0001
0000
1000
0000
0010
0000
1000
0000
0001
0000
0110
0000
0001
0000
,
0010
0000
0100
0000
0010
0000
0001
0000
1000
0100
0010
0100
1000
0001
0010
0100
,
0010
0001
0010
0000
0001
0000
1000
0000
0100
0000
0010
0000
0100
0000
1000
0000
,
0010
0100
0010
1000
0100
0010
0001
0100
,
0011
1000
0100
0010
1100
1000
0100
1000
,
0210
0000
0000
0300
0011
0000
0010
0000
,
0110
0000
0010
1100
0000
0100
1100
0000
,
0010
0000
0100
0000
0001
0000
0010
0100
,
0110
1000
0101
0010
,
0101
0000
0010
0000
1100
0000
0110
0100
,
0010
0100
0020
0000
0000
0000
0200
0000
,
0000
0000
0000
0000
0000
0000
0000
0330
,
0000
0011
0110
1000
,
0010
0100
0001
1000
,
0100
0010
0001
0010
,
1001
0000
0001
0000
1000
0000
0100
1000
,
0100
0000
1000
0000
1100
0000
0100
1001
,
0000
0100
0010
0100
,
1001
0100
0010
0001
,
0110
0100
0010
1001
,
0100
0010
0001
1000
,
1001
1000
0100
0010
,
1001
0100
1100
0100
,
0010
0000
0001
0000
0101
0000
0001
0100
,
0001
0000
1001
0000
0001
0000
0010
0110
,
0000
0010
0100
1000
,
0010
0100
0110
0010
,
1000
0100
0011
0001
,
0100
0010
2200
0000
,
0000
0000
0000
0000
0000
0000
0000
3300
0000
0000
0000
MMMM
0000
0000
0000
0000
,
1000
0100
1100
0100
,
0010
0001
0011
0100
,
1000
0000
0100
0000
1100
0000
0010
0100
,
0010
0001
0100
0010
,
1000
0000
0010
0000
1100
0000
0100
0010
,
0100
0010
0100
0000
1001
0000
0010
0100
,
0010
0100
0010
0000
1000
0000
1100
0000
,
0110
0000
0010
0000
0001
0100
0010
0100
,
0010
0000
0100
0010
0000
0100
0110
0010
,
1000
0000
0100
0000
0010
0100
1001
0000
,
0010
0000
0001
0100
0001
0000
0110
0000
,
1000
0100
0010
0000
0100
1000
0100
1000
,
0100
0000
1000
0100
0000
1000
1100
0000
,
0010
0100
0010
0100
0010
0000
1000
0000
,
0010
0000
0100
0000
0001
0100
0101
0000
,
1100
0000
0100
0000
0010
0001
0010
0001
,
0010
0000
0100
1000
0100
1000
0100
0000
,
0100
0010
0001
0010
0001
0000
0010
0000
,
1000
0000
1000
0010
1000
0000
0100
0000
,
0001
0000
0010
1000
0010
0000
0110
0000
,
1000
0100
1000
0100
,
0010
0001
0100
0010
1000
0100
0010
0001
,
0000
0000
0100
0000
0001
0100
0010
1000
,
0100
1000
0001
0010
,
0100
0000
0011
0011
0000
0110
0110
0000
,
0001
0100
0010
1000
,
1100
0100
0010
0001
,
0010
0000
0110
0000
0100
0000
1000
0100
,
1000
0100
1000
0000
0100
0000
0020
0000
,
1000
0000
0001
0000
0130
0000
0010
0100
,
0010
1000
1100
0100
,
0011
0110
1100
0010
,
0100
0010
0100
0011
,
0101
0000
1010
0000
0100
0000
0100
0001
,
0100
0000
0001
0000
1000
0000
0100
1100
,
0000
0100
0001
0100
,
1010
0100
0010
0001
,
0110
0010
1000
1100
,
0110
0000
0000
0011
0000
0000
0002
0000
0000
0000
M000
0000
,
2000
0000
3MM3
1010
,
0101
0000
1001
0000
0120
0000
1000
1030
,
0011
0000
1001
0000
0100
1000
0100
0010
,
0001
0000
0100
0000
1002
M000
1003
0010
,
0000
0100
0110
0000
1001
1000
0100
0011
,
2001
000M
3100
0000
0010
0000
0110
0000
,
0102
0M00
1003
0000
0010
0000
0101
0000
,
0020
0000
0100
0000
0032
00M0
0000
0000
,
1003
0000
MMMM
0000
,
0101
0000
0000
0000
0000
0000
0000
1001
0000
0000
0000
0000
1010
0000
0000
0000
,
1001
0000
MMMM
0000
,
0110
0000
0101
1010
,
1001
0000
0000
MMMM
0000
0000
1100
0000
,
1001
0000
0000
0000
0000
0000
0011
0000
0000
0000
0000
1010
0000
0000
0000
0000
,
1001
0000
MMMM
0000
,
1000
0100
1000
0001
0010
0001
1000
0010
1000
0000
0000
0000
0110
0000
0000
0000
,
1001
1000
0011
0100
,
0101
0000
1000
0100
0001
0000
0100
0000
,
1020
M000
0100
0000
0031
0000
1000
0010
,
0001
0000
1000
0000
0010
0000
0100
0001
,
0000
0001
0100
0000
1010
0000
0101
0000
,
0101
0000
1010
0100
1010
0001
0101
0100
,
1000
0010
1002
0010
1000
M100
1M00
M000
,
0103
0100
0101
0100
,
0010
0100
1000
0010
0100
0010
0200
0000
,
0010
00M0
0001
000M
0010
00M0
1301
0000
,
0110
0000
0100
0000
0001
0010
0101
0010
,
0101
0000
0010
0000
1000
0000
1010
0100
,
0001
0100
0001
0000
0110
0000
0001
0010
,
1000
0010
0001
0000
0100
1000
0010
0101
,
0010
1000
0100
0011
0010
0100
0010
0100
,
1000
0001
0010
0001
1200
M000
0000
0000
,
0311
0000
1100
0110
0011
0000
0001
0000
,
0100
0010
1000
0010
,
0100
0000
0001
0010
0100
1000
0100
0001
,
0010
0100
1000
0100
0010
0100
0010
0000
,
0001
0010
0100
0000
0010
1000
0010
0000
,
0100
0010
1001
0000
0001
0000
0100
0000
,
0001
1000
0010
1000
,
0001
0010
0001
0100
,
1000
0000
0000
0000
;
