#TITLE:R8U;
#SUBTITLE:-rave medley nonstop-;
#ARTIST:KeeL/SHIKI;
#TITLETRANSLIT:;
#SUBTITLETRANSLIT:;
#ARTISTTRANSLIT:;
#CREDIT:;
#BANNER:r8ubana.png;
#BACKGROUND:r8ubg.png;
#LYRICSPATH:;
#CDTITLE:!ExigeTitle.png;
#MUSIC:r8u.mp3;
#OFFSET:-0.100;
#SAMPLESTART:101.940;
#SAMPLELENGTH:12.000;
#SELECTABLE:YES;
#BPMS:0.000=162.000;
#STOPS:;
#BGCHANGES:;
// cache tags:
#FIRSTBEAT:8.000;
#LASTBEAT:392.000;
#SONGFILENAME:Songs/Keyboard Collaboration II/Exige - R8U -rave medley nonstop-/R8U.sm;
#HASMUSIC:1;
#HASBANNER:1;
#MUSICLENGTH:145.862;
// end cache tags

//---------------dance-single - ----------------
#NOTES:
     dance-single:
     :
     Hard:
     12:
     1.000,1.000,1.000,0.041,1.000,908.000,273.000,6.000,0.000,0.000:  // measure 1
0000
0000
0000
0000
,  // measure 2
0000
0000
0000
0000
,  // measure 3
1100
0010
1000
0010
0000
0010
1000
0100
1010
0000
0010
0000
1001
0000
0010
0000
,  // measure 4
0110
0000
0000
0010
0000
0000
1010
0000
0000
1000
0000
0000
0101
0000
0010
0000
,  // measure 5
1001
0000
0001
0000
1000
0000
1001
0010
0000
0101
0000
1000
0101
0000
0100
0000
,  // measure 6
1100
0000
0000
0010
0000
0000
0110
0000
0000
1000
0000
0000
0101
0000
1000
0000
,  // measure 7
0101
1000
0010
0001
0000
0100
1000
0001
1010
0000
0010
0000
1100
0000
0001
0000
,  // measure 8
1010
0001
1000
0010
0001
1000
0101
0000
0110
0000
1000
0000
0101
0000
0010
0000
,  // measure 9
1100
0000
0010
0000
1001
0000
0010
1001
0000
0010
0000
0001
1010
0000
0100
0000
,  // measure 10
1001
0100
1000
0001
1000
0000
0001
1000
0001
1010
0000
0000
1000
0000
2002
0000
,  // measure 11
0000
0000
0000
0000
0000
0000
0000
3003
,  // measure 12
1010
0000
0100
0001
0000
0010
1100
0000
0010
0100
1000
0100
0011
0000
0000
0000
,  // measure 13
0101
0000
1000
0001
0000
0010
1100
0000
0010
0001
0100
0001
1010
0000
0000
0000
,  // measure 14
0110
0000
0100
1000
0000
0100
1001
0000
0010
0100
1000
0001
1010
0000
0000
0000
,  // measure 15
1010
0001
1000
0100
0000
0100
0011
0100
1000
0010
0001
1000
0110
0000
0100
0000
,  // measure 16
1001
0010
0001
1000
0000
0010
0001
1000
0100
0000
0010
0000
1001
0000
0010
0000
,  // measure 17
1100
0001
0100
1010
0000
0010
1100
0000
0010
0001
1000
0100
0011
0000
0010
0000
,  // measure 18
0101
0010
0001
1010
0000
0010
1100
0001
1010
0100
1000
0000
1010
0000
0000
0000
,  // measure 19
1001
0000
0000
0010
0000
0000
1010
0000
0000
0100
0000
0000
0011
0000
0010
0000
,  // measure 20
0101
0000
0001
0110
0000
1000
0001
0000
0010
0101
0000
0001
1000
0000
0100
0000
,  // measure 21
0011
0000
1000
0011
0000
0010
1000
0000
0100
1001
0000
0001
0010
0000
0010
0000
,  // measure 22
1010
0000
0001
0110
0000
0010
0001
0000
0001
1010
0000
1000
0100
0000
0010
0000
,  // measure 23
0011
0100
1000
0100
0010
0000
0010
0001
0100
1000
0100
0000
0010
0001
1000
0100
,  // measure 24
1001
0000
0000
0010
0000
0000
0101
0000
0000
0001
0000
0000
0011
0000
0100
0000
,  // measure 25
1001
0000
0000
0010
0000
0000
1100
0000
0000
0001
0000
0000
0110
0000
1000
0000
,  // measure 26
0101
0000
0000
0010
0000
0000
0110
0000
0000
0001
0000
0000
0011
0000
0010
0000
,  // measure 27
1010
0000
0000
0010
0000
0000
0010
0000
0011
0000
0100
0000
0011
0000
1000
0000
,  // measure 28
0101
1000
0100
0010
0000
0010
0100
0010
1000
0000
0010
0000
1000
0000
0100
0000
,  // measure 29
1010
0001
1000
0100
0001
0010
1001
0000
0011
0000
0100
0000
0110
0000
1000
0000
,  // measure 30
1010
0000
1000
0000
0011
0000
1000
0101
0000
0100
0000
0001
1100
0000
0010
0000
,  // measure 31
1100
0001
1000
0100
0010
0000
0011
0100
0010
1000
0010
0000
0101
0000
0010
0000
,  // measure 32
1100
0001
1000
0010
0000
0010
0001
1000
0101
0000
0010
0000
0101
0000
1000
0000
,  // measure 33
1010
0001
1000
0100
0001
0010
1000
0000
0011
0000
1000
0000
0110
0000
1000
0000
,  // measure 34
1010
0000
0100
0000
0001
0000
1000
0011
0000
0100
0000
0001
1100
0000
0010
0000
,  // measure 35
1100
0001
1000
0010
0100
0000
1001
0100
0010
0100
0001
0000
0010
0000
1000
0000
,  // measure 36
1001
0100
0010
1000
0000
0100
0001
0100
0010
0000
0010
0000
1000
0000
0010
0000
,  // measure 37
1001
0000
0100
0000
0011
0000
0010
0000
1001
0100
1000
0100
0011
0000
0000
0000
,  // measure 38
1010
0000
1000
0101
0000
0010
0101
0000
0001
1010
0000
0100
0011
0000
0010
0000
,  // measure 39
0101
0000
0001
1010
0000
1000
0110
0000
0100
0011
0000
0010
1100
0000
0010
0000
,  // measure 40
1010
0000
1000
0110
0000
0100
1010
0000
0010
0101
0000
0100
1010
0000
0001
0000
,  // measure 41
1100
0000
0001
1010
0000
1000
0110
0000
0100
0011
1000
0001
0010
0100
1000
0000
,  // measure 42
1100
0000
0000
1100
0000
0000
0010
0000
0110
0000
0000
0110
0000
0000
0001
0000
,  // measure 43
0011
0000
0000
0101
0000
0000
0100
0000
0010
1000
0001
0100
0010
0000
0010
0000
,  // measure 44
1010
0000
0000
0110
0000
0000
0001
0000
0101
0000
0000
0110
0000
0000
0010
0000
,  // measure 45
1001
0000
0000
0110
0000
0000
0011
0000
0101
0010
0100
0010
2002
0000
0000
3003
,  // measure 46
0101
0000
0000
1010
0000
0000
0100
0000
1001
0000
0010
0000
1100
0000
0010
0000
,  // measure 47
0101
0000
0010
0100
0000
0010
0101
0000
0010
0000
0010
0101
0000
0010
1100
0000
,  // measure 48
0100
0000
0010
1100
0000
0010
1000
0000
1001
0000
0100
1000
0011
1000
0001
0000
,  // measure 49
1010
0000
0000
0001
0000
0000
0110
0000
0001
0000
1100
0001
0010
0000
0100
0000
,  // measure 50
1001
0100
1100
0001
1001
0010
0101
0001
,  // measure 51
1100
0000
0010
0000
0110
0000
0010
0000
1001
0000
0001
0000
0101
0000
1001
0010
,  // measure 52
0100
0001
0100
0010
1000
0001
0100
0010
1000
0001
0100
0001
0010
1000
0100
1000
,  // measure 53
0011
0000
0000
0101
0000
0000
0010
0000
0000
0101
0000
0000
0110
0000
1000
0000
,  // measure 54
1100
0001
1000
0100
0000
0010
0100
0001
1100
0000
0001
0000
0110
0000
0010
0000
,  // measure 55
1001
0010
1000
0001
0100
0001
0100
0000
0011
0000
0100
0000
1010
0000
0001
0000
,  // measure 56
0110
0000
0001
0000
0100
0000
0001
1100
0000
0001
0000
0100
0011
0000
0100
0000
,  // measure 57
0101
1000
0010
1000
0010
0000
0101
1000
0001
0100
0001
0000
0110
0000
0001
0000
,  // measure 58
1100
0001
0100
0001
0000
1000
0001
1000
0101
0000
0100
0000
0011
0000
0100
0000
,  // measure 59
0011
0100
0010
1000
0001
0100
0001
0000
0110
0000
1000
0000
0011
0000
1000
0000
,  // measure 60
0101
0000
0001
0000
0100
0000
1000
0011
0000
0100
0000
0001
1100
0000
0001
0000
,  // measure 61
1100
0001
1000
0001
1000
0000
0010
1000
0010
0100
1001
0000
0100
0001
1000
0010
,  // measure 62
1001
0000
1000
0000
0000
0000
0000
0000
0100
0000
0000
0000
0001
0010
0100
0000
,  // measure 63
0000
0000
0100
0000
0001
0100
0000
0010
1000
0001
1000
0100
0001
0000
0100
0000
,  // measure 64
0001
1000
0100
0000
0000
0000
0000
0000
0100
0000
0000
0000
1000
0001
0100
0000
,  // measure 65
0000
0000
0100
0000
0001
1000
0000
0001
0100
1000
0010
0100
0001
0000
0010
0000
,  // measure 66
1100
0000
0100
0000
0101
0000
0000
0000
1100
0000
0000
0000
0101
0010
0100
0000
,  // measure 67
0011
0000
1000
0000
0101
1000
0010
0100
0011
0000
0001
0010
1100
0000
0010
0000
,  // measure 68
0101
0000
0010
0000
0000
0000
0100
0000
1100
0000
0000
0000
1000
0010
1000
0100
,  // measure 69
1001
0000
0010
0000
0100
0000
0001
0000
1000
0000
0100
0000
0001
0010
1000
0010
,  // measure 70
1001
0000
1100
0000
0100
0000
0010
0000
0101
0000
0000
0000
1001
0010
1100
0000
,  // measure 71
0010
0000
0100
0000
0101
0010
0000
0010
0100
0000
0100
0010
1100
0000
1000
0000
,  // measure 72
0101
1000
0001
0000
0010
0000
1000
0000
0101
0000
0010
0000
1100
0010
0101
0000
,  // measure 73
0010
0000
1001
0000
1000
0100
0001
1000
0101
0000
1000
0001
1100
0000
0001
0000
,  // measure 74
0100
0000
0011
0000
1000
0000
0100
0000
0011
0000
0010
0000
1010
0001
1010
0000
,  // measure 75
0100
0000
0110
0000
0100
0010
0001
0010
1001
0000
0010
0001
0100
0000
0010
0000
,  // measure 76
0100
0010
1001
0000
0010
0000
0001
0000
0101
0000
0001
0000
1001
0100
0010
0000
,  // measure 77
1000
0000
0001
0000
0100
0000
0010
0000
0001
0000
1000
0000
0010
0100
1000
0001
,  // measure 78
1100
0000
0000
0010
0000
0000
1000
0000
0001
0000
0100
0000
0011
0000
0000
0000
,  // measure 79
0101
0000
0000
1000
0000
0000
0010
0000
0100
0000
1000
0000
0101
0000
0000
0000
,  // measure 80
1100
0000
0000
0010
0000
0000
0100
0000
1000
0000
0100
0000
1010
0000
0000
0000
,  // measure 81
1100
0000
0000
1000
0000
0000
0100
0000
0001
0000
1000
0000
0010
0000
0100
0000
,  // measure 82
1010
0000
0001
0100
0000
0010
0100
0000
0010
0001
1000
0010
1100
0000
0000
0000
,  // measure 83
1010
0000
0001
0100
0000
0100
1000
0000
0010
0001
0100
1000
0101
0000
0000
0000
,  // measure 84
0011
0000
0010
0100
0000
0100
1000
0000
1100
0000
0010
0000
1001
0000
0000
0000
,  // measure 85
0010
0000
0100
0000
0010
0000
1000
0000
0010
0000
0100
0000
0010
0001
0100
0001
,  // measure 86
1010
0001
1000
0100
0000
0010
0001
1000
0110
0000
0100
0000
0011
0000
1000
0000
,  // measure 87
1010
0001
1000
0100
0010
0001
1000
0000
0011
0000
0100
0000
1001
0000
0010
0000
,  // measure 88
0110
0000
1000
0000
0010
0000
0010
1100
0000
1000
0000
0010
0101
0000
0010
0000
,  // measure 89
1010
0001
1000
0010
0100
0000
0001
1000
0100
0001
1010
0000
0001
0100
0001
0100
,  // measure 90
1010
0001
1000
0100
0000
0010
1000
0001
0110
0000
1000
0000
0011
0000
1000
0000
,  // measure 91
1001
0010
0100
0010
0001
0100
1000
0000
0011
0000
0001
0000
1100
0000
1000
0000
,  // measure 92
1010
0000
0010
0000
0100
0000
0001
1100
0000
0100
0000
0001
1010
0000
1000
0000
,  // measure 93
0011
0100
0010
1000
0010
0000
0001
0100
0010
1000
0011
0000
1000
0100
0010
0100
,  // measure 94
1010
0001
0100
0000
0001
0000
1100
0010
0000
0010
0101
0000
0011
1000
0100
0010
,  // measure 95
1100
0001
0010
0000
0010
0000
0011
0100
0000
0001
1100
0000
0101
0010
1000
0100
,  // measure 96
0011
0100
0010
0000
0011
0000
1001
0100
0000
0010
1100
0000
0010
1000
0100
0001
,  // measure 97
1010
0000
0001
0000
0011
0000
0100
2002
0000
0000
0000
0000
0000
0000
0000
0000
,  // measure 98
0000
0000
0000
0000
,  // measure 99
3003
0000
0000
0000
;
