#TITLE:Maiden's Garden;
#SUBTITLE:Hanato Otomeni Shukuhukuwo OP theme;
#ARTIST:Katakiri Retka;
#TITLETRANSLIT:;
#SUBTITLETRANSLIT:;
#ARTISTTRANSLIT:;
#CREDIT:ALICE_;
#BANNER:Maiden's Garden.png;
#BACKGROUND:Maiden's Garden.jpg;
#LYRICSPATH:;
#CDTITLE:cdtitle.png;
#MUSIC:Maiden's Garden.mp3;
#OFFSET:0.340;
#SAMPLESTART:64.795;
#SAMPLELENGTH:12.000;
#SELECTABLE:YES;
#BPMS:0.000=158.000;
#STOPS:;
#BGCHANGES:0.813=Maiden's Garden.avi=1.000=1=0=1,
99999=-nosongbg-=1.000=0=0=0 // don't automatically add -songbackground-
;
// cache tags:
#FIRSTBEAT:4.000;
#LASTBEAT:280.000;
#SONGFILENAME:Songs/alice 4th complete step/Maiden's Garden/Maiden's Garden.sm;
#HASMUSIC:1;
#HASBANNER:1;
#MUSICLENGTH:111.029;
// end cache tags

//---------------dance-single - ----------------
#NOTES:
     dance-single:
     :
     Hard:
     7:
     0.573,0.565,0.315,0.144,0.000,394.000,35.000,16.000,0.000,0.000:
0000
0000
0000
0000
,
0010
0100
0010
0100
0010
0100
1000
0000
,
0010
0100
0010
0100
0010
0100
0001
0000
,
1000
0100
1000
0100
1000
0100
0010
0000
,
0001
0100
0001
0100
0001
0100
0010
0000
,
1000
0001
1000
0100
1000
0010
0100
0000
,
0001
1000
0001
0100
0001
0010
0100
0000
,
1000
0001
0100
0010
1000
0001
0020
0030
,
1001
1001
0000
0000
0000
0000
0000
0000
,
1100
0000
0101
0000
1000
0100
0001
0000
,
0100
1000
0010
0200
0000
0301
1000
0000
,
0001
0010
0001
0100
0001
1000
0001
0020
,
0000
0100
0130
0000
0000
0000
0000
0000
,
1000
0100
1000
0010
1000
0001
1000
0020
,
0000
0100
0130
0000
0000
0000
0000
0000
,
1000
0100
0001
1000
0010
0001
1000
0100
,
0001
0010
0200
0000
0310
1000
0001
1000
,
0100
0000
1100
0000
0001
0100
0001
0000
,
1000
0000
1010
0000
0001
0010
0001
0000
,
0001
0000
0101
0000
1000
0100
1000
0000
,
0001
0000
0011
0000
1000
0010
1000
0000
,
0100
0000
0110
0000
1000
0001
0100
0000
,
0020
0000
1030
0001
0000
0100
0020
0000
,
0130
0000
0100
0000
0001
1000
0100
0000
,
0010
0001
1000
0010
0100
1000
0100
0001
,
0010
0000
1100
0000
1000
0010
1000
0000
,
0100
0000
0011
0000
0001
0100
0001
0000
,
1000
0000
1010
0000
0001
0010
1000
0000
,
0001
0000
0101
0000
1000
0100
0001
0100
,
0010
0000
0110
0000
1000
0001
0100
0000
,
0010
0100
0010
1000
0000
0001
0100
0000
,
0010
1000
0100
0010
0001
0100
0010
1000
,
0100
0000
0010
0000
0001
1000
0100
0000
,
0011
0000
1000
0010
0100
0010
1000
0000
,
0101
0000
1000
0100
0010
0100
1000
0000
,
0001
0000
0100
0010
1000
0001
0010
0000
,
0100
0000
1000
0001
0100
0010
1000
0000
,
0101
0000
0101
0000
0001
0100
0001
0100
,
0010
0000
1010
0000
1000
0100
1000
0100
,
0010
0001
0100
0001
0010
0001
0100
0001
,
0010
1000
0100
1000
0010
1000
0100
1000
,
0020
0000
0000
0030
,
1000
0001
0001
1200
0000
0010
0310
0000
,
1001
0000
0101
1000
0100
1000
0010
0100
,
0001
0000
1100
0001
0100
0001
0010
0100
,
1000
0000
0010
0001
0100
0010
1000
0001
,
1000
0101
0001
1100
,
1000
0100
0010
0001
1000
0100
1000
0000
,
0001
0100
0010
1000
0001
0100
0001
0000
,
0010
0100
1000
0001
0010
0100
1000
0001
,
0100
0000
0010
0100
0001
1000
0001
1000
,
1001
0000
1100
0001
0100
0001
0010
0100
,
1000
0000
0101
1000
0100
1000
0010
0100
,
0001
0000
0010
1000
0100
0010
0001
1000
,
0001
1100
1000
0101
,
0100
0010
1000
0001
0010
1000
0010
0000
,
0100
0010
0100
1100
0000
1000
0001
0100
,
0020
0000
0130
1000
0100
0001
0010
0100
,
2000
0000
0000
0000
0000
3000
0000
0000
,
0101
0000
1100
0000
0001
0010
1000
0000
,
0100
1000
0010
0200
0000
0301
1000
0000
,
1100
0010
1000
0001
1000
0100
1000
0020
,
0000
0100
0130
0000
0000
0000
0000
0000
,
0101
0010
0001
1000
0001
0100
0001
0020
,
0000
0100
0130
0000
0000
0000
0000
0000
,
1000
0010
0001
1000
0100
0001
0010
0100
,
1000
0001
0020
0000
0000
0000
0000
0000
,
0130
0000
0100
0000
1000
0001
0100
0001
,
2000
0000
0000
0000
,
0000
0000
0000
3000
;

//---------------dance-single - ----------------
#NOTES:
     dance-single:
     :
     Challenge:
     14:
     1.000,1.000,1.000,0.639,0.342,541.000,212.000,71.000,0.000,26.000:
0000
0000
0000
0000
,
0100
1000
0100
0010
1000
0001
0100
0010
,
0001
0100
0001
0010
1000
0001
0100
0010
,
0100
1000
0100
0010
1000
0001
0100
0010
,
0001
0100
0001
1000
0010
0001
0100
0010
,
1000
0100
1000
0001
0100
0010
0001
1000
,
0001
0100
0001
1000
0001
0010
1000
0100
,
0010
0001
0100
0001
1000
0100
2010
3001
,
0110
0000
0110
0000
0000
0000
0000
0000
0001
0010
0001
1000
0010
0000
0101
0000
,
1010
0000
0000
0000
0101
0000
1000
0000
0010
0100
0010
0000
1001
0000
0010
0000
,
1100
0000
1000
0000
0001
0000
2010
0000
0000
0000
3100
0000
0001
0010
0100
0000
,
1020
0000
0130
0000
1002
0000
0013
0010
0201
0000
1300
0000
0021
0000
0230
0000
,
0001
0000
0011
0000
1301
0000
0000
0000
1000
0100
0001
0010
0001
0100
1000
0010
,
0201
0000
1300
0000
0021
0000
0130
0100
1002
0000
0013
0000
2001
0000
3020
0000
,
0001
0000
1100
0000
1031
0000
0000
0000
1000
0100
0001
0010
0101
1001
0010
0000
,
1100
0110
0001
1100
1010
0001
0101
0110
,
1000
0000
0101
0000
0012
0000
0000
0000
0103
0010
1000
0010
0100
0000
0110
0000
,
1001
0000
0000
0000
1100
0000
0000
0010
1000
0000
0001
0000
1100
0000
0010
0000
,
0101
1000
0000
0000
0011
0000
0000
0100
0001
0000
1000
0000
0011
0000
0000
0000
,
1001
0000
0000
0000
1010
0000
0000
0100
0001
0000
1000
0000
0011
0000
0100
0000
,
1001
0010
0000
0000
1100
0000
0000
0010
0100
0000
0001
0000
1100
0000
0010
0000
,
2001
0000
0000
0000
3110
0000
0000
0001
0100
0010
1000
0000
0011
0000
0100
0000
,
1002
0000
0113
2010
0000
3100
0011
0000
,
1001
0000
0000
0000
0101
0000
0000
0010
1000
0000
0001
0000
1100
0000
0010
0000
,
1000
0001
0000
0000
0110
0000
0000
1000
0001
0100
0010
0000
0101
1000
0100
1000
,
0011
0000
0000
0000
1002
0000
0000
0103
0010
0000
1001
0000
0010
0000
1100
0000
,
1001
0010
0000
0000
0201
0000
0000
1300
0010
0000
1001
0000
0100
0000
1010
0000
,
0110
0000
0000
0000
2001
0000
0000
3010
0100
0000
1010
0000
0001
0000
0110
0000
,
1001
0010
0000
0000
2010
0000
0000
3100
0001
0000
0011
0000
1000
0000
1010
0000
,
0110
0000
0000
0000
0021
0000
0000
1030
0001
0100
0010
0000
1010
0000
0100
0100
,
0012
0000
1103
2010
0000
3010
1001
0100
,
0011
0000
2000
3000
0201
0300
1020
0030
0200
0300
2001
3000
0012
0003
0210
0300
,
2002
0000
0000
0000
3103
0000
0000
1000
0010
0000
1100
0000
0001
0010
0100
0000
,
1001
0100
0001
1010
1001
0100
0110
0000
,
1001
0100
0001
1010
1001
0100
0110
1000
,
0102
0000
0110
1000
0000
0100
1013
1000
,
2001
0000
0000
0000
0101
0000
0010
0000
0011
0000
3100
0000
0001
0010
0001
0010
,
1100
0000
0001
0000
1010
0000
0001
0000
0110
0000
1000
0000
0101
0000
1000
1000
,
0011
0001
0100
0000
0011
0000
1000
0000
0011
0000
0100
0000
0011
0000
1000
1000
,
0101
0000
0000
0000
1100
0000
0010
0000
0101
0000
1000
0000
0110
0000
0001
0001
,
1100
0000
0010
0000
1100
0000
0001
0000
1100
0100
0010
0000
1001
0000
0010
0000
,
2002
0000
0000
0000
0010
3003
0000
0000
0100
1000
0010
0001
0010
0000
0100
0010
,
1001
0000
1001
0000
0110
0000
2002
0000
0000
0000
3013
0000
0001
0001
0100
0000
,
1001
0000
0000
0000
0101
0000
0010
1000
0100
0000
1000
0000
0011
0000
0100
0000
,
1020
0000
0030
0000
0101
0000
0010
1000
0100
0000
1000
0000
0101
0000
0010
0000
,
2100
0000
0000
3000
1001
0000
0010
0100
0001
0000
1100
0000
0011
0000
0100
0000
,
1001
0010
0101
1000
1010
0100
0011
2200
,
3311
0000
1001
0010
0100
1001
1010
0001
,
2100
0000
3002
0000
0203
0000
0321
0030
0010
0000
0100
0000
1001
0000
0110
0000
,
0101
0001
1010
1000
0011
0100
1001
0010
,
0101
0000
1000
0000
1100
0000
0011
0000
1001
0100
1000
0100
0010
0000
1000
0000
,
0101
0000
0000
0000
1010
0000
0001
0100
0010
0000
1100
0000
0001
0000
0110
0000
,
1001
0000
0000
0000
0101
0000
1000
0010
0100
0000
0011
0000
1000
0001
0010
0000
,
0101
0000
0000
0000
1010
0000
0100
1000
0011
0000
0100
0000
1010
0000
0100
0000
,
1001
0000
0001
0000
1010
0000
0001
0000
0101
0000
1000
0000
0110
0001
1000
0000
,
0102
0000
0023
0030
2000
0000
3210
0300
0001
0000
0010
0000
0101
0000
0010
0000
,
1001
1001
1010
0102
0000
1000
0110
1003
,
0102
0000
0013
0000
2010
0000
3100
0000
1001
0010
0100
0001
0010
1000
0100
0000
,
2012
0000
0000
0000
3000
0100
1010
0103
,
0011
0000
0000
0000
0101
0000
0000
0100
2010
0000
0010
0000
3101
0000
0000
0000
,
1100
0101
0010
1002
0000
0010
0100
1003
,
0201
0000
0310
0000
2001
0000
3100
0100
1020
0000
0031
0000
1200
0000
0320
0000
,
0001
0000
1100
0000
1031
0000
0000
0000
1000
0100
0010
0001
0001
0010
0100
1000
,
0102
0000
0013
0000
1200
0000
0310
0010
2001
0000
3100
0000
0021
0000
2030
0000
,
0100
0000
3011
0000
1001
0000
0000
0000
0001
0010
0100
1000
0011
1001
0100
0000
,
0011
0110
1000
0011
0101
1000
1010
0110
,
0001
1010
2102
0000
0000
0000
0000
0000
,
3013
0000
0000
0000
0010
0000
0000
0000
1000
0101
1000
0010
0100
0000
0010
0000
,
2002
0000
0000
0000
,
0000
0000
0000
0000
,
3003
0000
0000
0000
;

//---------------dance-single - ----------------
#NOTES:
     dance-single:
     :
     Medium:
     5:
     0.485,0.501,0.171,0.261,0.000,329.000,19.000,29.000,0.000,0.000:
0000
0000
0000
0000
,
1000
0000
0010
0000
0001
0100
0010
0000
,
0001
0000
0010
0000
1000
0100
0010
0000
,
1000
0000
0001
0000
0100
0010
1000
0000
,
0001
0000
1000
0000
0100
0010
0001
0000
,
1000
0000
0100
0000
0001
0010
0100
0000
,
0001
0000
1000
0000
0010
0001
0100
0000
,
0010
1000
0001
0100
,
1001
0000
0000
0000
1000
0010
0100
0001
,
2000
3100
0002
0103
,
0010
0010
0000
2002
0000
0000
3003
0000
,
1000
0000
0100
0000
0001
0010
0100
2000
,
0000
0010
3010
0000
0000
0000
0000
0000
,
0001
0000
0100
0000
1000
0010
0100
0002
,
0000
0010
0013
0000
0000
0000
0110
0000
,
1000
1000
0000
0100
0100
0000
0001
0001
,
0000
1000
0002
0000
0000
0000
0000
0003
,
0100
0000
0100
0000
0001
0010
0001
0100
,
0001
0000
1000
0010
0000
0100
0010
2000
,
0000
0000
3000
0000
0000
0001
0100
0001
,
1000
0010
0100
0001
0000
1000
0100
0020
,
0000
0000
0030
1001
,
0101
1000
1100
0010
,
0100
0000
0100
0000
0001
1000
0100
0000
,
1000
0010
0001
0010
1000
0100
0010
0001
,
1000
0000
0001
0000
1000
0100
1000
0010
,
1000
0000
0001
0010
0000
0100
0010
0001
,
0000
0000
0000
0000
0000
0100
1000
0010
,
0100
0000
0001
1000
0000
0010
0100
0020
,
0000
0000
0000
0030
0000
0000
1001
0000
,
0010
0100
1000
0001
,
0101
0000
1100
0000
0001
1000
0001
0000
,
0100
0100
0001
1000
,
0020
0000
0000
0100
0000
0100
0030
0000
,
2000
0000
0000
0001
0000
3010
0000
0000
,
0002
0000
0000
0100
0000
0103
0000
0000
,
0020
0000
0000
0001
0000
0130
1000
0001
,
0100
0000
0100
0000
0010
1000
0100
0000
,
0010
1000
0001
0000
0100
0001
0010
0000
,
0001
1000
0010
0100
,
1001
0110
1001
0110
,
2002
0000
0000
3003
,
0001
1000
1000
0002
0000
0103
0010
0000
,
1000
0100
1000
0100
1000
0010
0100
0000
,
0001
0100
0001
0100
0001
0010
0100
0000
,
1000
0001
1000
0001
0100
0010
1000
0000
,
0001
0100
1000
0100
0000
0001
1000
0100
,
0010
0000
0110
0000
1000
0001
0100
0001
,
0010
0000
0100
1000
0000
0001
0100
0001
,
1000
0010
1000
0001
1000
0100
1000
0020
,
0000
0000
0030
0000
0000
0100
0001
0100
,
0010
1000
0010
1000
0100
0010
0001
0000
,
0010
0001
0010
0001
0100
0010
1000
0000
,
0001
0100
0001
0100
1000
0100
0010
0000
,
1000
0010
0001
0010
1000
0001
0100
0010
,
0100
0000
1001
0000
0001
0001
0010
0001
,
1000
0000
0100
1100
0000
1000
0010
0100
,
0002
0000
1003
0010
0100
0010
0001
0010
,
2000
0000
0000
0000
3000
0001
0100
0001
,
0020
0130
2000
3010
,
0100
0100
0000
2002
0000
3003
0000
0000
,
0001
0000
1000
0000
0010
1000
0100
0002
,
0000
1000
1003
0000
0000
0000
0000
0000
,
1000
0000
0001
0000
0010
0001
0100
2000
,
0000
0001
3001
0000
0000
0000
0010
0100
,
0001
0001
0000
1000
1000
0000
0010
0010
,
0000
0100
2002
0000
0000
0000
0000
3003
,
0010
0000
0100
0000
0010
1000
0001
1000
,
0200
0000
0000
0000
,
0000
0000
0300
0000
;

//---------------dance-single - ----------------
#NOTES:
     dance-single:
     :
     Easy:
     3:
     0.362,0.401,0.153,0.189,0.000,243.000,17.000,21.000,0.000,0.000:
0000
0000
0000
0000
,
1000
0100
1000
1000
,
0001
0100
0001
0001
,
1000
0100
0001
0010
,
0001
0000
1000
0000
,
0010
0100
0010
0100
,
1000
0001
0100
0010
,
2000
0000
0000
3010
,
1001
0000
0100
0010
,
0001
0100
1000
0100
,
0001
0010
1000
0000
,
0001
0100
0010
1000
,
0100
0010
0200
0300
,
1000
0010
0100
0001
,
0010
0100
0020
0030
,
0001
0000
0000
0100
0000
0000
0001
0000
,
0000
1000
0000
0000
0010
0000
0010
0000
,
0100
0001
1000
0100
,
1000
0001
0100
0010
,
1000
0100
0001
0010
,
0001
0100
1000
0010
,
1000
0001
1000
0100
,
0001
1000
0001
0100
,
0010
0010
0100
0010
,
1000
0100
0001
0010
,
0100
1001
0010
0100
,
0010
1001
0100
0010
,
1000
0101
0010
1000
,
0001
1100
0010
0001
,
1000
0100
0001
0100
,
2000
3000
0002
0003
,
0100
0010
1000
0010
,
0001
0010
0100
0010
,
2000
3100
0010
0100
,
0002
0103
0010
0100
,
2001
3100
0010
1000
,
1002
0103
0010
0001
,
1000
1000
0001
0001
,
0100
0100
0010
0100
,
1001
0010
1000
0100
,
1001
0010
0001
0100
,
0020
0000
0130
0010
,
1000
0001
0200
0300
,
0001
0101
1000
0001
,
1000
1100
0001
1000
,
0010
0100
0001
0100
,
0010
1000
0100
1000
,
0020
0030
0100
0010
,
0200
0300
0001
1000
,
0001
0010
0100
1000
,
0010
0110
1000
0001
,
1000
1100
0001
1000
,
0001
0101
1000
0001
,
0100
0010
1000
0010
,
0100
0001
1000
0010
,
0200
0301
1000
0001
,
0100
0010
1000
0001
,
0200
0000
0000
0300
,
0011
0100
1000
0010
,
0100
1001
1000
0100
,
0001
0010
0200
0000
,
0301
0100
0010
1000
,
0001
1000
0002
0003
,
1000
0010
0100
0001
,
1000
0001
2000
3000
,
0010
0000
0000
0100
0000
0000
0001
0000
,
0000
2000
0000
0000
0000
0000
0000
0000
,
3100
0100
1000
0001
,
0220
0000
0330
0000
;
