#TITLE:Fighting The Inhuman;
#SUBTITLE:;
#ARTIST:XKirby;
#TITLETRANSLIT:;
#SUBTITLETRANSLIT:;
#ARTISTTRANSLIT:;
#CREDIT:Mad Matt;
#BANNER:../Banner.png;
#BACKGROUND:../bg.png;
#LYRICSPATH:;
#CDTITLE:;
#MUSIC:Fighting The Inhuman.ogg;
#OFFSET:-0.060;
#SAMPLESTART:79.130;
#SAMPLELENGTH:30.000;
#SELECTABLE:YES;
#BPMS:0.000=249.000;
#STOPS:;
#BGCHANGES:;
// cache tags:
#FIRSTBEAT:32.000;
#LASTBEAT:523.750;
#SONGFILENAME:Songs/Tachyon Epsilon/Fighting The Inhuman - [Mad Matt]/Fighting The Inhuman.sm;
#HASMUSIC:1;
#HASBANNER:1;
#MUSICLENGTH:126.320;
// end cache tags

//---------------dance-single - Mad Matt----------------
#NOTES:
     dance-single:
     Mad Matt:
     Challenge:
     20:
     1.000,1.000,0.000,0.340,1.000,1311.000,0.000,43.000,0.000,0.000:

0000
0000
0000
0000
,
0000
0000
0000
0000
,
0000
0000
0000
0000
,
0000
0000
0000
0000
,
0000
0000
0000
0000
,
0000
0000
0000
0000
,
0000
0000
0000
0000
,
0000
0000
0000
0000
,
0001
0100
0010
1000
0001
0100
0001
0010
,
0001
1000
0100
0010
0001
1000
0001
0010
,
0001
0100
0010
1000
0001
1000
0100
0010
,
0001
0100
0010
1000
0001
1000
0100
1000
,
0001
0010
0100
1000
0001
0010
0001
0100
,
0001
1000
0010
0100
0001
1000
0001
0100
,
0001
0010
0100
1000
0001
1000
0010
0100
,
0001
1000
0100
1000
0001
0010
0100
1000
,
0010
0000
1000
0001
0100
0000
0010
0000
0100
0001
1000
0000
0100
0010
0100
1000
,
0001
0100
0001
0100
0000
0001
2000
0000
,
3010
0100
0010
0100
0010
0000
2000
0000
,
3001
0100
0001
0100
0000
0001
2000
0000
,
3010
0100
0010
0100
0010
0000
2000
0000
,
3001
0100
0001
0100
0000
0001
2000
0000
,
3100
0010
0100
0010
0100
0000
2000
0000
,
3001
0010
0001
0010
0000
0001
2000
0000
,
3001
0000
0000
0000
1000
0010
0100
0001
1000
0000
0100
0000
0010
0001
0100
0001
,
1000
0100
1000
0100
0000
1000
0002
0000
,
0013
0100
0010
0100
0010
0000
0002
0000
,
1003
0100
1000
0100
0000
1000
0002
0000
,
0013
0100
0010
0100
0010
0000
0002
0000
,
1003
0100
1000
0100
0000
1000
0002
0000
,
0103
0010
0100
0010
0100
0000
0002
0000
,
1003
0010
1000
0010
0000
1000
0002
0000
,
1003
0000
0000
0000
0100
0010
0001
1000
0010
0000
0100
0000
0001
1000
0100
1000
,
0001
0100
0010
0100
0001
0100
0001
1000
,
0100
0010
0100
1000
0010
1000
0001
0100
,
0001
1000
0010
1000
0001
1000
0001
0100
,
0010
1000
0001
0010
0001
1000
0010
1000
,
0001
0010
0100
0010
0001
0010
0001
1000
,
0100
1000
0010
0100
0001
1000
0001
0010
,
0001
1000
0010
1000
0001
1000
0001
0010
,
0100
0010
0001
0100
0010
1000
0100
1000
,
0001
0100
0010
0100
0001
0100
0001
1000
,
0100
0010
0100
1000
0010
1000
0001
0100
,
0001
1000
0010
1000
0001
1000
0001
0100
,
0010
1000
0001
0010
0001
1000
0010
1000
,
0001
0010
0100
0010
0001
0010
0001
1000
,
0100
1000
0010
0100
0001
1000
0001
0010
,
0001
1000
0010
1000
0001
1000
0001
0010
,
0100
0010
0001
0100
0010
1000
0100
1000
,
0001
0010
0001
0100
0010
0100
0001
1000
0100
1000
0010
1000
0001
0100
0010
1000
,
0100
0010
0001
0100
0010
0100
0001
1000
0100
1000
0010
1000
0001
0100
0010
1000
,
0001
0100
0001
0010
0100
0010
0001
1000
0010
1000
0100
1000
0001
0010
0100
1000
,
0010
0100
0001
0010
0100
0010
0001
1000
0010
1000
0100
1000
0001
0010
0100
1000
,
0001
1000
0010
0100
0010
1000
0001
0010
0001
0100
0001
1000
0010
0100
0001
0010
,
0100
1000
0010
0100
0010
1000
0001
0010
0001
0100
0001
1000
0010
0100
0001
1000
,
0001
0010
0100
0010
0001
1000
0010
1000
0100
1000
0001
0010
0100
1000
0010
0100
,
0001
0010
0100
0010
0001
1000
0010
1000
0100
1000
0001
0010
0100
1000
0010
1000
,
0001
0010
0001
0100
0010
1000
0001
0010
0001
0100
0010
0100
0001
1000
0100
1000
,
0001
0010
0001
0100
0010
1000
0001
0010
0001
0100
0010
0100
0001
1000
0100
1000
,
0001
0100
0001
0010
0100
1000
0001
0100
0001
0010
0100
0010
0001
1000
0010
1000
,
0001
0100
0001
0010
0100
1000
0001
0100
0001
0010
0100
0010
0001
1000
0010
1000
,
0001
0010
0001
0100
0001
1000
0100
1000
0010
0100
0010
1000
0001
0010
0001
1000
,
0100
1000
0010
0100
0001
1000
0100
1000
0010
0100
0010
1000
0001
0010
0100
1000
,
0001
0100
0001
0010
0001
1000
0010
1000
0100
0010
0100
1000
0001
0100
0001
1000
,
0010
1000
0100
0010
0001
1000
0010
1000
0100
0010
0100
1000
0001
0100
0010
1000
,
0001
0100
0001
0100
0000
0001
2000
0000
,
3010
0100
0010
0100
0010
0000
2000
0000
,
3001
0100
0001
0100
0000
0001
2000
0000
,
3010
0100
0010
0100
0010
0000
2000
0000
,
3001
0100
0001
0100
0000
0001
2000
0000
,
3100
0010
0100
0010
0100
0000
2000
0000
,
3001
0010
0001
0010
0000
0001
2000
0000
,
3001
0000
0000
0000
1000
0010
0100
0001
1000
0000
0100
0000
0010
0001
0100
0001
,
1000
0100
1000
0100
0000
1000
0002
0000
,
0013
0100
0010
0100
0010
0000
0002
0000
,
1003
0100
1000
0100
0000
1000
0002
0000
,
0013
0100
0010
0100
0010
0000
0002
0000
,
1003
0100
1000
0100
0000
1000
0002
0000
,
0103
0010
0100
0010
0100
0000
0002
0000
,
1003
0010
1000
0010
0000
1000
0002
0000
,
1003
0000
0000
0000
0100
0010
0001
1000
0010
0000
0100
0000
0001
1000
0100
1000
,
0001
0000
0100
0010
1000
0000
0001
0000
0010
0100
1000
0000
0010
0100
0010
1000
,
0001
0010
0100
1000
0010
1000
0001
0010
0100
1000
0010
1000
0001
0010
0001
0100
,
0001
1000
0010
0100
0001
0010
0100
1000
0001
0100
0010
1000
0100
1000
0001
0010
,
0001
0100
0001
1000
0010
1000
0100
1000
0001
0010
0001
0100
0001
1000
0010
0100
,
0001
1000
0100
1000
0001
0010
0001
0100
0010
0100
0001
1000
0100
1000
0001
0100
,
0010
1000
0001
0100
0001
0010
0001
1000
0100
1000
0001
0100
0001
0010
0100
1000
,
0001
0100
0001
0010
0001
1000
0100
0010
0001
1000
0100
1000
0010
0100
0001
1000
,
0100
1000
0001
0010
0001
0100
0001
1000
0010
1000
0001
0010
0001
0100
0010
1000
,
0100
0010
0001
1000
0010
0100
0001
0010
0100
1000
0001
0100
0010
1000
0100
0010
,
0001
1000
0010
1000
0100
0010
0100
1000
0001
0100
0001
0010
0100
1000
0010
1000
,
0001
0010
0001
0100
0010
0100
0001
1000
0100
1000
0010
0100
0001
0010
0001
1000
,
0010
1000
0100
0010
0001
0100
0001
1000
0100
0010
0100
1000
0010
1000
0001
0010
,
0001
0100
0010
1000
0001
0010
0001
0100
0010
1000
0100
1000
0001
0100
0010
1000
,
0001
0010
0001
0100
0001
1000
0010
0100
0001
1000
0010
1000
0100
1000
0001
0010
,
0001
1000
0010
1000
0100
1000
0001
0010
0001
0100
0010
1000
0001
1000
0100
1000
,
0001
0010
0001
0100
0010
0100
0001
1000
0100
1000
0010
0100
0010
1000
0001
0010
,
0001
1000
0010
1000
0100
0010
0100
1000
0010
0100
0001
1000
0100
0010
0001
1000
,
0100
1000
0001
0010
0001
0100
0001
1000
0010
1000
0100
0010
0001
0100
0001
1000
,
0100
1000
0010
1000
0001
0100
0001
1000
0010
1000
0100
0010
0001
0100
0001
1000
,
0010
1000
0001
0100
0001
0010
0001
1000
0100
1000
0010
0100
0001
0010
0001
1000
,
0010
1000
0100
1000
0001
0010
0001
1000
0100
1000
0010
0100
0001
0010
0001
1000
,
0100
1000
0010
0100
0010
1000
0001
0010
0001
0100
0010
0100
0001
1000
0100
1000
,
0010
0100
0001
1000
0100
1000
0010
0100
0010
1000
0001
0010
0001
0100
0010
1000
,
0001
0010
0100
0010
0001
0100
0001
1000
0100
0010
0100
1000
0010
1000
0001
0010
,
0100
1000
0010
1000
0001
0100
0001
0010
0100
0010
0001
1000
0020
0000
0000
0000
,
1030
0100
1000
0010
1000
0010
0100
0001
1000
0001
0010
0100
0010
0001
0100
0001
,
1000
0010
1000
0100
1000
0100
0010
0001
1000
0001
0100
0010
1000
0001
1000
0100
,
1000
0001
0010
0001
0100
0001
0100
0010
1000
0001
1000
0100
0010
0100
1000
0010
,
1000
0001
0100
0001
0010
0001
0010
0100
1000
0010
1000
0001
0100
0001
0100
0010
,
1000
0001
1000
0100
1000
0100
0010
0001
1000
0001
0100
0010
0100
0001
0010
0001
,
1000
0100
1000
0010
1000
0010
0100
0001
1000
0001
0010
0100
1000
0001
1000
0010
,
1000
0001
0010
0100
1000
0010
0100
0001
1000
0100
0010
0001
0100
0010
1000
0001
,
0010
0100
1000
0010
0100
0001
1000
0100
0010
0100
1000
0010
0100
0001
0010
0001
,
1000
0010
1000
0010
0000
1000
0002
0000
,
0103
0010
0100
0010
0100
0000
0002
0000
,
1003
0010
1000
0010
0000
1000
0002
0000
,
0103
0010
0100
0010
0100
0000
0002
0000
,
1003
0010
1000
0010
0000
1000
0002
0000
,
0013
0100
0010
0100
0010
0000
0002
0000
,
1003
0100
1000
0100
0000
1000
0002
0000
,
1003
0000
0000
0000
0001
0100
0010
1000
0001
0000
0010
0000
0100
1000
0010
1000
,
0001
0010
0001
0010
0000
0001
2000
0000
,
3100
0010
0100
0010
0100
0000
2000
0000
,
3001
0010
0001
0010
0000
0001
2000
0000
,
3100
0010
0100
0010
0100
0000
2000
0000
,
3001
0010
0001
0010
0000
0001
2000
0000
,
3010
0100
0010
0100
0010
0000
2000
0000
,
3001
0100
0001
0100
0000
0001
2000
0000
,
3001
0000
0000
0000
0010
0100
1000
0001
0100
0000
0010
0000
1000
0001
0010
0001
,
1000
0000
0100
0010
0001
0000
1000
0000
0010
0100
0001
0000
0010
0100
1000
0001
;

//---------------dance-single - Mad Matt----------------
#NOTES:
     dance-single:
     Mad Matt:
     Easy:
     18:
     1.000,1.000,0.000,0.586,0.982,1128.000,0.000,74.000,0.000,0.000:





0000
0000
0000
0000
,
0000
0000
0000
0000
,
0000
0000
0000
0000
,
0000
0000
0000
0000
,
0000
0000
0000
0000
,
0000
0000
0000
0000
,
0000
0000
0000
0000
,
0000
0000
0000
0000
,
0001
0100
0010
1000
0001
0100
0001
0010
,
0001
1000
0100
0010
0001
1000
0001
0010
,
0001
0100
0010
1000
0001
1000
0100
0010
,
0001
0100
0010
1000
0001
1000
0100
1000
,
0001
0010
0100
1000
0001
0010
0001
0100
,
0001
1000
0010
0100
0001
1000
0001
0100
,
0001
0010
0100
1000
0001
1000
0010
0100
,
0001
1000
0100
1000
0001
0010
0100
1000
,
0010
0000
1000
0001
0100
0000
0010
0000
0100
0001
1000
0000
0100
0010
0100
1000
,
0001
0100
0001
0100
0000
0001
2000
0000
,
3010
0100
0010
0100
0010
0000
2000
0000
,
3001
0100
0001
0100
0000
0001
2000
0000
,
3010
0100
0010
0100
0010
0000
2000
0000
,
3001
0100
0001
0100
0000
0001
2000
0000
,
3100
0010
0100
0010
0100
0000
2000
0000
,
3001
0010
0001
0010
0000
0001
2000
0000
,
3001
0000
0000
0000
1000
0010
0100
0001
1000
0000
0100
0000
0010
0001
0100
0001
,
1000
0100
1000
0100
0000
1000
0002
0000
,
0013
0100
0010
0100
0010
0000
0002
0000
,
1003
0100
1000
0100
0000
1000
0002
0000
,
0013
0100
0010
0100
0010
0000
0002
0000
,
1003
0100
1000
0100
0000
1000
0002
0000
,
0103
0010
0100
0010
0100
0000
0002
0000
,
1003
0010
1000
0010
0000
1000
0002
0000
,
1003
0000
0000
0000
0100
0010
0001
1000
0010
0000
0100
0000
0001
1000
0100
1000
,
0001
0100
0010
0100
0001
0100
0001
1000
,
0100
0010
0100
1000
0010
1000
0001
0100
,
0001
1000
0010
1000
0001
1000
0001
0100
,
0010
1000
0001
0010
0001
1000
0010
1000
,
0001
0010
0100
0010
0001
0010
0001
1000
,
0100
1000
0010
0100
0001
1000
0001
0010
,
0001
1000
0010
1000
0001
1000
0001
0010
,
0100
0010
0001
0100
0010
1000
0100
1000
,
0001
0100
0010
0100
0001
0100
0001
1000
,
0100
0010
0100
1000
0010
1000
0001
0100
,
0001
1000
0010
1000
0001
1000
0001
0100
,
0010
1000
0001
0010
0001
1000
0010
1000
,
0001
0010
0100
0010
0001
0010
0001
1000
,
0100
1000
0010
0100
0001
1000
0001
0010
,
0001
1000
0010
1000
0001
1000
0001
0010
,
0100
0010
0001
0100
0010
1000
0100
1000
,
0001
0010
0001
0100
0010
0100
0001
1000
0100
1000
0010
1000
0001
0100
0010
1000
,
0100
0010
0001
0100
0010
0100
0001
1000
0100
1000
0010
1000
0001
0100
0010
1000
,
0001
0100
0001
0010
0100
0010
0001
1000
0010
1000
0100
1000
0001
0010
0100
1000
,
0010
0100
0001
0010
0100
0010
0001
1000
0010
1000
0100
1000
0001
0010
0100
1000
,
0001
1000
0010
0100
0010
1000
0001
0010
0001
0100
0001
1000
0010
0100
0001
0010
,
0100
1000
0010
0100
0010
1000
0001
0010
0001
0100
0001
1000
0010
0100
0001
1000
,
0001
0010
0100
0010
0001
1000
0010
1000
0100
1000
0001
0010
0100
1000
0010
0100
,
0001
0010
0100
0010
0001
1000
0010
1000
0100
1000
0001
0010
0100
1000
0010
1000
,
0001
0010
0001
0100
0010
1000
0001
0010
0001
0100
0010
0100
0001
1000
0100
1000
,
0001
0010
0001
0100
0010
1000
0001
0010
0001
0100
0010
0100
0001
1000
0100
1000
,
0001
0100
0001
0010
0100
1000
0001
0100
0001
0010
0100
0010
0001
1000
0010
1000
,
0001
0100
0001
0010
0100
1000
0001
0100
0001
0010
0100
0010
0001
1000
0010
1000
,
0001
0010
0001
0100
0001
1000
0100
1000
0010
0100
0010
1000
0001
0010
0001
1000
,
0100
1000
0010
0100
0001
1000
0100
1000
0010
0100
0010
1000
0001
0010
0100
1000
,
0001
0100
0001
0010
0001
1000
0010
1000
0100
0010
0100
1000
0001
0100
0001
1000
,
0010
1000
0100
0010
0001
1000
0010
1000
0100
0010
0100
1000
0001
0100
0010
1000
,
0001
0100
0001
0100
0000
0001
2000
0000
,
3010
0100
0010
0100
0010
0000
2000
0000
,
3001
0100
0001
0100
0000
0001
2000
0000
,
3010
0100
0010
0100
0010
0000
2000
0000
,
3001
0100
0001
0100
0000
0001
2000
0000
,
3100
0010
0100
0010
0100
0000
2000
0000
,
3001
0010
0001
0010
0000
0001
2000
0000
,
3001
0000
0000
0000
1000
0010
0100
0001
1000
0000
0100
0000
0010
0001
0100
0001
,
1000
0100
1000
0100
0000
1000
0002
0000
,
0013
0100
0010
0100
0010
0000
0002
0000
,
1003
0100
1000
0100
0000
1000
0002
0000
,
0013
0100
0010
0100
0010
0000
0002
0000
,
1003
0100
1000
0100
0000
1000
0002
0000
,
0103
0010
0100
0010
0100
0000
0002
0000
,
1003
0010
1000
0010
0000
1000
0002
0000
,
1003
0000
0000
0000
0100
0010
0001
1000
0010
0000
0100
0000
0001
1000
0100
1000
,
0001
0000
0100
0010
1000
0000
0001
0000
0010
0100
1000
0000
0010
0100
0010
1000
,
0001
0000
0001
0000
0001
1000
0010
0100
,
0000
0010
0100
0010
1000
0001
0010
0100
,
1000
0010
1000
0001
1000
0100
0010
0001
,
0000
0100
0001
1000
0100
1000
0010
0100
,
0010
1000
0001
0100
0001
0010
0001
1000
0100
1000
0001
0100
0001
0010
0100
1000
,
0001
0100
0001
0010
0001
1000
0100
0010
0001
1000
0100
1000
0010
0100
0001
1000
,
0100
1000
0001
0010
0001
0100
0001
1000
0010
1000
0001
0010
0001
0100
0010
1000
,
0100
0010
0001
1000
0010
0100
0001
0010
0100
1000
0001
0100
0010
1000
0100
0010
,
0001
1000
0010
1000
0100
0010
0100
1000
0001
0100
0001
0010
0100
1000
0010
1000
,
0001
0010
0001
0100
0010
0100
0001
1000
0100
1000
0010
0100
0001
0010
0001
1000
,
0010
1000
0100
0010
0001
0100
0001
1000
0100
0010
0100
1000
0010
1000
0001
0010
,
0001
0100
0010
1000
0001
0010
0001
0100
0010
1000
0100
1000
0001
0100
0010
1000
,
0002
0003
0000
0000
0000
0000
0000
0000
2000
3000
0000
0000
0000
0000
0000
0000
0020
0030
0000
0000
0000
0000
0000
0000
2000
3000
0000
0000
0000
0000
0000
0000
0200
0300
0000
0000
0000
0000
0000
0000
2000
3000
0000
0000
0000
0000
0000
0000
0020
0030
0000
0000
0000
0000
0000
0000
0200
0300
0000
0000
0000
0000
0000
0000
,
0020
0030
0000
0000
0000
0000
0000
0000
2000
3000
0000
0000
0000
0000
0000
0000
0002
0003
0000
0000
0000
0000
0000
0000
2000
3000
0000
0000
0000
0000
0000
0000
0200
0300
0000
0000
0000
0000
0000
0000
0020
0030
0000
0000
0000
0000
0000
0000
0200
0300
0000
0000
0000
0000
0000
0000
2000
3000
0000
0000
0000
0000
0000
0000
,
0002
0003
0000
0000
0200
0300
0000
0000
0020
0030
0000
0000
2000
3000
0000
0000
0002
0003
0000
0000
0200
0300
0000
0000
0020
0030
0000
0000
2000
3000
0000
0000
,
0002
0003
0000
0000
0200
0300
0000
0000
0020
0030
0000
0000
2000
3000
0000
0000
0200
0300
0000
0000
0020
0030
0000
0000
0002
0003
0000
0000
0000
0000
0000
0000
,
1000
0000
0100
0000
1000
0000
0100
0000
0010
0000
0000
0001
0000
0000
1000
0000
,
0001
0000
0100
0000
0001
0000
0100
0000
0010
0000
0000
1000
0000
0000
0001
0000
,
0010
0000
0100
0000
0010
0000
0100
0000
1000
0000
0000
0010
0000
0000
0100
0000
,
0001
0000
1000
0000
0001
0000
1000
0000
0010
0000
0000
0100
0000
0000
0001
0000
,
1000
0100
1000
0010
1000
0001
0100
0010
,
1000
0001
0010
0001
0100
0010
1000
0001
,
0010
0001
0100
0001
1000
0100
0010
0001
,
0100
0010
1000
0001
0010
0001
0200
0000
,
0301
0010
0001
0010
0100
1000
0100
1000
,
0001
0100
0001
0100
0010
1000
0010
1000
,
0100
0010
0100
0010
0001
1000
0001
1000
,
0001
0100
0001
0100
0001
0100
0001
0100
,
0010
1000
0010
1000
0001
0010
0001
0010
,
0100
1000
0100
1000
0010
0100
0010
0100
,
0001
1000
0100
0010
0001
0100
0010
1000
0001
0010
0100
1000
0010
0100
0001
1000
,
0100
0010
0001
0100
0010
1000
0001
0010
0100
0010
0001
0100
0010
1000
0100
1000
,
0001
0100
0001
0100
0000
0001
2000
0000
,
3010
0100
0010
0100
0010
0000
2000
0000
,
3001
0100
0001
0100
0000
0001
2000
0000
,
3010
0100
0010
0100
0010
0000
2000
0000
,
3001
0100
0001
0100
0000
0001
2000
0000
,
3100
0010
0100
0010
0100
0000
2000
0000
,
3001
0010
0001
0010
0000
0001
2000
0000
,
3001
0000
0000
0000
1000
0010
0100
0001
1000
0000
0100
0000
0010
0001
0100
0001
,
1000
0100
1000
0100
0000
1000
0002
0000
,
0013
0100
0010
0100
0010
0000
0002
0000
,
1003
0100
1000
0100
0000
1000
0002
0000
,
0013
0100
0010
0100
0010
0000
0002
0000
,
1003
0100
1000
0100
0000
1000
0002
0000
,
0103
0010
0100
0010
0100
0000
0002
0000
,
1003
0010
1000
0010
0000
1000
0002
0000
,
1003
0000
0000
0000
0100
0010
0001
1000
0010
0000
0100
0000
0001
1000
0100
1000
,
0001
0000
0010
0100
1000
0000
0001
0000
0100
0010
1000
0000
0100
0010
0001
1000
;

//---------------dance-single - Mad Matt----------------
#NOTES:
     dance-single:
     Mad Matt:
     Hard:
     19:
     1.000,1.000,0.000,0.586,1.000,1242.000,0.000,74.000,0.000,0.000:



0000
0000
0000
0000
,
0000
0000
0000
0000
,
0000
0000
0000
0000
,
0000
0000
0000
0000
,
0000
0000
0000
0000
,
0000
0000
0000
0000
,
0000
0000
0000
0000
,
0000
0000
0000
0000
,
0001
0100
0010
1000
0001
0100
0001
0010
,
0001
1000
0100
0010
0001
1000
0001
0010
,
0001
0100
0010
1000
0001
1000
0100
0010
,
0001
0100
0010
1000
0001
1000
0100
1000
,
0001
0010
0100
1000
0001
0010
0001
0100
,
0001
1000
0010
0100
0001
1000
0001
0100
,
0001
0010
0100
1000
0001
1000
0010
0100
,
0001
1000
0100
1000
0001
0010
0100
1000
,
0010
0000
1000
0001
0100
0000
0010
0000
0100
0001
1000
0000
0100
0010
0100
1000
,
0001
0100
0001
0100
0000
0001
2000
0000
,
3010
0100
0010
0100
0010
0000
2000
0000
,
3001
0100
0001
0100
0000
0001
2000
0000
,
3010
0100
0010
0100
0010
0000
2000
0000
,
3001
0100
0001
0100
0000
0001
2000
0000
,
3100
0010
0100
0010
0100
0000
2000
0000
,
3001
0010
0001
0010
0000
0001
2000
0000
,
3001
0000
0000
0000
1000
0010
0100
0001
1000
0000
0100
0000
0010
0001
0100
0001
,
1000
0100
1000
0100
0000
1000
0002
0000
,
0013
0100
0010
0100
0010
0000
0002
0000
,
1003
0100
1000
0100
0000
1000
0002
0000
,
0013
0100
0010
0100
0010
0000
0002
0000
,
1003
0100
1000
0100
0000
1000
0002
0000
,
0103
0010
0100
0010
0100
0000
0002
0000
,
1003
0010
1000
0010
0000
1000
0002
0000
,
1003
0000
0000
0000
0100
0010
0001
1000
0010
0000
0100
0000
0001
1000
0100
1000
,
0001
0100
0010
0100
0001
0100
0001
1000
,
0100
0010
0100
1000
0010
1000
0001
0100
,
0001
1000
0010
1000
0001
1000
0001
0100
,
0010
1000
0001
0010
0001
1000
0010
1000
,
0001
0010
0100
0010
0001
0010
0001
1000
,
0100
1000
0010
0100
0001
1000
0001
0010
,
0001
1000
0010
1000
0001
1000
0001
0010
,
0100
0010
0001
0100
0010
1000
0100
1000
,
0001
0100
0010
0100
0001
0100
0001
1000
,
0100
0010
0100
1000
0010
1000
0001
0100
,
0001
1000
0010
1000
0001
1000
0001
0100
,
0010
1000
0001
0010
0001
1000
0010
1000
,
0001
0010
0100
0010
0001
0010
0001
1000
,
0100
1000
0010
0100
0001
1000
0001
0010
,
0001
1000
0010
1000
0001
1000
0001
0010
,
0100
0010
0001
0100
0010
1000
0100
1000
,
0001
0010
0001
0100
0010
0100
0001
1000
0100
1000
0010
1000
0001
0100
0010
1000
,
0100
0010
0001
0100
0010
0100
0001
1000
0100
1000
0010
1000
0001
0100
0010
1000
,
0001
0100
0001
0010
0100
0010
0001
1000
0010
1000
0100
1000
0001
0010
0100
1000
,
0010
0100
0001
0010
0100
0010
0001
1000
0010
1000
0100
1000
0001
0010
0100
1000
,
0001
1000
0010
0100
0010
1000
0001
0010
0001
0100
0001
1000
0010
0100
0001
0010
,
0100
1000
0010
0100
0010
1000
0001
0010
0001
0100
0001
1000
0010
0100
0001
1000
,
0001
0010
0100
0010
0001
1000
0010
1000
0100
1000
0001
0010
0100
1000
0010
0100
,
0001
0010
0100
0010
0001
1000
0010
1000
0100
1000
0001
0010
0100
1000
0010
1000
,
0001
0010
0001
0100
0010
1000
0001
0010
0001
0100
0010
0100
0001
1000
0100
1000
,
0001
0010
0001
0100
0010
1000
0001
0010
0001
0100
0010
0100
0001
1000
0100
1000
,
0001
0100
0001
0010
0100
1000
0001
0100
0001
0010
0100
0010
0001
1000
0010
1000
,
0001
0100
0001
0010
0100
1000
0001
0100
0001
0010
0100
0010
0001
1000
0010
1000
,
0001
0010
0001
0100
0001
1000
0100
1000
0010
0100
0010
1000
0001
0010
0001
1000
,
0100
1000
0010
0100
0001
1000
0100
1000
0010
0100
0010
1000
0001
0010
0100
1000
,
0001
0100
0001
0010
0001
1000
0010
1000
0100
0010
0100
1000
0001
0100
0001
1000
,
0010
1000
0100
0010
0001
1000
0010
1000
0100
0010
0100
1000
0001
0100
0010
1000
,
0001
0100
0001
0100
0000
0001
2000
0000
,
3010
0100
0010
0100
0010
0000
2000
0000
,
3001
0100
0001
0100
0000
0001
2000
0000
,
3010
0100
0010
0100
0010
0000
2000
0000
,
3001
0100
0001
0100
0000
0001
2000
0000
,
3100
0010
0100
0010
0100
0000
2000
0000
,
3001
0010
0001
0010
0000
0001
2000
0000
,
3001
0000
0000
0000
1000
0010
0100
0001
1000
0000
0100
0000
0010
0001
0100
0001
,
1000
0100
1000
0100
0000
1000
0002
0000
,
0013
0100
0010
0100
0010
0000
0002
0000
,
1003
0100
1000
0100
0000
1000
0002
0000
,
0013
0100
0010
0100
0010
0000
0002
0000
,
1003
0100
1000
0100
0000
1000
0002
0000
,
0103
0010
0100
0010
0100
0000
0002
0000
,
1003
0010
1000
0010
0000
1000
0002
0000
,
1003
0000
0000
0000
0100
0010
0001
1000
0010
0000
0100
0000
0001
1000
0100
1000
,
0001
0000
0100
0010
1000
0000
0001
0000
0010
0100
1000
0000
0010
0100
0010
1000
,
0001
0000
0001
0000
0001
1000
0010
0100
,
0000
0010
0100
0010
1000
0001
0010
0100
,
1000
0010
1000
0001
1000
0100
0010
0001
,
0000
0100
0001
1000
0100
1000
0010
0100
,
0010
1000
0001
0100
0001
0010
0001
1000
0100
1000
0001
0100
0001
0010
0100
1000
,
0001
0100
0001
0010
0001
1000
0100
0010
0001
1000
0100
1000
0010
0100
0001
1000
,
0100
1000
0001
0010
0001
0100
0001
1000
0010
1000
0001
0010
0001
0100
0010
1000
,
0100
0010
0001
1000
0010
0100
0001
0010
0100
1000
0001
0100
0010
1000
0100
0010
,
0001
1000
0010
1000
0100
0010
0100
1000
0001
0100
0001
0010
0100
1000
0010
1000
,
0001
0010
0001
0100
0010
0100
0001
1000
0100
1000
0010
0100
0001
0010
0001
1000
,
0010
1000
0100
0010
0001
0100
0001
1000
0100
0010
0100
1000
0010
1000
0001
0010
,
0001
0100
0010
1000
0001
0010
0001
0100
0010
1000
0100
1000
0001
0100
0010
1000
,
0002
0003
0000
0000
0000
0000
0000
0000
2000
3000
0000
0000
0000
0000
0000
0000
0020
0030
0000
0000
0000
0000
0000
0000
2000
3000
0000
0000
0000
0000
0000
0000
0200
0300
0000
0000
0000
0000
0000
0000
2000
3000
0000
0000
0000
0000
0000
0000
0020
0030
0000
0000
0000
0000
0000
0000
0200
0300
0000
0000
0000
0000
0000
0000
,
0020
0030
0000
0000
0000
0000
0000
0000
2000
3000
0000
0000
0000
0000
0000
0000
0002
0003
0000
0000
0000
0000
0000
0000
2000
3000
0000
0000
0000
0000
0000
0000
0200
0300
0000
0000
0000
0000
0000
0000
0020
0030
0000
0000
0000
0000
0000
0000
0200
0300
0000
0000
0000
0000
0000
0000
2000
3000
0000
0000
0000
0000
0000
0000
,
0002
0003
0000
0000
0020
0030
0000
0000
0200
0300
0000
0000
2000
3000
0000
0000
0002
0003
0000
0000
0020
0030
0000
0000
0200
0300
0000
0000
2000
3000
0000
0000
,
0002
0003
0000
0000
0020
0030
0000
0000
0200
0300
0000
0000
2000
3000
0000
0000
0020
0030
0000
0000
0200
0300
0000
0000
0002
0003
0000
0000
0000
0000
0000
0000
,
0010
0001
1000
0100
1000
0010
1000
0001
0100
0001
0010
0100
1000
0010
1000
0001
,
0010
0001
0100
0001
1000
0010
1000
0001
0100
0001
0010
0100
1000
0010
1000
0001
,
0100
0001
1000
0010
1000
0100
1000
0001
0010
0001
0100
0010
1000
0100
1000
0001
,
0100
0001
0010
0001
1000
0100
1000
0001
0010
0001
0100
0010
1000
0100
1000
0001
,
0010
0001
0100
0010
0100
0001
1000
0100
1000
0010
0100
0010
1000
0001
0010
0001
,
0100
0010
1000
0001
0010
0001
0100
0010
0100
0001
1000
0100
1000
0010
0100
0001
,
1000
0100
0010
0100
1000
0010
1000
0001
0010
0100
0010
0001
0100
0001
1000
0100
,
0010
0001
0100
0001
1000
0010
1000
0100
0010
0100
1000
0001
0200
0000
0000
0000
,
0301
0010
0001
0100
0001
0100
0010
1000
0001
1000
0100
0010
0100
1000
0010
1000
,
0001
0100
0001
0010
0001
0010
0100
1000
0001
1000
0010
0100
0001
1000
0001
0010
,
0001
1000
0100
1000
0010
1000
0010
0100
0001
1000
0001
0010
0100
0010
0001
0100
,
0001
1000
0010
1000
0100
1000
0100
0010
0001
0100
0001
1000
0010
1000
0010
0100
,
0001
1000
0001
0010
0001
0010
0100
1000
0001
1000
0010
0100
0010
1000
0100
1000
,
0001
0010
0001
0100
0001
0100
0010
1000
0001
1000
0100
0010
0001
1000
0001
0100
,
0001
1000
0100
0010
0001
0100
0010
1000
0001
0010
0100
1000
0010
0100
0001
1000
,
0100
0010
0001
0100
0010
1000
0001
0010
0100
0010
0001
0100
0010
1000
0100
1000
,
0001
0100
0001
0100
0000
0001
2000
0000
,
3010
0100
0010
0100
0010
0000
2000
0000
,
3001
0100
0001
0100
0000
0001
2000
0000
,
3010
0100
0010
0100
0010
0000
2000
0000
,
3001
0100
0001
0100
0000
0001
2000
0000
,
3100
0010
0100
0010
0100
0000
2000
0000
,
3001
0010
0001
0010
0000
0001
2000
0000
,
3001
0000
0000
0000
1000
0010
0100
0001
1000
0000
0100
0000
0010
0001
0100
0001
,
1000
0100
1000
0100
0000
1000
0002
0000
,
0013
0100
0010
0100
0010
0000
0002
0000
,
1003
0100
1000
0100
0000
1000
0002
0000
,
0013
0100
0010
0100
0010
0000
0002
0000
,
1003
0100
1000
0100
0000
1000
0002
0000
,
0103
0010
0100
0010
0100
0000
0002
0000
,
1003
0010
1000
0010
0000
1000
0002
0000
,
1003
0000
0000
0000
0100
0010
0001
1000
0010
0000
0100
0000
0001
1000
0100
1000
,
0001
0000
0010
0100
1000
0000
0001
0000
0100
0010
1000
0000
0100
0010
0001
1000
;

//---------------dance-single - Mad Matt----------------
#NOTES:
     dance-single:
     Mad Matt:
     Medium:
     18:
     1.000,1.000,0.000,0.586,1.000,1176.000,0.000,74.000,0.000,0.000:






0000
0000
0000
0000
,
0000
0000
0000
0000
,
0000
0000
0000
0000
,
0000
0000
0000
0000
,
0000
0000
0000
0000
,
0000
0000
0000
0000
,
0000
0000
0000
0000
,
0000
0000
0000
0000
,
0001
0100
0010
1000
0001
0100
0001
0010
,
0001
1000
0100
0010
0001
1000
0001
0010
,
0001
0100
0010
1000
0001
1000
0100
0010
,
0001
0100
0010
1000
0001
1000
0100
1000
,
0001
0010
0100
1000
0001
0010
0001
0100
,
0001
1000
0010
0100
0001
1000
0001
0100
,
0001
0010
0100
1000
0001
1000
0010
0100
,
0001
1000
0100
1000
0001
0010
0100
1000
,
0010
0000
1000
0001
0100
0000
0010
0000
0100
0001
1000
0000
0100
0010
0100
1000
,
0001
0100
0001
0100
0000
0001
2000
0000
,
3010
0100
0010
0100
0010
0000
2000
0000
,
3001
0100
0001
0100
0000
0001
2000
0000
,
3010
0100
0010
0100
0010
0000
2000
0000
,
3001
0100
0001
0100
0000
0001
2000
0000
,
3100
0010
0100
0010
0100
0000
2000
0000
,
3001
0010
0001
0010
0000
0001
2000
0000
,
3001
0000
0000
0000
1000
0010
0100
0001
1000
0000
0100
0000
0010
0001
0100
0001
,
1000
0100
1000
0100
0000
1000
0002
0000
,
0013
0100
0010
0100
0010
0000
0002
0000
,
1003
0100
1000
0100
0000
1000
0002
0000
,
0013
0100
0010
0100
0010
0000
0002
0000
,
1003
0100
1000
0100
0000
1000
0002
0000
,
0103
0010
0100
0010
0100
0000
0002
0000
,
1003
0010
1000
0010
0000
1000
0002
0000
,
1003
0000
0000
0000
0100
0010
0001
1000
0010
0000
0100
0000
0001
1000
0100
1000
,
0001
0100
0010
0100
0001
0100
0001
1000
,
0100
0010
0100
1000
0010
1000
0001
0100
,
0001
1000
0010
1000
0001
1000
0001
0100
,
0010
1000
0001
0010
0001
1000
0010
1000
,
0001
0010
0100
0010
0001
0010
0001
1000
,
0100
1000
0010
0100
0001
1000
0001
0010
,
0001
1000
0010
1000
0001
1000
0001
0010
,
0100
0010
0001
0100
0010
1000
0100
1000
,
0001
0100
0010
0100
0001
0100
0001
1000
,
0100
0010
0100
1000
0010
1000
0001
0100
,
0001
1000
0010
1000
0001
1000
0001
0100
,
0010
1000
0001
0010
0001
1000
0010
1000
,
0001
0010
0100
0010
0001
0010
0001
1000
,
0100
1000
0010
0100
0001
1000
0001
0010
,
0001
1000
0010
1000
0001
1000
0001
0010
,
0100
0010
0001
0100
0010
1000
0100
1000
,
0001
0010
0001
0100
0010
0100
0001
1000
0100
1000
0010
1000
0001
0100
0010
1000
,
0100
0010
0001
0100
0010
0100
0001
1000
0100
1000
0010
1000
0001
0100
0010
1000
,
0001
0100
0001
0010
0100
0010
0001
1000
0010
1000
0100
1000
0001
0010
0100
1000
,
0010
0100
0001
0010
0100
0010
0001
1000
0010
1000
0100
1000
0001
0010
0100
1000
,
0001
1000
0010
0100
0010
1000
0001
0010
0001
0100
0001
1000
0010
0100
0001
0010
,
0100
1000
0010
0100
0010
1000
0001
0010
0001
0100
0001
1000
0010
0100
0001
1000
,
0001
0010
0100
0010
0001
1000
0010
1000
0100
1000
0001
0010
0100
1000
0010
0100
,
0001
0010
0100
0010
0001
1000
0010
1000
0100
1000
0001
0010
0100
1000
0010
1000
,
0001
0010
0001
0100
0010
1000
0001
0010
0001
0100
0010
0100
0001
1000
0100
1000
,
0001
0010
0001
0100
0010
1000
0001
0010
0001
0100
0010
0100
0001
1000
0100
1000
,
0001
0100
0001
0010
0100
1000
0001
0100
0001
0010
0100
0010
0001
1000
0010
1000
,
0001
0100
0001
0010
0100
1000
0001
0100
0001
0010
0100
0010
0001
1000
0010
1000
,
0001
0010
0001
0100
0001
1000
0100
1000
0010
0100
0010
1000
0001
0010
0001
1000
,
0100
1000
0010
0100
0001
1000
0100
1000
0010
0100
0010
1000
0001
0010
0100
1000
,
0001
0100
0001
0010
0001
1000
0010
1000
0100
0010
0100
1000
0001
0100
0001
1000
,
0010
1000
0100
0010
0001
1000
0010
1000
0100
0010
0100
1000
0001
0100
0010
1000
,
0001
0100
0001
0100
0000
0001
2000
0000
,
3010
0100
0010
0100
0010
0000
2000
0000
,
3001
0100
0001
0100
0000
0001
2000
0000
,
3010
0100
0010
0100
0010
0000
2000
0000
,
3001
0100
0001
0100
0000
0001
2000
0000
,
3100
0010
0100
0010
0100
0000
2000
0000
,
3001
0010
0001
0010
0000
0001
2000
0000
,
3001
0000
0000
0000
1000
0010
0100
0001
1000
0000
0100
0000
0010
0001
0100
0001
,
1000
0100
1000
0100
0000
1000
0002
0000
,
0013
0100
0010
0100
0010
0000
0002
0000
,
1003
0100
1000
0100
0000
1000
0002
0000
,
0013
0100
0010
0100
0010
0000
0002
0000
,
1003
0100
1000
0100
0000
1000
0002
0000
,
0103
0010
0100
0010
0100
0000
0002
0000
,
1003
0010
1000
0010
0000
1000
0002
0000
,
1003
0000
0000
0000
0100
0010
0001
1000
0010
0000
0100
0000
0001
1000
0100
1000
,
0001
0000
0100
0010
1000
0000
0001
0000
0010
0100
1000
0000
0010
0100
0010
1000
,
0001
0000
0001
0000
0001
1000
0010
0100
,
0000
0010
0100
0010
1000
0001
0010
0100
,
1000
0010
1000
0001
1000
0100
0010
0001
,
0000
0100
0001
1000
0100
1000
0010
0100
,
0010
1000
0001
0100
0001
0010
0001
1000
0100
1000
0001
0100
0001
0010
0100
1000
,
0001
0100
0001
0010
0001
1000
0100
0010
0001
1000
0100
1000
0010
0100
0001
1000
,
0100
1000
0001
0010
0001
0100
0001
1000
0010
1000
0001
0010
0001
0100
0010
1000
,
0100
0010
0001
1000
0010
0100
0001
0010
0100
1000
0001
0100
0010
1000
0100
0010
,
0001
1000
0010
1000
0100
0010
0100
1000
0001
0100
0001
0010
0100
1000
0010
1000
,
0001
0010
0001
0100
0010
0100
0001
1000
0100
1000
0010
0100
0001
0010
0001
1000
,
0010
1000
0100
0010
0001
0100
0001
1000
0100
0010
0100
1000
0010
1000
0001
0010
,
0001
0100
0010
1000
0001
0010
0001
0100
0010
1000
0100
1000
0001
0100
0010
1000
,
0002
0003
0000
0000
0000
0000
0000
0000
2000
3000
0000
0000
0000
0000
0000
0000
0020
0030
0000
0000
0000
0000
0000
0000
2000
3000
0000
0000
0000
0000
0000
0000
0200
0300
0000
0000
0000
0000
0000
0000
2000
3000
0000
0000
0000
0000
0000
0000
0020
0030
0000
0000
0000
0000
0000
0000
0200
0300
0000
0000
0000
0000
0000
0000
,
0020
0030
0000
0000
0000
0000
0000
0000
2000
3000
0000
0000
0000
0000
0000
0000
0002
0003
0000
0000
0000
0000
0000
0000
2000
3000
0000
0000
0000
0000
0000
0000
0200
0300
0000
0000
0000
0000
0000
0000
0020
0030
0000
0000
0000
0000
0000
0000
0200
0300
0000
0000
0000
0000
0000
0000
2000
3000
0000
0000
0000
0000
0000
0000
,
0002
0003
0000
0000
0020
0030
0000
0000
0200
0300
0000
0000
2000
3000
0000
0000
0002
0003
0000
0000
0020
0030
0000
0000
0200
0300
0000
0000
2000
3000
0000
0000
,
0002
0003
0000
0000
0020
0030
0000
0000
0200
0300
0000
0000
2000
3000
0000
0000
0020
0030
0000
0000
0200
0300
0000
0000
0002
0003
0000
0000
0000
0000
0000
0000
,
1000
0000
0100
0000
1000
0000
0100
0000
0010
0000
0000
0001
0000
0000
1000
0000
,
0001
0000
0100
0000
0001
0000
0100
0000
0010
0000
0000
1000
0000
0000
0001
0000
,
0010
0000
0100
0000
0010
0000
0100
0000
1000
0000
0000
0010
0000
0000
0100
0000
,
0001
0000
1000
0000
0001
0000
1000
0000
0010
0000
0000
0100
0000
0000
0001
0000
,
1000
0100
1000
0010
1000
0001
0100
0010
,
1000
0001
0010
0001
0100
0010
1000
0001
,
0010
0001
0100
0001
1000
0100
0010
0001
,
0100
0010
1000
0001
0010
0001
0200
0000
,
0301
0010
0001
0100
0001
0100
0010
1000
0001
1000
0100
0010
0100
1000
0010
1000
,
0001
0100
0001
0010
0001
0010
0100
1000
0001
1000
0010
0100
0001
1000
0001
0010
,
0001
1000
0100
1000
0010
1000
0010
0100
0001
1000
0001
0010
0100
0010
0001
0100
,
0001
1000
0010
1000
0100
1000
0100
0010
0001
0100
0001
1000
0010
1000
0010
0100
,
0001
1000
0001
0010
0001
0010
0100
1000
0001
1000
0010
0100
0010
1000
0100
1000
,
0001
0010
0001
0100
0001
0100
0010
1000
0001
1000
0100
0010
0001
1000
0001
0100
,
0001
1000
0100
0010
0001
0100
0010
1000
0001
0010
0100
1000
0010
0100
0001
1000
,
0100
0010
0001
0100
0010
1000
0001
0010
0100
0010
0001
0100
0010
1000
0100
1000
,
0001
0100
0001
0100
0000
0001
2000
0000
,
3010
0100
0010
0100
0010
0000
2000
0000
,
3001
0100
0001
0100
0000
0001
2000
0000
,
3010
0100
0010
0100
0010
0000
2000
0000
,
3001
0100
0001
0100
0000
0001
2000
0000
,
3100
0010
0100
0010
0100
0000
2000
0000
,
3001
0010
0001
0010
0000
0001
2000
0000
,
3001
0000
0000
0000
1000
0010
0100
0001
1000
0000
0100
0000
0010
0001
0100
0001
,
1000
0100
1000
0100
0000
1000
0002
0000
,
0013
0100
0010
0100
0010
0000
0002
0000
,
1003
0100
1000
0100
0000
1000
0002
0000
,
0013
0100
0010
0100
0010
0000
0002
0000
,
1003
0100
1000
0100
0000
1000
0002
0000
,
0103
0010
0100
0010
0100
0000
0002
0000
,
1003
0010
1000
0010
0000
1000
0002
0000
,
1003
0000
0000
0000
0100
0010
0001
1000
0010
0000
0100
0000
0001
1000
0100
1000
,
0001
0000
0010
0100
1000
0000
0001
0000
0100
0010
1000
0000
0100
0010
0001
1000
;

//---------------dance-single - Mad Matt----------------
#NOTES:
     dance-single:
     Mad Matt:
     Beginner:
     17:
     1.000,1.000,0.000,0.586,0.982,1128.000,0.000,74.000,0.000,0.000:




0000
0000
0000
0000
,
0000
0000
0000
0000
,
0000
0000
0000
0000
,
0000
0000
0000
0000
,
0000
0000
0000
0000
,
0000
0000
0000
0000
,
0000
0000
0000
0000
,
0000
0000
0000
0000
,
0001
0100
0010
1000
0001
0100
0001
0010
,
0001
1000
0100
0010
0001
1000
0001
0010
,
0001
0100
0010
1000
0001
1000
0100
0010
,
0001
0100
0010
1000
0001
1000
0100
1000
,
0001
0010
0100
1000
0001
0010
0001
0100
,
0001
1000
0010
0100
0001
1000
0001
0100
,
0001
0010
0100
1000
0001
1000
0010
0100
,
0001
1000
0100
1000
0001
0010
0100
1000
,
0010
0000
1000
0001
0100
0000
0010
0000
0100
0001
1000
0000
0100
0010
0100
1000
,
0001
0100
0001
0100
0000
0001
2000
0000
,
3010
0100
0010
0100
0010
0000
2000
0000
,
3001
0100
0001
0100
0000
0001
2000
0000
,
3010
0100
0010
0100
0010
0000
2000
0000
,
3001
0100
0001
0100
0000
0001
2000
0000
,
3100
0010
0100
0010
0100
0000
2000
0000
,
3001
0010
0001
0010
0000
0001
2000
0000
,
3001
0000
0000
0000
1000
0010
0100
0001
1000
0000
0100
0000
0010
0001
0100
0001
,
1000
0100
1000
0100
0000
1000
0002
0000
,
0013
0100
0010
0100
0010
0000
0002
0000
,
1003
0100
1000
0100
0000
1000
0002
0000
,
0013
0100
0010
0100
0010
0000
0002
0000
,
1003
0100
1000
0100
0000
1000
0002
0000
,
0103
0010
0100
0010
0100
0000
0002
0000
,
1003
0010
1000
0010
0000
1000
0002
0000
,
1003
0000
0000
0000
0100
0010
0001
1000
0010
0000
0100
0000
0001
1000
0100
1000
,
0001
0100
0010
0100
0001
0100
0001
1000
,
0100
0010
0100
1000
0010
1000
0001
0100
,
0001
1000
0010
1000
0001
1000
0001
0100
,
0010
1000
0001
0010
0001
1000
0010
1000
,
0001
0010
0100
0010
0001
0010
0001
1000
,
0100
1000
0010
0100
0001
1000
0001
0010
,
0001
1000
0010
1000
0001
1000
0001
0010
,
0100
0010
0001
0100
0010
1000
0100
1000
,
0001
0100
0010
0100
0001
0100
0001
1000
,
0100
0010
0100
1000
0010
1000
0001
0100
,
0001
1000
0010
1000
0001
1000
0001
0100
,
0010
1000
0001
0010
0001
1000
0010
1000
,
0001
0010
0100
0010
0001
0010
0001
1000
,
0100
1000
0010
0100
0001
1000
0001
0010
,
0001
1000
0010
1000
0001
1000
0001
0010
,
0100
0010
0001
0100
0010
1000
0100
1000
,
0001
0010
0001
1000
0100
0010
0001
1000
0100
1000
0010
1000
0001
0100
0001
1000
,
0010
0100
0001
1000
0100
0010
0001
1000
0100
1000
0010
1000
0001
0100
0010
1000
,
0001
0100
0001
1000
0010
0100
0001
1000
0010
1000
0100
1000
0001
0010
0100
1000
,
0001
0010
0001
1000
0100
0010
0001
1000
0100
1000
0010
1000
0001
0100
0010
1000
,
0001
1000
0100
0010
0100
1000
0001
0010
0100
1000
0001
1000
0010
0100
0001
1000
,
0010
1000
0001
0100
0010
1000
0001
0100
0001
1000
0001
0010
0100
1000
0001
0010
,
0001
1000
0001
0100
0010
1000
0001
1000
0100
1000
0001
0010
0100
1000
0001
1000
,
0010
0100
0001
1000
0010
1000
0100
1000
0001
0010
0100
1000
0001
1000
0010
1000
,
0001
0100
0001
1000
0010
0100
0001
1000
0010
1000
0100
1000
0001
0010
0001
1000
,
0100
0010
0001
1000
0010
0100
0001
1000
0010
1000
0100
1000
0001
0010
0100
1000
,
0001
0010
0001
1000
0100
0010
0001
1000
0100
1000
0010
1000
0001
0100
0010
1000
,
0001
0100
0001
1000
0010
0100
0001
1000
0010
1000
0100
1000
0001
0010
0100
1000
,
0001
1000
0010
0100
0010
1000
0001
0100
0010
1000
0001
1000
0100
0010
0001
1000
,
0100
1000
0001
0010
0100
1000
0001
0010
0001
1000
0001
0100
0010
1000
0001
0100
,
0001
1000
0001
0010
0100
1000
0001
1000
0010
1000
0001
0100
0010
1000
0001
1000
,
0100
0010
0001
1000
0100
1000
0010
1000
0001
0100
0010
1000
0001
1000
0100
1000
,
0001
0100
0001
0100
0000
0001
2000
0000
,
3010
0100
0010
0100
0010
0000
2000
0000
,
3001
0100
0001
0100
0000
0001
2000
0000
,
3010
0100
0010
0100
0010
0000
2000
0000
,
3001
0100
0001
0100
0000
0001
2000
0000
,
3100
0010
0100
0010
0100
0000
2000
0000
,
3001
0010
0001
0010
0000
0001
2000
0000
,
3001
0000
0000
0000
1000
0010
0100
0001
1000
0000
0100
0000
0010
0001
0100
0001
,
1000
0100
1000
0100
0000
1000
0002
0000
,
0013
0100
0010
0100
0010
0000
0002
0000
,
1003
0100
1000
0100
0000
1000
0002
0000
,
0013
0100
0010
0100
0010
0000
0002
0000
,
1003
0100
1000
0100
0000
1000
0002
0000
,
0103
0010
0100
0010
0100
0000
0002
0000
,
1003
0010
1000
0010
0000
1000
0002
0000
,
1003
0000
0000
0000
0100
0010
0001
1000
0010
0000
0100
0000
0001
1000
0100
1000
,
0001
0000
0100
0010
1000
0000
0001
0000
0010
0100
1000
0000
0010
0100
0010
1000
,
0001
0000
0001
0000
0001
1000
0010
0100
,
0000
0010
0100
0010
1000
0001
0010
0100
,
1000
0010
1000
0001
1000
0100
0010
0001
,
0000
0100
0001
1000
0100
1000
0010
0100
,
0010
1000
0001
0100
0001
0010
0001
1000
0100
0010
0001
1000
0100
0010
0001
1000
,
0001
0100
0001
0010
0001
1000
0100
0010
0001
1000
0100
0010
0001
1000
0100
1000
,
0010
1000
0001
0100
0010
1000
0001
1000
0100
1000
0001
0010
0100
1000
0001
0010
,
0100
1000
0001
1000
0010
0100
0001
1000
0100
0010
0001
1000
0010
1000
0001
0100
,
0001
1000
0010
1000
0001
0100
0010
1000
0001
0100
0001
0010
0001
1000
0100
0010
,
0001
1000
0010
1000
0001
0100
0001
1000
0100
1000
0001
0010
0001
0100
0001
1000
,
0100
0010
0001
1000
0001
0010
0100
1000
0001
0010
0001
0100
0001
1000
0010
0100
,
0001
1000
0100
1000
0001
0010
0001
1000
0010
1000
0001
0100
0001
0010
0001
1000
,
0002
0003
0000
0000
0000
0000
0000
0000
2000
3000
0000
0000
0000
0000
0000
0000
0020
0030
0000
0000
0000
0000
0000
0000
2000
3000
0000
0000
0000
0000
0000
0000
0200
0300
0000
0000
0000
0000
0000
0000
2000
3000
0000
0000
0000
0000
0000
0000
0020
0030
0000
0000
0000
0000
0000
0000
0200
0300
0000
0000
0000
0000
0000
0000
,
0020
0030
0000
0000
0000
0000
0000
0000
2000
3000
0000
0000
0000
0000
0000
0000
0002
0003
0000
0000
0000
0000
0000
0000
2000
3000
0000
0000
0000
0000
0000
0000
0200
0300
0000
0000
0000
0000
0000
0000
0020
0030
0000
0000
0000
0000
0000
0000
0200
0300
0000
0000
0000
0000
0000
0000
2000
3000
0000
0000
0000
0000
0000
0000
,
0002
0003
0000
0000
0200
0300
0000
0000
0020
0030
0000
0000
2000
3000
0000
0000
0002
0003
0000
0000
0200
0300
0000
0000
0020
0030
0000
0000
2000
3000
0000
0000
,
0002
0003
0000
0000
0200
0300
0000
0000
0020
0030
0000
0000
2000
3000
0000
0000
0200
0300
0000
0000
0020
0030
0000
0000
0002
0003
0000
0000
0000
0000
0000
0000
,
1000
0000
0100
0000
1000
0000
0100
0000
0010
0000
0000
0001
0000
0000
1000
0000
,
0001
0000
0100
0000
0001
0000
0100
0000
0010
0000
0000
1000
0000
0000
0001
0000
,
0010
0000
0100
0000
0010
0000
0100
0000
1000
0000
0000
0010
0000
0000
0100
0000
,
0001
0000
1000
0000
0001
0000
1000
0000
0010
0000
0000
0100
0000
0000
0001
0000
,
1000
0100
1000
0010
1000
0001
0100
0010
,
1000
0001
0010
0001
0100
0010
1000
0001
,
0010
0001
0100
0001
1000
0100
0010
0001
,
0100
0010
1000
0001
0010
0001
0200
0000
,
0301
0010
0001
0010
0100
1000
0100
1000
,
0001
0100
0001
0100
0010
1000
0010
1000
,
0100
0010
0100
0010
0001
1000
0001
1000
,
0001
0100
0001
0100
0001
0100
0001
0100
,
0010
1000
0010
1000
0001
0010
0001
0010
,
0100
1000
0100
1000
0010
0100
0010
0100
,
0001
1000
0100
0010
0100
1000
0001
0010
0001
1000
0001
0100
0010
1000
0001
1000
,
0100
0010
0001
1000
0100
0010
0001
1000
0100
1000
0001
0010
0100
1000
0001
1000
,
0001
0100
0001
0100
0000
0001
2000
0000
,
3010
0100
0010
0100
0010
0000
2000
0000
,
3001
0100
0001
0100
0000
0001
2000
0000
,
3010
0100
0010
0100
0010
0000
2000
0000
,
3001
0100
0001
0100
0000
0001
2000
0000
,
3100
0010
0100
0010
0100
0000
2000
0000
,
3001
0010
0001
0010
0000
0001
2000
0000
,
3001
0000
0000
0000
1000
0010
0100
0001
1000
0000
0100
0000
0010
0001
0100
0001
,
1000
0100
1000
0100
0000
1000
0002
0000
,
0013
0100
0010
0100
0010
0000
0002
0000
,
1003
0100
1000
0100
0000
1000
0002
0000
,
0013
0100
0010
0100
0010
0000
0002
0000
,
1003
0100
1000
0100
0000
1000
0002
0000
,
0103
0010
0100
0010
0100
0000
0002
0000
,
1003
0010
1000
0010
0000
1000
0002
0000
,
1003
0000
0000
0000
0100
0010
0001
1000
0010
0000
0100
0000
0001
1000
0100
1000
,
0001
0000
0010
0100
1000
0000
0001
0000
0100
0010
1000
0000
0100
0010
0001
1000
;
