#TITLE:MAXX 400;
#SUBTITLE:;
#ARTIST:Z3;
#TITLETRANSLIT:;
#SUBTITLETRANSLIT:;
#ARTISTTRANSLIT:;
#CREDIT:;
#BANNER:maxx400.PNG;
#BACKGROUND:maxx400_bg.PNG;
#LYRICSPATH:;
#CDTITLE:./CDTITLES/DANCE DANCE REVOLUTION MAX.PNG;
#MUSIC:maxx400.mp3;
#OFFSET:-0.007;
#SAMPLESTART:13.630;
#SAMPLELENGTH:12.000;
#SELECTABLE:YES;
#BPMS:0.000=400.000,165.000=373.340,197.000=400.000,307.000=333.001,436.000=400.000;
#STOPS:0.000=0.020
,307.000=2.420
,436.000=2.860
;
#BGCHANGES:37.000=Lightning Ball.avi=1.000=1=0=1,
69.000=Pressure.avi=1.000=0=0=1,
101.000=Up~Right Spikes.avi=1.000=0=0=1,
133.000=18 Pains.avi=1.000=0=0=1,
165.000=DDR1.avi=1.000=0=0=1,
197.000=Spinning!.avi=1.000=0=0=1,
245.000=Lightning Ball.avi=1.000=0=0=1,
277.000=DDR2.avi=1.000=0=0=1,
307.000=maxx400_bg.PNG=0.000=1=0=1,
307.063=DDR3.avi=1.000=0=0=1,
372.000=DDR1.avi=1.000=0=0=1,
404.000=DDR2.avi=1.000=0=0=1,
436.000=maxx400_bg.PNG=1.000=1=0=1,
437.000=Spinning!.avi=1.400=0=0=1,
469.000=Up~Right Spikes.avi=1.400=0=0=1,
501.000=DDR1.avi=1.600=0=0=1,
565.000=Up~Right Spikes.avi=1.000=0=0=1,
573.000=Spikes144.avi=1.600=0=0=1,
581.000=Pressure.avi=1.600=0=0=1,
589.000=DDR2.avi=1.600=0=0=1,
593.000=Up~Right Spikes.avi=1.600=0=0=1,
597.000=DDR3.avi=1.600=0=0=1,
599.000=Lightning Ball.avi=1.600=0=0=1,
601.000=Spinning!.avi=1.600=0=0=1,
603.000=Up~Right Spikes.avi=1.600=0=0=1,
605.000=maxx400_bg.PNG=1.000=0=0=1,
99999=-nosongbg-=1.000=0=0=0 // don't automatically add -songbackground-
;
// cache tags:
#FIRSTBEAT:16.000;
#LASTBEAT:609.000;
#SONGFILENAME:Songs/juju steps/MAXX 400/maxx400.sm;
#HASMUSIC:1;
#HASBANNER:1;
#MUSICLENGTH:101.125;
// end cache tags

//---------------dance-double - ----------------
#NOTES:
     dance-double:
     :
     Easy:
     8:
     0.398,0.430,0.089,0.099,0.000,263.000,9.000,10.000,0.000,0.000:
00000000
00000000
00000000
00000000
,
00000000
00000000
00000000
00000000
,
00000000
00000000
00000000
00000000
,
00000000
00000000
00000000
00000000
,
00100000
00000000
10000000
00000000
,
00100000
00000000
01000000
00000000
,
00001000
00000000
00010000
00000000
,
00001000
00010000
00010000
00000000
,
00000010
00000000
00001000
00000000
,
00000010
00000000
00000100
00000000
,
00000001
00000000
00000100
00000000
,
00000010
00000100
00000100
00000000
,
00001000
00010000
00001000
00000000
,
00100000
01000000
01000000
00000000
,
10000000
01000000
00010000
00001000
,
00000010
00000001
00000100
00000000
,
00001000
00000000
00010000
00000000
,
00100000
00000000
10000000
00000000
,
01000000
10000000
01000000
00000000
,
10000000
01000000
00010000
00001000
,
00010000
00000000
00000010
00000000
,
00010000
00000000
00000100
00000000
,
00001000
00000010
00000100
00000000
,
00001000
00010000
00100000
10000000
,
00010000
00000000
01000000
00000000
,
00001000
00000000
00010000
00000000
,
00000010
00001000
00000001
00000000
,
00000100
00001000
00010000
00100000
,
10000000
00000000
10000000
00000000
,
00010000
01000000
00010000
00000000
,
00100000
00000000
00000000
00001000
00000000
00000000
00010000
00000000
,
00000010
00001000
00000010
00000000
,
00001000
00000100
00001000
00000000
,
00000001
00000000
00000001
00000000
,
00000001
00000100
00000001
00000000
,
00001000
00000000
00001000
00000000
,
00000010
00001000
00000001
00000000
,
00000001
00000000
00000001
00000000
,
00000001
00000100
00000000
00000000
,
00001000
00010000
00100000
00000000
,
10000000
00000000
01000000
00000000
,
00010000
00001000
00000010
00000000
,
00000001
00000000
00000100
00000000
,
00001000
00010000
00100000
00000000
,
10000000
01000000
10000000
00000000
,
10000000
01000000
00010000
00000000
,
00010000
01000000
00010000
00000000
,
00010000
00001000
00010000
00000000
,
00001000
00000010
00001000
00000000
,
00001000
00000010
00000001
00000000
,
00000010
00000001
00000100
00000000
,
00000001
00000100
00001000
00000000
,
00000100
00001000
00010000
00000000
,
00001000
00000000
00010000
00000000
,
00001000
00010000
00100000
00000000
,
10000000
00000000
01000000
00000000
,
00100000
00010000
00100000
00000000
,
00001000
00010000
00001000
00000000
,
00010000
00001000
00000010
00000001
,
00000100
00001000
00010000
00000000
,
00000010
00001000
00000010
00000000
,
00010000
00001000
00010000
00000000
,
00001000
00010000
00100000
10000000
,
01000000
00010000
00001000
00000000
,
00100000
00010000
00100000
00000000
,
00001000
00010000
00001000
00000000
,
00010000
00001000
00000010
00000001
,
00000100
00001000
00010000
00000000
,
00001000
00010000
00100000
00000000
,
00010000
00000100
00001000
00000000
,
00001100
00000000
00011000
00000000
,
00110000
00000000
00022000
00000000
,
00000000
00000000
00000000
00000000
,
00000000
00000000
00000000
00000000
00000000
00033000
00000000
00000000
,
00100000
00000000
00001000
00000000
,
00000000
00010000
00000010
00000000
,
00001000
00000000
00000010
00000100
,
00000000
00001000
00010000
00000000
,
00100000
10000000
01000000
00010000
,
00000000
00001000
00000010
00000000
,
00000100
00001000
00010000
00100000
,
00000000
10000000
01000000
00010000
,
00001000
00000000
00010000
00000000
,
00000000
00100000
10000000
00000000
,
01000000
00000000
00010000
00000000
,
00000000
00001000
00000010
00000000
,
00000001
00000100
00001000
00010000
,
00000000
00100000
10000000
00000000
,
10000000
01000000
00010000
00001000
,
00000000
00000010
00000001
00000000
,
00000001
00000000
00000000
00001000
00000000
00000000
00000100
00000000
,
00020000
00000000
00000000
00030000
,
00001000
00000000
00000000
00100000
00000000
00000000
01000000
00000000
,
20000000
00000000
00000000
30000000
,
00010000
00000000
00000000
01000000
00000000
00000000
00001000
00000000
,
00020000
00000000
00000000
00030000
,
00000010
00000000
00000000
00001000
00000000
00000000
00000001
00000000
,
00000200
00000000
00000000
00000300
,
00001000
00000000
00000000
00010000
00000000
00000000
00001000
00000000
,
00000020
00000000
00000000
00000030
,
00000001
00000000
00000000
00000100
00000000
00000000
00001000
00000000
,
00020000
00000000
00000000
00030000
,
00001000
00000000
00000000
00000010
00000000
00000000
00000001
00000000
,
00000100
00000000
00000000
00000000
,
00001010
00000000
00000000
00000000
,
00011000
00000000
00000000
00000000
,
00110000
00000000
11000000
00000000
,
02002000
00000000
00000000
00000000
,
00000000
00000000
00000000
03003000
;

//---------------dance-double - ----------------
#NOTES:
     dance-double:
     :
     Medium:
     10:
     0.528,0.591,0.198,0.079,0.000,346.000,20.000,8.000,0.000,0.000:
00000000
00000000
00000000
00000000
,
00000000
00000000
00000000
00000000
,
00000000
00000000
00000000
00000000
,
00000000
00000000
00000000
00000000
,
00100000
01000000
00010000
00000000
,
00100000
00001000
00010000
00000000
,
00000010
00000100
00000001
00000000
,
00001000
00000010
00010000
00000000
,
01010000
00000000
00001100
00000000
,
00000010
00000001
00000100
00000001
,
00001000
00000000
00001000
00000000
,
00000001
00000100
00000001
00000000
,
00000001
00000100
00001000
00000100
,
00000001
00000100
00001000
00010000
,
00100000
10000000
00100000
00010000
,
00100000
10000000
00100000
00010000
,
00100000
00000000
00100000
00000000
00000000
10000000
00000000
10000000
,
01000000
00000000
01000000
00000000
00000000
00010000
00000000
00010000
,
00001000
00000000
00001000
00000000
00000000
00000010
00000000
00000010
,
00000001
00000100
00001000
00010000
,
00100000
00000000
00100000
00000000
00000000
10000000
00000000
10000000
,
01000000
00000000
01000000
00000000
00000000
00010000
00000000
00010000
,
00001000
00000000
00001000
00000000
00000000
00000010
00000000
00000010
,
00000001
00000100
00001000
00010000
,
00000010
00000000
00000010
00000000
00000000
00001000
00000000
00001000
,
00000001
00000000
00000001
00000000
00000000
00000100
00000000
00000100
,
00001000
00000000
00001000
00000000
00000000
00010000
00000000
00010000
,
00001000
00010000
00100000
10000000
,
01000000
00000000
01000000
00000000
00000000
00010000
00000000
00010000
,
00001000
00000000
00001000
00000000
00000000
00000010
00000000
00000000
,
00001100
00000000
00000000
00011000
00000000
00000000
01010000
00000000
,
10000000
00010000
10000000
00010000
,
01000000
00010000
01000000
00010000
,
00100000
00001000
00100000
00001000
,
00010000
00001000
00010000
00001000
,
00010000
00000100
00010000
00000100
,
00000010
00000001
00000010
00000001
,
00001000
00000001
00001000
00000001
,
00001010
00000000
00000101
00000000
,
00000001
00000100
00001000
00010000
,
10100000
00000000
01010000
00000000
,
00001000
00010000
00001000
00010000
,
00001010
00000000
00001001
00000000
,
00000001
00000100
00001000
00010000
,
00000010
00010000
00000010
00010000
,
00000010
00000001
00000010
00000000
,
00001000
00000100
00000010
00000001
,
00001000
00000001
00001000
00000000
,
00000001
00000100
00001000
00010000
,
00100000
10000000
01000000
00000000
,
10000000
01000000
00100000
00010000
,
10000000
00010000
01000000
00100000
,
10000000
01000000
00100000
00010000
,
01010000
00000000
10100000
00000000
,
10000000
01000000
00010000
00001000
,
00000011
00000000
00000101
00000000
,
00000001
00000000
00000001
00000000
00001000
00000001
00000000
00000000
,
00001000
00000000
00001000
00000000
00000100
00001000
00000000
00000000
,
00010000
00000000
00010000
00000000
00001000
00010000
00000000
00001000
,
00010000
01000000
10000000
00000000
,
10000000
00000000
10000000
00000000
00010000
10000000
00000000
00000000
,
00010000
00000000
00010000
00000000
01000000
00010000
00000000
00000000
,
00001000
00000000
00001000
00000000
00010000
00001000
00000000
00010000
,
00001000
00000010
00000001
00000000
,
00000001
00000000
00000001
00000000
00001000
00000001
00000000
00000000
,
00001000
00000000
00001000
00000000
00000100
00001000
00000000
00000000
,
00010000
00000000
00010000
00000000
00001000
00010000
00000000
00001000
,
00010000
01000000
10000000
00000000
,
10000000
00000000
10000000
00000000
00010000
10000000
00000000
00000000
,
00010000
00000000
00010000
00000000
01000000
00010000
00000000
00000000
,
00100000
00000000
00000000
00001000
00100000
00000000
00000000
00000100
,
00010000
00000000
00022000
00000000
,
00000000
00000000
00000000
00000000
,
00000000
00000000
00000000
00000000
00000000
00033000
00000000
00000000
,
00000001
00001000
00000100
00001000
,
00000000
00000001
00000100
00000000
,
00000001
00000100
00001000
00010000
,
00000000
01000000
10000000
00000000
,
00010000
10000000
01000000
10000000
,
00000000
00001000
01000000
00000000
,
00001000
00010000
00000100
00001000
,
00000000
00000001
00000100
00000001
,
00001000
00000010
00001000
00000010
00001000
00000000
00000100
00000000
,
00000000
00001000
00010000
00000000
,
00100000
00010000
00100000
00010000
00100000
00000000
00001000
00000000
,
00000000
00000100
00000001
00000000
,
00001000
00000010
00001000
00000010
00001000
00000000
00000100
00000000
,
00000000
00001000
00010000
00000000
,
00100000
00010000
00100000
00010000
00100000
00000000
00001000
00000000
,
00000000
00010000
00001000
00010000
,
00000010
00000000
00000000
00000001
00000000
00000000
00000100
00000000
,
00001000
00000000
00100000
00000000
,
01000000
00000000
00000000
00100000
00000000
00000000
00001000
00000000
,
00010000
00000000
00000100
00000000
,
00000010
00000000
00000000
00000001
00000000
00000000
00000100
00000000
,
00001000
00000000
00100000
00000000
,
01000000
00000000
00000000
00100000
00000000
00000000
00001000
00000000
,
00020200
00000000
00000000
00030300
,
00000010
00000000
00000000
00000001
00000000
00000000
00000100
00000000
,
00000010
00000000
00000000
00010000
00000000
00000000
00000100
00000000
,
00010000
00000000
00000000
00000010
00000000
00000000
00000100
00000000
,
00001000
00000000
00000000
00010000
00000000
00000000
00100000
00000000
,
10000000
00000000
00000000
01000000
00000000
00000000
00010000
00000000
,
00001000
00000000
00000000
00000010
00000000
00000000
00000001
00000000
,
00000200
00000000
00000000
00000300
,
00000002
00000000
00000000
00000003
,
00001010
00000000
00011000
00000000
,
02020000
00000000
00000000
00000000
,
00000000
00000000
00000000
03030000
;

//---------------dance-double - ----------------
#NOTES:
     dance-double:
     :
     Hard:
     13:
     0.706,0.914,0.119,0.040,0.040,484.000,12.000,4.000,0.000,0.000:
00000000
00000000
00000000
00000000
,
00000000
00000000
00000000
00000000
,
00000000
00000000
00000000
00000000
,
00000000
00000000
00000000
00000000
,
00100000
00000000
00100000
00000000
10000000
01000000
10000000
00000000
,
00010000
00000000
00010000
00000000
01000000
00010000
01000000
00000000
,
00010000
00000000
00010000
00000000
00100000
00001000
00100000
00000000
,
00001000
00010000
00000100
00000000
,
00001000
00000000
00001000
00000000
00000001
00000100
00000001
00000000
,
00000100
00000000
00000100
00000000
00000010
00010000
00000010
00000000
,
00010000
00000000
00010000
00000000
00001000
00010000
01000000
00000000
,
10000000
00100000
01000000
00000000
,
00010000
00000000
01000000
00010000
01000000
00010000
00000000
01000000
,
00001000
00000000
00010000
00001000
00010000
00001000
00000000
00010000
,
00000100
00001000
00000100
00000000
00001000
00000001
00001000
00000000
,
00000001
00000100
00000010
00001000
00000100
00000010
00000001
00001000
,
00000001
00000100
00001000
00010000
,
00100000
10000000
01000000
00010000
,
00001000
00000010
00000001
00000100
,
00001000
00010000
00100000
10000000
,
01000000
00000000
10000000
00000000
01000000
10000000
00000000
01000000
,
00100000
00000000
00010000
00000000
00100000
00010000
00000000
00100000
,
00001000
00000000
00010000
00000000
00001000
00010000
00000000
00001000
,
00010000
00000100
00001000
00000001
,
00000100
00001000
00000100
00000001
,
00000100
00001000
00000100
00000001
,
00000100
00001000
00010000
00100000
,
10000000
00100000
00010000
00100000
,
10000000
00100000
00010000
00100000
,
00010000
00100000
10000000
00100000
,
01100000
00000000
00000000
00011000
00000000
00000000
00010010
00000000
,
00001000
00000100
00010000
00000100
00001000
00000010
00010000
00000010
,
00001000
00000100
00001000
00000010
,
00001000
00000100
00000000
00000010
,
00001000
00000100
00000010
00000001
,
00000100
00001000
00010000
00100000
,
10000000
01000000
00010000
00001000
,
00000100
00000001
00000010
00000100
,
00011000
00000000
00010000
00000100
,
00001000
00000001
00000100
00000000
,
00001010
00000000
00011000
00000000
,
01000000
10000000
01000000
00000000
,
00100000
00000000
00001000
00010000
00001000
00010000
00001000
00000000
,
00010000
00000100
00000010
00000000
,
00000001
00000100
00000001
00000100
,
00000010
00000100
00000010
00000100
,
00000010
00001000
00000010
00001000
,
00000100
00010000
00000100
00010000
,
00001000
00010000
00001000
00010000
,
00001000
01000000
00001000
01000000
,
00010000
10000000
00010000
10000000
,
01000000
10000000
01000000
10000000
,
00010000
00100000
00010000
00100000
,
00001000
00010000
00001000
00010000
,
00000010
00010000
00001000
00000000
,
00101000
00000000
00010100
00000000
,
00001000
00000000
00010000
00000000
00001000
00010000
00000000
00010000
,
00000100
00000000
00010000
00000000
00000100
00010000
00000000
00010000
,
00001000
00000000
01000000
00000000
00001000
01000000
00000000
01000000
,
00010000
00010000
00010000
00000000
,
00100000
00000000
00001000
00000000
00100000
00001000
00000000
00001000
,
00010000
00000000
00000010
00000000
00010000
00000010
00000000
00001000
,
00000100
00010000
00001000
00010000
00000100
00010000
00001000
00010000
,
00001000
00001000
00001000
00000000
,
00000010
00000000
00010000
00000000
00000010
00010000
00000000
00010000
,
00001000
00000000
00100000
00000000
00001000
00100000
00000000
00100000
,
00001000
00000000
00010000
00000000
00001000
00010000
00001000
00010000
,
00001000
00001000
00001000
00000000
,
00100000
00000000
10000000
00000000
01000000
00010000
00000000
00001000
,
00000010
00000000
00000001
00000000
00000100
00001000
00000000
00010000
,
00001000
00010000
00100000
00000000
00010000
00001000
00010000
00000000
,
00000100
00000000
00022000
00000000
,
00000000
00000000
00000000
00000000
,
00000000
00000000
00000000
00000000
00000000
00033000
00000000
00000000
,
10000000
01000000
10000000
01000000
10000000
00000000
00010000
01000000
,
00000000
00010000
01000000
00000000
00001000
00000000
00010000
00000000
,
00001000
00000000
00001000
00000100
00001000
00000000
00000010
00001000
,
00000000
00000001
00000010
00000000
00000100
00000000
00010000
00000000
,
00001000
00010000
00001000
00010000
00001000
00010000
00001000
00010000
,
00000000
00000010
00001000
00000000
00000001
00000000
00000100
00000000
,
00000010
00001000
00000010
00001000
00000010
00001000
00000010
00001000
,
00000010
00010000
00001000
00100000
,
00100000
00010000
00100000
00010000
00100000
00000000
00001000
00010000
,
00001000
00010000
00001000
00000000
00010000
00000000
00000100
00010000
,
00000100
00000000
00000010
00000001
00000010
00000001
00000010
00000000
,
00000001
00000100
00000001
00000100
00000001
00000000
00000100
00000010
,
00000100
00000010
00000100
00000000
00001000
00010000
00001000
00010000
,
00001000
00000000
00100000
00010000
00100000
00010000
00100000
00000000
,
00010000
10000000
00010000
10000000
00010000
00000000
10000000
01000000
,
00100000
00010000
10000000
00010000
01000000
00100000
10000000
00010000
,
01000000
00000000
00000000
00001000
00000000
00010000
00001000
00000000
,
00010000
00000000
00001000
00000000
00000000
00010000
00000000
00000000
,
00000100
00000000
00000000
00010000
00000000
00001000
00010000
00000000
,
00001000
00000000
00010000
00000000
00000000
00001000
00000000
00000000
,
00100000
00000000
00000000
00010000
00000000
10000000
01000000
00000000
,
00010000
00000000
00000000
00001000
00000000
00000010
00000001
00000000
,
00000100
00000000
00000000
00001000
00000000
00010000
00100000
00000000
,
10000000
00000000
11000000
00000000
00000000
00110000
00000000
00000000
,
00100000
00010000
00100000
00001000
00010000
00000100
00001000
00000100
,
00000010
00000001
00000010
00000001
00000100
00000010
00001000
00000010
,
00010000
00001000
00010000
00001000
01000000
00010000
10000000
00100000
,
10000000
00100000
01000000
00010000
01000000
00010000
01000000
00001000
,
00010000
00001000
00010000
00000010
00001000
00000001
00000100
00001000
,
00000100
00000001
00001000
00000010
00000100
00000001
00001000
00000000
,
00000001
00000000
00000000
00000000
00000000
00000000
00000000
00000000
00000100
00000000
00000000
00000000
00000000
00000000
00000000
00000010
00000000
00000000
00000000
00000000
00000000
00000000
00000000
00000000
00000000
00000000
00000000
00000000
00000000
00000000
00000000
00000000
00000000
00000000
00000000
00000000
00000000
00000000
00000000
00000000
00000000
00000000
00000000
00000000
00000000
00000000
00000000
00000000
,
00010000
00000000
00000000
00000000
00000000
00000000
00000000
00000000
00001000
00000000
00000000
00000000
00000000
00000000
00000000
01000000
00000000
00000000
00000000
00000000
00000000
00000000
00000000
00000000
00000000
00000000
00000000
00000000
00000000
00000000
00000000
00000000
00000000
00000000
00000000
00000000
00000000
00000000
00000000
00000000
00000000
00000000
00000000
00000000
00000000
00000000
00000000
00000000
,
00010000
00000000
00000000
00000000
00000000
00000000
00000000
00000000
00100000
00000000
00000000
00000000
00000000
00000000
00000000
00001000
00000000
00000000
00000000
00000000
00000000
00000000
00000000
00000000
00010000
00000000
00000000
00000000
00000000
00000000
00000000
00000000
00000010
00000000
00000000
00000000
00000000
00000000
00000000
00000100
00000000
00000000
00000000
00000000
00000000
00000000
00000000
00000000
,
00002020
00000000
00000000
00000000
,
00000000
00000000
00000000
00003030
;

//---------------dance-single - ----------------
#NOTES:
     dance-single:
     :
     Easy:
     8:
     0.600,0.678,0.702,0.020,0.000,352.000,71.000,2.000,0.000,0.000:
0000
0000
0000
0000
,
0000
0000
0000
0000
,
0000
0000
0000
0000
,
0000
0000
0000
0000
,
0000
0000
0000
0000
,
0000
0000
0000
0000
,
0000
0000
0000
0000
,
0000
0000
0000
0000
,
0000
0000
0000
0000
,
0000
1000
0000
0001
,
0000
1000
0000
0001
,
0000
0010
0000
0001
,
0000
0010
0000
0100
,
0000
1000
0000
0100
,
0000
1000
0000
0010
,
0000
0100
0000
0010
,
0000
1000
0001
0100
,
0000
1001
0000
0100
,
0000
0010
0000
1001
,
0000
0100
0001
1000
,
0100
0010
0000
0000
,
0000
0100
0000
0100
,
0000
0001
1000
0100
,
0000
0000
0000
1001
,
0000
0100
0000
0011
,
0000
1100
0000
0001
,
1000
0001
1000
0100
,
0000
0101
0000
1000
,
0001
1000
0001
0100
,
0000
1000
0100
1000
,
0000
0001
0100
0001
,
0000
1000
0010
1000
,
0010
1000
0001
0010
,
0100
0000
1001
0000
,
0100
0000
0010
1000
,
0001
0100
0000
0010
,
0100
0001
1000
0000
,
0011
0000
1100
0000
,
0001
1000
0001
0000
,
0100
0000
1000
0001
,
1000
0000
0100
0000
,
0000
1000
0000
0000
,
0010
0000
0000
0100
,
0000
0001
0000
0000
,
0010
0000
0000
0100
,
0000
1000
0000
0000
,
0100
0000
0000
0001
,
0000
0010
0000
0000
,
0100
0000
0000
1001
,
0000
1000
0100
1000
,
0000
0001
0010
0001
,
0000
1000
0100
1000
,
0001
0100
0001
1000
,
0000
1000
0010
1000
,
0000
0001
0100
0001
,
0000
1000
0010
1000
,
0001
0010
0001
1000
,
0000
1000
0001
1000
,
0000
0010
0100
0010
,
0000
1000
0100
1000
,
0001
1000
0100
1000
,
0000
0001
0100
0001
,
0010
0001
1000
0100
,
0000
1000
0100
0010
,
0001
1000
0001
0100
,
0000
0000
1000
0100
,
1000
0000
0001
0010
,
0001
0000
1000
0100
,
0010
0001
1000
0001
,
0000
0000
1000
0001
,
0010
0000
1000
0001
,
0100
0000
1000
0001
,
0100
0010
1000
0100
,
0000
0000
1000
0100
,
1000
0001
0100
0001
,
0000
1100
0000
0011
,
0000
0101
0000
1001
,
1000
0000
0100
0000
,
0010
0000
0100
0000
,
0001
0000
0010
0000
,
0100
0000
0001
0000
,
1000
0000
0100
0000
,
0010
0000
0100
0000
,
0001
0000
0010
0000
,
1000
0001
0100
0000
,
1001
0000
0100
0000
,
0010
0000
1000
0000
,
0001
0000
0010
0000
,
0001
0000
0100
0000
,
1000
0000
0010
0000
,
1000
0000
0100
0000
,
0010
1000
0001
0100
,
1001
0000
1001
0000
,
1000
0100
1000
0000
,
0001
0000
0100
0000
,
0001
0000
0010
0000
,
1100
0000
0011
0000
,
1000
0100
1000
0000
,
0010
0000
0100
0000
,
0001
0000
0010
0001
,
0010
0000
1010
0000
,
1000
0001
1000
0000
,
0010
0100
0000
1000
,
0000
0001
0010
0001
,
1000
0000
0100
0000
,
0010
0100
0010
0000
,
1000
0001
1000
0000
,
0010
0100
0010
0100
,
0010
0000
0011
0000
,
1001
1000
0000
0001
,
0000
1000
0000
0010
,
0000
0100
0000
0001
,
0000
1000
0000
0010
,
0000
0001
0000
0100
,
0000
1000
0000
0001
,
0000
0010
0000
0100
,
0000
1000
0001
0100
,
0001
1000
0000
0100
,
0000
0010
0000
0001
,
0000
0100
0000
0010
,
0000
1000
0000
0100
,
0000
1100
0000
0011
,
0000
0101
0000
1010
,
0000
1000
0100
1000
,
0010
1000
0001
0100
,
0010
1001
0000
1100
,
0000
0011
0000
0101
,
0000
1010
0000
1001
,
0000
0011
0000
0110
,
0000
1100
0000
0101
,
0000
0110
0000
1010
,
0000
0101
0000
0110
,
0000
1001
0000
0101
,
0000
1010
0000
1001
,
0000
0011
0000
1100
,
0000
0110
0000
0101
,
0000
0011
0000
1010
,
0000
1100
0000
0110
,
0000
1001
0000
0011
,
0000
1100
0000
0110
,
0000
0011
0000
0101
,
0000
1010
0000
0100
,
0000
0010
0000
0011
,
0000
0010
0000
0100
,
0000
1100
0000
0110
,
0000
0011
0000
0101
,
0000
1001
0000
1010
,
0000
1100
0000
0110
,
0000
0011
0000
1100
,
0000
1000
0100
1000
,
0010
0001
0100
0001
,
0010
2002
0000
0000
,
0000
3003
0000
0000
;

//---------------dance-single - ----------------
#NOTES:
     dance-single:
     :
     Medium:
     10:
     0.939,1.000,0.613,0.376,0.020,565.000,62.000,38.000,0.000,2.000:
0000
0000
0000
0000
,
0000
0000
0000
0000
,
0000
0000
0000
0000
,
0000
0000
0000
0000
,
0000
0000
0000
0000
,
0000
0000
0000
0000
,
0000
0000
0000
0000
,
0000
0000
0000
0000
,
0000
0000
0000
0000
,
0000
1000
0100
1000
,
0010
0000
0001
0000
0100
0000
0001
0010
,
0001
1000
0001
1000
,
0001
1000
0010
0100
,
0010
0100
1000
0000
0100
0000
0010
0000
,
0001
0010
0100
1000
,
0001
0100
0010
1000
,
0001
0000
0100
0000
0010
0100
0010
0100
,
0010
0010
1000
0001
,
1000
0100
0001
0002
,
1003
0200
0310
0200
,
0310
0100
0000
0100
,
0001
0000
1000
0100
1000
0000
1000
0000
,
0001
0000
0001
0010
0001
0000
1000
0100
,
1000
0001
0010
0001
,
0100
1000
0100
1001
,
0000
0100
0010
0100
,
1000
0100
0001
0010
,
0001
0100
0010
0100
,
1000
0100
1000
0000
0010
0001
0010
0000
,
0010
0100
0010
0100
,
0010
0100
1000
0001
,
1000
0100
0010
0100
,
0010
0000
0100
0010
0100
0010
0100
0000
,
1001
0100
0010
0001
,
1000
0000
0001
0000
1000
0000
1000
0100
,
1000
0001
0010
0010
,
0001
0100
0100
1000
,
0100
0010
0100
0010
,
0001
0000
0001
0000
0100
0000
1000
0001
,
1000
0000
0100
0010
0100
0000
1000
0010
,
0100
0000
0010
0000
0100
0010
1000
0000
,
0100
0002
2003
3200
,
0320
0032
2003
3200
,
0320
0200
0032
0300
2003
0000
3002
0000
,
0203
0320
0230
2300
,
3002
0023
0230
0302
,
2003
3002
0203
0320
,
2030
0000
3200
0000
0320
0200
0032
0300
,
0203
0320
2030
0002
,
3003
1000
0100
1000
,
0001
0010
0001
0010
,
0100
0010
1000
0100
,
0010
0000
1000
0100
1000
0000
0001
0000
,
1000
0100
0010
0001
,
1000
0100
1000
0001
1000
0100
0000
0010
,
0001
1001
0100
1100
,
0101
1000
0100
0010
,
0001
0000
1000
0000
0100
0000
0010
0100
,
0010
0100
0010
0000
1000
0000
0001
0000
,
0100
0010
0100
0010
,
1000
0001
1000
1001
,
0000
0000
0100
1000
0100
0000
1000
0000
,
0010
0000
0100
0001
0100
0000
0001
0000
,
0010
0000
0100
0010
0100
0000
1000
0000
,
0001
0010
0100
1001
,
0000
0000
1000
0100
0010
0000
0100
0000
,
0001
0000
0100
0010
1000
0000
1000
0000
,
1001
0010
0100
1000
,
0100
0001
0010
1001
,
0000
1000
0010
0100
,
0001
0010
0100
1000
,
0001
0100
0010
1000
,
0001
0010
0100
1001
,
0000
0100
0010
0001
,
0000
1000
0100
1000
,
0000
0000
0000
1000
0000
0100
0000
1000
0000
0001
0000
0100
,
0000
0001
0000
0100
0000
0000
0000
0000
0000
1001
0000
0000
,
1000
1000
0100
1000
,
0001
0001
0100
0001
,
0010
1000
0100
0010
,
0001
0000
1000
0000
0001
0010
0001
0000
,
1000
0100
0010
0100
,
0001
1000
0100
0010
,
0100
1000
0100
0001
,
0100
0000
0010
0000
1000
0100
1000
0000
,
0001
0010
0100
0010
,
1000
0100
0010
0100
,
0001
0010
0100
0010
,
1000
0000
0100
0000
0010
0100
0010
0000
,
1000
0100
0010
0000
,
0001
0010
0001
0010
,
0100
1000
0100
1000
,
0010
0100
1100
0011
,
1000
0100
1000
0100
,
0010
0001
0100
0010
,
1000
0100
0010
0001
,
0010
0000
0001
0000
1000
0100
1000
0000
,
0001
0010
1000
0100
,
0010
0100
0001
0100
,
0010
1000
0100
0010
,
0010
1000
0100
0001
,
0100
0010
0100
1000
,
0001
0010
0100
1000
,
0100
1000
0100
0010
,
0001
0010
0100
0010
,
0001
1000
0100
0100
,
0010
0001
0110
0100
,
1000
0100
0001
0100
,
1100
0011
0101
1010
,
1001
1000
0100
1000
,
0100
0000
0001
0000
0010
0000
0001
0100
,
0010
1000
0010
1000
,
0010
0000
0001
0000
0100
0000
0001
0100
,
0001
0100
0001
0000
0100
0000
0010
0000
,
1000
0000
0100
0000
0001
0000
0100
0010
,
0100
0001
0100
0010
,
1000
0100
0001
0001
,
0100
1001
0100
0010
,
1000
0000
0100
0000
1000
0000
0100
1000
,
0010
0001
0010
0100
,
0010
0000
0100
0000
0001
0000
1000
0001
,
0100
0010
0100
0001
,
0110
0010
0100
1000
,
0100
0010
0001
0100
,
0010
1100
1001
0101
,
1001
0000
1100
0000
0000
0011
0000
0000
,
0000
0000
0101
0000
0000
1010
0000
0000
,
0000
0000
1001
0000
0000
0110
0000
0000
,
0000
0000
0000
0000
0011
0000
0000
1100
,
0000
0000
0101
0000
0000
0011
0000
0000
,
0000
0000
1100
0000
0000
1010
0000
0000
,
0000
0000
0110
0000
0000
0011
0000
0000
,
0000
0000
0000
0000
1010
0000
0000
1001
,
0000
0000
0101
0000
0000
1010
0000
0000
,
0000
0000
1100
0000
0000
0011
0000
0000
,
0000
0000
0101
0000
0000
0011
0000
0000
,
1100
0000
1100
0000
0000
0011
0000
0000
,
0000
0000
1100
0000
0000
1100
0000
0000
,
0000
0000
0011
0000
0000
0011
0000
0000
,
0000
0000
1001
0000
0000
0110
0000
0000
,
1100
0000
0011
0000
0000
1001
0000
0000
,
0000
1000
0100
1000
,
0010
0001
0100
0001
,
0010
1000
0001
0100
,
0010
0010
0001
0100
,
0010
0100
0001
0010
,
1000
0100
0010
0001
,
0010
0000
0100
0000
0000
0100
0000
0000
,
0000
0000
0010
0000
0000
0010
0000
0000
,
0000
0000
1001
0000
0000
0100
0010
0000
,
0000
1000
0001
0000
0000
0010
0100
0000
,
0000
1001
2002
0000
0000
0000
0000
0000
,
3003
0000
0000
0000
;

//---------------dance-single - ----------------
#NOTES:
     dance-single:
     :
     Hard:
     12:
     1.000,1.000,1.000,0.188,0.030,734.000,102.000,19.000,0.000,0.000:
0000
0000
0000
0000
,
0000
0000
0000
0000
,
0000
0000
0000
0000
,
0000
0000
0000
0000
,
0000
0000
0000
0000
,
0000
0000
0000
0000
,
0000
0000
0000
0000
,
0000
0000
0000
0000
,
0000
0000
0000
0000
,
0000
1000
0001
0010
,
0001
0000
1000
0000
0100
0000
0010
0100
,
0010
0000
1000
0000
0100
0000
0010
0001
,
0010
0000
0100
0000
0010
0000
1000
0001
,
0100
0100
0010
0100
,
1000
0000
0001
0000
0010
0000
1000
0100
,
1000
0000
0001
0010
0001
0000
1000
0000
,
0001
0000
1000
0001
1000
0100
0001
0000
,
0100
0000
1000
0100
1000
0000
0001
0000
,
0011
0100
1100
0010
,
1001
0000
1100
0000
0011
0000
1000
0001
,
0100
1001
0110
1001
,
0110
0000
1000
0000
0001
0000
1000
0001
,
0100
0000
0010
0000
0100
0000
0010
0100
,
0010
1000
0001
1000
,
0001
0000
0100
0010
0100
0010
0100
0010
,
0100
1000
0100
0000
1000
0000
0001
0010
,
0001
0000
0100
0000
0010
0000
0001
0100
,
0001
0000
1000
0000
0100
0010
0100
0001
,
0010
0010
0100
0000
0100
0000
0010
0000
,
0010
0000
0100
0000
0010
0100
1000
0001
,
0100
0010
0100
1001
,
0010
0000
0100
0000
1000
0100
0010
0000
,
0001
0010
0100
0000
0010
0000
0010
0000
,
0100
0000
1001
0000
0100
0000
0010
1000
,
0001
0100
0010
1000
0001
0100
0010
0000
,
1000
0011
1100
1010
,
0101
1000
0001
0100
,
0100
0000
0010
1000
0001
0000
0100
0001
,
1000
0100
0010
0000
0100
0000
0010
0000
,
0100
0100
1000
0001
,
0010
0000
0100
0000
1000
0000
0001
1000
,
0100
2000
3100
0002
,
0013
0200
0010
0001
,
0310
0002
1003
0200
,
0310
2000
0001
0100
,
0001
3002
0103
0002
,
0013
2000
0010
0100
,
3010
0200
0310
0002
,
1003
0020
0100
1000
,
0130
0000
1000
0100
1000
0000
0001
0010
,
0001
0000
0100
0010
0100
0000
1001
0000
,
0110
0000
1000
0001
0100
0000
0001
1000
,
0010
1001
1100
1001
,
0101
0000
0010
0100
0010
0000
1000
0001
,
1000
1010
0110
0101
,
1001
1000
0100
0010
,
0001
0000
1000
0000
0001
0000
1000
0001
,
0100
1000
0100
0010
,
0001
0000
1000
0000
0100
0000
0010
1000
,
0002
1000
0100
1000
,
0010
1000
0103
1001
,
0000
0000
1000
0100
1000
0000
0000
0000
,
0001
0100
0001
0100
0001
0000
0000
0000
,
1000
0010
1000
0010
1000
0000
0000
0000
,
0001
0100
0010
0000
1100
0000
0101
0000
,
0000
0000
1000
0100
0010
0000
0000
0000
,
0001
0010
0001
0100
1000
0000
1001
0000
,
0100
0010
1000
0001
0100
0000
0000
0000
,
1000
0001
0110
0000
1100
0000
0101
0000
,
0011
0000
0100
0010
0100
1000
0001
0100
,
0010
0100
1000
0000
0101
0000
0000
0000
,
0010
0100
1001
0011
,
1100
0001
0100
1001
,
0000
0000
1000
0100
1000
0000
0000
0000
,
0000
0000
0001
0010
0001
0000
0000
0000
,
0000
0000
0000
1000
0000
0100
0000
1000
0000
0001
0000
0100
,
0000
0000
0000
0000
0000
0000
0000
0000
0000
0000
0000
0000
0000
0000
0000
0000
0001
0000
0000
0000
0000
0000
0000
0000
0000
0000
0000
0000
0000
0000
0000
0000
0000
0000
0000
0000
0000
0000
0000
0000
0000
0000
0000
0000
0000
0000
0000
0000
1000
0000
0000
0000
0000
0000
0000
0000
0000
0000
0000
0000
0000
0000
0000
0000
0000
0000
0000
0000
0000
0000
0000
0000
0000
0000
0000
0000
0000
0000
0000
0000
0010
0000
0000
0000
0000
0000
0000
0000
0000
0000
0000
0000
0000
0000
0000
0000
0000
0000
0000
0000
0000
0000
0000
0000
0000
0000
0000
0000
0000
0000
0000
0000
0100
0000
0000
0000
0000
0000
0000
0000
0000
0000
0000
0000
0000
0000
0000
0000
0000
0000
0000
0000
0000
0000
0000
0000
0000
0000
0000
0000
0000
0000
0000
0000
2002
0000
0000
3003
0000
0000
0000
0000
0000
0000
0000
0000
0000
0000
0000
0000
0000
0000
0000
0000
0000
0000
0000
0000
0000
0000
0000
0000
0000
0000
0000
0000
0000
0000
0000
0000
0000
0000
0000
0000
0000
0000
0000
0000
0000
0000
0000
0000
,
1000
0000
0100
1000
0100
0000
0001
0100
,
0001
0000
0010
0100
0010
0000
0100
0010
,
0100
0000
1000
0100
1000
0000
0001
0010
,
0001
0000
0100
0010
0100
0000
1000
0001
,
0100
0000
0010
1000
0001
0000
0100
0010
,
0100
0000
0001
0010
0001
0000
1000
0010
,
0100
0000
0001
0010
0001
0000
1000
0010
,
0100
0000
0001
1000
0100
0000
1001
0000
,
0100
0000
0001
0100
0001
0000
1000
0010
,
0100
0000
0001
0010
0100
0000
1000
0100
,
0010
0000
0001
0010
0100
0000
1000
0001
,
0100
0010
0100
1000
0001
0000
0100
0000
,
1001
0000
0011
0000
0100
0000
0010
1000
,
0001
0000
0100
0010
0001
0000
1000
0010
,
0100
0000
0100
0000
0010
0100
0010
0100
,
0020
0130
0200
0310
,
1001
0000
0100
0000
0010
0000
1000
0100
,
1000
0000
0001
0010
0001
0000
0100
0010
,
0100
0000
1000
0001
0010
0001
0100
0010
,
1000
0001
1001
0000
1001
0000
0000
0000
,
0100
0000
0010
0100
0010
0000
1000
0001
,
1000
0000
0100
0010
0100
0000
0001
0010
,
0001
0100
0010
0100
1000
0100
1000
0001
,
0010
0100
0010
1001
,
0100
0000
0010
0100
0010
0000
0100
0010
,
0100
0000
1000
0001
1000
0000
0010
0100
,
0010
0001
1000
0000
0010
0100
0010
0000
,
0100
0010
0100
0000
0010
0000
0100
0000
,
1100
0011
0101
1010
,
0110
0011
1100
1010
,
0101
1010
0110
0011
,
0110
1100
1100
0011
,
2002
3003
0000
0000
0000
0000
0000
0000
0000
0000
0000
0000
0000
0000
0000
0000
1000
0000
0000
0000
0000
0000
0000
0000
0000
0000
0000
0000
0000
0000
0000
0000
0100
0000
0000
0000
0000
0000
0000
0000
0010
0000
0000
0000
0000
0000
0000
0000
0100
0000
0000
0000
0000
0000
0000
0000
0000
0000
0000
0000
0000
0000
0000
0000
,
0001
1000
0001
0000
0100
0010
0100
0000
,
1000
0100
1000
0100
1000
0000
0001
0010
,
0001
1100
1001
0011
,
0110
0000
1000
0100
1000
0000
0001
0010
,
0001
0000
0100
0010
0100
0000
1000
0100
,
1000
0000
0001
0100
0001
0010
1000
0100
,
1000
0010
0100
0000
0010
0000
1000
0100
,
1000
0000
1000
0100
1000
0000
0010
0100
,
0010
0100
0010
0100
0010
0000
1000
0001
,
0100
0010
0100
0001
1000
0000
0100
0010
,
0100
1100
1100
0011
,
1100
0000
1000
0001
0010
0001
0100
1000
,
0100
0010
0100
0010
0100
0000
1000
0100
,
0010
0001
1001
0000
1100
0000
0011
0000
,
0110
0101
1010
0110
,
1001
0000
1000
0100
1000
0000
0001
0010
,
0001
0000
0010
0100
0010
0000
1000
0100
,
1000
0000
0001
0010
0001
0100
1000
0100
,
1000
0010
0010
0000
0100
0000
1001
0000
,
1100
0000
0101
0000
0100
0010
0100
0010
,
0100
1000
0100
0000
0010
0001
0010
0100
,
0010
0100
1001
0000
0100
0010
0100
0010
,
0100
1000
0001
0000
0100
0000
0010
0000
,
0011
0000
1100
0000
0010
0100
0010
1000
,
0100
0010
0001
0000
0100
0010
0100
0010
,
1000
0100
0010
0000
0001
0010
0001
0000
,
1000
0100
1000
0010
0100
0001
0010
0000
,
1001
0000
0100
0000
0010
0100
0010
0100
,
0010
0000
1000
0000
0001
0010
0001
0100
,
1000
0010
0100
0001
0010
0001
0100
1000
,
1001
0100
0100
0010
,
0100
0010
0010
0100
,
0010
1000
0100
0010
,
0001
0010
0100
1000
,
0100
0010
0001
0010
,
0100
1000
0100
0010
,
0001
0000
0001
1000
0100
0010
0000
0000
,
1001
0000
0010
0100
1000
0001
0000
0000
,
0110
1001
0110
0110
,
1001
0000
0110
0000
0000
1100
1100
0000
,
0000
0000
0000
0011
0011
0000
0000
0110
,
0110
0000
0000
1001
1001
0000
0000
0000
;

//---------------dance-single - ----------------
#NOTES:
     dance-single:
     :
     Beginner:
     3:
     0.307,0.449,0.534,0.000,0.000,163.000,54.000,0.000,0.000,0.000:
0000
0000
0000
0000
,
0000
0000
0000
0000
,
0000
0000
0000
0000
,
0000
0000
0000
0000
,
0000
0000
0000
0000
,
0000
0000
0000
0000
,
0000
0000
0000
0000
,
0000
0000
0000
0000
,
0000
0000
0000
0000
,
0000
1000
0000
0000
,
0000
0001
0000
0000
,
0000
1000
0000
0000
,
0000
0001
0000
0000
,
0000
0010
0000
0000
,
0000
0100
0000
0000
,
0000
0010
0000
0000
,
0000
0100
0000
0000
,
0000
1000
0000
0000
,
0000
0001
0000
0000
,
0000
0010
0000
0000
,
0000
0100
0000
0000
,
0000
1000
0000
0000
,
0000
0001
0000
0000
,
0000
0100
0000
0000
,
0000
1001
0000
0000
,
0000
0100
0000
0000
,
0000
0001
0000
0000
,
0000
0100
0000
0000
,
0000
1001
0000
0000
,
0000
0010
0000
0000
,
0000
0110
0000
0000
,
0000
1000
0000
0000
,
0000
0001
0000
1000
,
0000
0100
0000
0000
,
0000
1001
0000
0000
,
0000
0010
0000
0000
,
0000
0100
0000
0010
,
0000
1001
0000
0000
,
0000
0100
0000
0000
,
0000
1001
0000
0110
,
0000
1001
0000
0000
,
0000
1001
0000
0000
,
0000
0000
0000
0000
,
0000
0110
0000
0000
,
0000
0000
0000
0000
,
0000
1001
0000
0000
,
0000
0000
0000
0000
,
0000
0110
0000
0000
,
0000
1001
0000
0000
,
0000
1000
0000
0100
,
0000
1000
0000
0100
,
0000
0001
0000
0100
,
0000
0001
0000
0000
,
0000
1001
0000
0000
,
0000
0010
0000
0100
,
0000
1000
0000
0000
,
0000
0001
0000
0000
,
0000
0100
0000
0100
,
0000
0100
0000
0000
,
0000
0010
0000
0010
,
0000
0010
0000
1001
,
0000
0100
0000
0000
,
0000
0001
0000
0000
,
0000
1000
0000
0000
,
0000
0100
0000
0000
,
0000
0010
0000
0000
,
0000
0100
0000
0000
,
0000
1000
0000
0001
,
0000
1001
0000
0000
,
0000
0100
0000
0000
,
0000
0100
0000
0000
,
0000
0010
0000
0000
,
0000
0010
0000
0000
,
0000
0001
0000
0000
,
0000
1000
0000
0000
,
0000
0001
0000
1000
,
0000
0100
0000
1001
,
1000
0000
0000
0000
,
1000
0000
0000
0000
,
0001
0000
0000
0000
,
0010
0000
0000
0000
,
0100
0000
0000
0000
,
0100
0000
0000
0000
,
0010
0000
0000
0000
,
1001
0000
0000
0000
,
0100
0000
0000
0000
,
0010
0000
0000
0000
,
1000
0000
0000
0000
,
0001
0000
0000
0000
,
0110
0000
0000
0000
,
0100
0000
0000
0000
,
1001
0000
0000
0000
,
0001
0000
0000
0000
,
0100
0000
0000
0000
,
0010
0000
0000
0000
,
1000
0000
0000
0000
,
0001
0000
0000
0000
,
0100
0000
0000
0000
,
0010
0000
0000
0000
,
0100
0000
0100
0000
,
1001
0000
0000
0000
,
0110
0000
0000
0000
,
0001
0000
0000
0000
,
1000
0000
0000
0000
,
0100
0000
0000
0000
,
0001
0000
0000
0000
,
0010
0000
0000
0000
,
0100
0000
0000
0000
,
0100
0000
0000
0000
,
1001
1000
1000
0000
,
0000
0100
0000
0100
,
0000
0010
0000
0000
,
0000
0100
0000
0000
,
0000
0010
0000
0000
,
0000
0001
0000
0000
,
0000
1000
0000
0000
,
0000
0100
0000
0000
,
0000
0010
0000
0000
,
0000
1001
0000
0000
,
0000
0100
0000
0000
,
0000
0110
0000
0000
,
0000
1001
0000
0000
,
0000
0100
0000
0000
,
0000
1001
0000
1001
,
0000
0110
0000
1001
,
0000
0110
0000
0000
,
0000
1001
0000
0000
,
0000
0110
0000
0000
,
0000
1001
0000
0000
,
0000
0110
0000
0000
,
0000
1001
0000
0000
,
0000
0110
0000
0000
,
0000
0110
0000
0000
,
0000
1001
0000
0000
,
0000
0110
0000
0000
,
0000
1001
0000
0000
,
0000
1001
0000
0000
,
0000
0110
0000
0000
,
0000
0110
0000
0000
,
0000
0110
0000
0000
,
0000
1001
0000
0000
,
0000
0110
0000
0000
,
0000
0110
0000
0000
,
0000
0110
0000
0000
,
0000
1001
0000
0000
,
0000
0110
0000
0000
,
0000
1001
0000
0000
,
0000
1000
0000
0100
,
0000
0010
0000
0001
,
0000
0010
0000
0100
,
0000
0100
0000
1001
,
0000
1001
0000
0000
;

//---------------dance-single - ----------------
#NOTES:
     dance-single:
     :
     Challenge:
     13:
     1.000,1.000,0.158,0.168,0.910,978.000,16.000,17.000,0.000,0.000:
0000
0000
0000
0000
,
0000
0000
0000
0000
,
0000
0000
0000
0000
,
0000
0000
0000
0000
,
0000
0000
0000
0000
,
0000
0000
1000
0000
0100
0000
1000
0100
,
0001
0000
0100
0000
0010
0000
0001
0100
,
1000
0000
0100
0000
0010
0000
0100
0010
,
0001
0000
0010
1000
0100
0000
1001
0000
,
0000
1000
0001
0100
,
0010
0100
0010
0000
0001
0000
1000
0000
,
0100
0010
0001
0000
0100
0000
0010
0000
,
1000
0000
0001
0000
0100
0010
1000
0000
,
0001
0100
0010
0000
0010
0000
0010
0000
,
0100
0010
0100
0000
0100
0000
0100
0000
,
0001
1000
0001
0000
0100
0010
0100
0000
,
1000
0100
1000
0001
0010
0100
0010
0100
,
1000
0001
1000
0100
,
0010
0000
0100
0010
0100
0000
0010
0100
,
0010
0000
1000
0100
1000
0000
0001
0100
,
0001
0000
0010
0100
1000
0001
0100
0000
,
1001
0000
0100
0010
0100
0010
0100
1000
,
0001
1000
0001
0100
0010
0100
0010
0000
,
1000
0001
0100
0010
0100
0100
0010
0001
,
1000
0100
0010
0100
1000
0001
0100
0010
,
1001
0000
0100
0010
0100
0000
0001
1000
,
0001
0000
1000
0100
1000
0000
0001
0100
,
0001
0010
0001
0100
0001
1000
0100
0000
,
0010
0100
0010
0000
0001
0100
0010
0000
,
0100
1000
0001
1000
0001
0000
0100
0010
,
0100
0000
1000
0100
1000
0001
0100
0001
,
0010
0001
0010
0001
0100
0000
1000
0100
,
1000
0000
0100
0010
0100
0001
0100
0010
,
0100
1000
0100
0000
0010
0001
0000
0000
,
0010
1000
0000
0000
0100
1000
0000
0000
,
0100
0001
1000
0000
0100
0000
0010
0100
,
0010
0000
0001
1000
0100
1000
0001
0100
,
0001
0010
0100
0000
1000
0100
1000
0000
,
0001
0100
0010
0100
1000
0001
0100
0010
,
0100
0000
0001
1000
0100
0010
0100
0000
,
1000
0001
0100
0010
0100
0000
0001
0100
,
0001
0101
0200
0000
0310
0000
0200
0000
,
0310
2000
0001
0100
,
3001
0000
0001
0000
0100
0000
0010
0100
,
0010
0000
1000
0100
1000
0000
0001
0100
,
0001
0200
0310
0002
,
1003
2000
3200
0320
,
0032
0000
0003
0000
1000
0000
0100
0010
,
0100
0000
0001
1000
0001
0000
0100
0010
,
0100
0000
0000
0001
0000
0000
1000
0000
0100
0000
2000
0000
0000
0000
0000
0000
0000
0000
0000
0000
0000
0000
0000
0000
,
3000
0000
0000
1000
0100
2000
0000
0000
0000
0000
0000
0000
,
3000
0000
0000
0001
0100
0002
0000
0000
0000
0000
0000
0000
,
0003
0000
0000
0001
0100
0002
0000
0000
0000
0000
0000
0000
,
0003
0000
0000
0100
0010
1000
0000
0000
0000
0100
0010
0001
,
0000
0000
0000
1000
0100
0010
0000
0000
0000
0001
0100
0010
,
0000
0000
0000
0100
0010
0100
0010
0000
0000
0010
0100
0010
,
0100
0000
0000
1000
0001
1000
0100
0000
0000
0001
1000
0001
,
0100
0000
0000
1000
0100
1000
0100
0000
0000
0001
0100
0001
,
0100
0000
0000
1000
0001
1000
0001
0000
0000
0100
0010
0100
,
0010
0000
0000
1000
0100
1000
0010
0000
0000
0001
0100
0001
,
0010
0000
0000
0100
0010
0001
0100
0000
0000
0100
0010
1000
,
0100
0000
1000
0100
1000
0001
0100
0001
,
0000
0010
0100
0010
0100
0001
1000
0100
,
0000
1000
0100
0010
0100
0001
0100
0010
,
0100
1000
0100
0010
0100
0000
1001
0000
,
0100
0000
0001
0100
0010
0100
1000
1100
,
0000
0100
0010
0100
0001
0010
0001
0100
,
0000
0101
0100
0010
0100
1000
0001
0100
,
0010
0001
0011
0000
0101
0000
1001
0000
,
1100
0000
1000
0100
0010
0001
0100
0010
,
0100
1000
0001
0000
0100
0010
0100
0000
,
1000
0001
0100
0001
0010
0001
0100
1000
,
0100
1000
0010
1000
0100
0010
0001
0000
,
1001
0000
0010
0100
0010
1000
0001
0100
,
0000
0010
0001
1000
0001
0100
0010
0001
,
1000
0000
0000
0001
0000
0000
1000
0000
0000
0000
0100
0000
0000
0000
0010
0000
0000
0000
0001
0000
0000
0000
0100
0000
,
0000
0000
0000
0000
0000
0000
0000
0000
0000
0000
0000
0000
0000
0000
0000
0000
0010
0000
0000
0000
0000
0000
0000
0000
0000
0000
0000
0000
0000
0000
0000
0000
0000
0000
0000
0000
0000
0000
0000
0000
0000
0000
0000
0000
0000
0000
0000
0000
0100
0000
0000
0000
0000
0000
0000
0000
0000
0000
0000
0000
0000
0000
0000
0000
0000
0000
0000
0000
0000
0000
0000
0000
0000
0000
0000
0000
0000
0000
0000
0000
1000
0000
0000
0000
0000
0000
0000
0000
0000
0000
0000
0000
0000
0000
0000
0000
0000
0000
0000
0000
0000
0000
0000
0000
0000
0000
0000
0000
0000
0000
0000
0000
0001
0000
0000
0000
0000
0000
0000
0000
0000
0000
0000
0000
0000
0000
0000
0000
0000
0000
0000
0000
0000
0000
0000
0000
0000
0000
0000
0000
0000
0000
0000
0000
2002
0000
0000
3003
0000
0000
0000
0000
0000
0000
0000
0000
0000
0000
0000
0000
0000
0000
0000
0000
0000
0000
0000
0000
0000
0000
0000
0000
0000
0000
0000
0000
0000
0000
0000
0000
0000
0000
0000
0000
0000
0000
0000
0000
0000
0000
0000
0000
,
1000
0100
1000
0000
0000
0000
1000
0100
1000
0000
0000
0000
,
0001
0100
0001
0000
0000
0000
0001
0100
0001
0000
0000
0000
,
0100
0010
0100
0000
0000
0000
0010
0100
0010
0000
0000
0000
,
1000
0100
0001
0000
0000
0000
0001
0100
1000
0000
0000
0000
,
0100
0010
0100
0000
0000
0000
0010
0100
0010
0000
0000
0000
,
1000
0100
1000
0000
0000
0000
0001
0100
0001
0000
0000
0000
,
0100
0010
0100
0000
0000
0000
1000
0001
0100
0000
0000
0000
,
0001
1000
0100
0000
0000
0000
0010
0100
0010
0100
0000
0000
,
0100
0010
0100
0010
0000
0000
1000
0100
1000
0100
0000
0000
,
0001
0010
0001
0010
0000
0000
0100
0010
0100
0010
0000
0000
,
1000
0001
1000
0100
0000
0000
0001
1000
0001
0100
0000
0000
,
0001
0100
0001
0010
0000
0000
1000
0100
1000
0010
0000
0000
,
0100
0010
0100
0010
0000
0000
0001
0100
0001
0100
0000
0000
,
1000
0100
1000
0100
0000
0000
0010
0100
0010
0100
0000
0000
,
1000
0100
0010
0100
0000
0000
0001
0100
0010
0100
0000
0000
,
1000
0100
0010
0100
0000
0000
0001
1000
0001
0100
0001
1000
,
0100
0010
0100
0010
0000
0000
0001
0100
0001
0100
0000
0000
,
1000
0100
1000
0100
0000
0000
0100
0010
0100
0010
0000
0000
,
0001
0100
0001
0100
0000
0000
1000
0100
1000
0100
0000
0000
,
0100
0010
0100
0010
0000
0000
0001
0100
0001
0010
0000
0000
,
1000
0010
0001
0100
0000
0000
0001
0010
1000
0100
0000
0000
,
0010
0100
0010
0100
0000
0000
0001
0100
0010
1000
0000
0000
,
1000
0010
0100
0001
0000
0000
0100
0010
0100
0010
0100
0000
,
1000
0001
1000
0001
1000
0001
0000
0000
0000
0001
1000
0001
,
0100
0010
0100
0010
0100
0000
1000
0001
1000
0001
1000
0000
,
0001
0100
0001
0100
0001
0000
1000
0100
1000
0100
1000
0000
,
1000
0010
1000
0010
1000
0000
0000
0000
0000
0001
0010
0001
,
0010
0001
0000
0000
0000
0000
1000
0100
1000
0100
0000
0000
,
0100
0010
0100
0010
0000
0000
0001
0100
0001
0100
0000
0000
,
0100
0010
0100
1000
0000
0000
0100
0010
0001
0100
0000
0000
,
0100
0010
1000
0100
0000
0000
0010
0100
0010
0100
0000
0000
,
0001
0100
0010
1000
0000
0000
0100
0010
0001
0100
0010
0000
,
1001
0000
1000
0100
1000
0001
1000
0100
,
1000
0000
0001
0100
0001
0010
0001
0100
,
0001
0000
1000
0100
0010
0000
0001
0100
,
0010
0000
1000
0100
0010
0100
1000
0100
,
0010
0100
1000
0000
0001
0100
0010
0000
,
0001
0100
0010
0000
0100
0010
0100
0001
,
1000
0000
1000
0100
0010
0100
0010
0000
,
0100
0010
0100
1000
0001
0000
0100
0010
,
0001
0100
0010
0000
1000
0100
1000
0000
,
0001
0100
0010
0100
0010
0001
0100
0000
,
1000
0100
0010
0100
0001
0000
0001
0100
,
0010
0000
1000
0100
1000
0100
0010
0100
,
0001
0000
0010
0100
0010
0001
0100
0000
,
1000
0100
0010
0000
0001
0100
0010
0100
,
1000
0000
0100
0010
0100
0001
0100
0010
,
0100
1000
0100
0001
0100
1000
0100
0010
,
1001
0000
1000
0100
1000
0100
0010
0100
,
0001
0100
0001
0010
0100
1000
0001
0100
,
0010
0100
1000
0000
0001
0100
0010
0100
,
0001
0100
0010
0000
1000
0100
0010
0001
,
0010
0100
1000
0000
0001
0100
0010
0100
,
1000
0100
0010
0100
0001
0100
1000
0001
,
0100
0001
0010
0001
0100
0000
1000
0100
,
0010
1000
0100
0000
1000
0001
0100
0000
,
0001
1000
0100
0000
0010
0100
0010
0001
,
0100
0010
0001
1000
0100
0000
0010
0100
,
0010
0100
1000
0000
0001
0100
0010
0100
,
1000
0100
0010
0100
0001
0100
0001
0010
,
0001
0100
1000
0100
1000
0010
1000
0100
,
1000
0000
0001
0100
0001
0010
0001
0100
,
0010
0100
1000
0000
0001
0100
0010
0100
,
1000
0100
1000
0100
0001
0010
0100
1000
,
0001
0100
0010
0000
1000
0100
1000
0000
,
1000
0100
1000
0000
1000
0100
1000
0000
,
0001
0100
0001
0000
0001
0100
0001
0000
,
0100
0010
0100
0000
1000
0001
0100
0010
,
0100
1000
0001
0000
0100
0010
0100
0000
,
1000
0001
0100
0000
0010
0001
0100
0010
,
0100
1000
0001
0100
0001
0100
1000
0100
,
1000
0100
0001
0010
0001
0010
0001
0010
,
1000
0100
1000
0001
0100
0010
1000
0001
,
0100
0010
0001
1000
0100
1000
0001
0100
,
0010
0100
2002
0000
0000
0000
0000
0000
,
3003
0000
0000
0000
;
