#TITLE:All Nerds Hate Sports;
#SUBTITLE:;
#ARTIST:m1dy;
#TITLETRANSLIT:;
#SUBTITLETRANSLIT:;
#ARTISTTRANSLIT:;
#CREDIT:;
#BANNER:nerds-bn.png;
#BACKGROUND:nerds-bg.png;
#LYRICSPATH:;
#CDTITLE:;
#MUSIC:All Nerds Hate Sports.ogg;
#OFFSET:0.009;
#SAMPLESTART:41.312;
#SAMPLELENGTH:12.000;
#SELECTABLE:YES;
#BPMS:0.000=250.000;
#STOPS:;
#BGCHANGES:;
// cache tags:
#FIRSTBEAT:33.250;
#LASTBEAT:364.000;
#SONGFILENAME:Songs/SPEEEDCOOOORE 4/All Nerds Hate Sports - [Rynker]/All Nerds Hate Sports.sm;
#HASMUSIC:1;
#HASBANNER:1;
#MUSICLENGTH:88.840;
// end cache tags

//---------------dance-single - Rynker----------------
#NOTES:
     dance-single:
     Rynker:
     Challenge:
     18:
     1.000,1.000,0.079,0.281,1.000,883.000,7.000,25.000,0.000,0.000:
0000
0000
0000
0000
,
0000
0000
0000
0000
,
0000
0000
0000
0000
,
0000
0000
0000
0000
,
0000
0000
0000
0000
,
0000
0000
0000
0000
,
0000
0000
0000
0000
,
0000
0000
0000
0000
,
4000
0000
0000
0000
0000
3000
0001
0010
0100
1000
0001
1000
0010
0100
0004
0003
,
4000
0000
0000
0000
0000
0000
0000
0000
3000
0000
0000
0000
0001
0000
0000
0010
0000
0000
0001
0000
0000
1000
0000
0000
0010
0000
0000
0000
0000
0000
0400
0000
0000
0000
0000
0000
0000
0000
0000
0000
0000
0000
0000
0000
0000
0300
0000
0000
,
0001
1000
0001
0100
0010
0100
0001
1000
0001
0010
0100
0010
0001
1000
0001
0100
,
0010
0100
0001
1000
0100
0010
0001
1000
0001
0100
0010
0100
0001
1000
0100
0010
,
0100
1000
0001
1000
0010
0100
0001
0100
0010
1000
0001
1000
0100
0010
0100
1000
,
0001
0010
0100
1000
0001
0100
0001
1000
0010
0100
0010
1000
0001
1000
0100
0010
,
0100
1000
0001
1000
0100
0010
0001
1000
0001
0100
0010
0100
0001
1000
0001
0100
,
0010
1000
0010
0100
0001
1000
0001
0010
0100
0010
0001
1000
0001
0100
0040
0000
,
0030
0000
4000
0000
3001
0100
0001
1000
0010
0100
0010
1000
0001
1000
0100
0010
,
0001
1000
0001
0010
0100
0010
0001
1000
0001
0100
0010
0100
0001
1000
0100
0010
,
0002
0000
0000
0000
0000
0000
0000
0000
0000
0000
0000
0000
4003
0000
0000
3000
,
0004
0003
0400
0300
0000
0000
0004
0003
0040
0030
0400
0300
2000
0000
0000
3000
,
1001
0000
0000
0000
0000
0000
0001
0000
0000
0000
0000
0000
0000
0000
0000
0000
1000
0000
0100
0000
0000
1000
0000
0000
,
0000
0000
0000
0000
0000
0000
0001
0000
0000
0000
0000
0000
0000
0000
0000
0000
1000
0000
0100
0000
0000
1000
0000
0000
,
0000
0000
0000
0000
0000
0000
0001
0000
0000
0000
0000
0000
0000
0000
0000
0000
1000
0000
0100
0000
0000
1000
0000
0000
,
0000
0001
0010
0000
0000
0100
1000
0001
,
0000
0000
0000
0000
0000
0000
1000
0000
0000
0000
0000
0000
0000
0000
0000
0000
0001
0000
0100
0000
0000
0001
0000
0000
,
0000
0000
0000
0000
0000
0000
1000
0000
0000
0000
0000
0000
0000
0000
0000
0000
0001
0000
0100
0000
0000
0001
0000
0000
,
2000
0000
0000
0000
0000
0000
3001
0100
,
0001
1000
0001
0100
0010
1000
0001
0100
0010
0100
0001
1000
0001
0010
0100
0010
,
0001
1000
0001
0010
0100
1000
0001
1000
0010
0100
0001
0100
0010
1000
0001
1000
,
0100
0010
0100
1000
0001
1000
0010
0100
0010
1000
0001
0100
0010
0100
0001
1000
,
0001
0010
0100
1000
0001
0100
0001
1000
0040
0000
0000
0000
0000
0000
0000
0000
,
1030
0001
1000
0010
0100
0001
0100
0010
1000
0001
1000
0100
0010
0001
1000
0001
,
0010
0100
0010
0001
1000
0001
0100
0010
0100
0001
1000
0001
0010
0100
1000
0001
,
1000
0010
0100
0010
1000
0001
1000
0100
0010
0001
1000
0001
0100
0010
0100
0001
,
1000
0001
0010
0100
0010
0001
1000
0001
0000
0000
0000
0000
0000
0000
0000
0000
,
0100
0001
1000
0010
0100
0010
1000
0001
1000
0010
0100
0001
1000
0001
0010
0100
,
0010
0001
1000
0001
0100
0010
0100
0001
1000
0001
0100
0010
1000
0001
1000
0100
,
0010
0001
1000
0010
0100
0010
1000
0001
0100
0001
1000
0100
0010
0100
1000
0001
,
1000
0010
0100
0010
1000
0001
1000
0010
0000
0000
0000
0000
1000
0001
0400
0300
,
0001
0000
1000
0000
0001
0000
0010
0100
1000
0001
1000
0010
0100
0000
0001
0000
,
1000
0000
0100
0000
0010
0000
0100
1000
0001
0100
0001
1000
0010
0000
0100
0000
,
0001
0000
1000
0000
0001
0000
0010
0100
1000
0001
1000
0010
0100
0000
0001
0000
,
1000
0001
1000
0001
0200
0000
0300
0000
0001
0000
1000
0000
0040
0000
0000
0000
,
1030
0001
1000
0100
0010
0001
1000
0001
0100
0010
0100
0001
1000
0001
0010
0100
,
0010
0001
1000
0001
0100
0010
0100
0001
1000
0100
0010
0001
1000
0001
0100
0010
,
0100
0001
1000
0010
0100
0010
1000
0001
1000
0100
0010
0001
1000
0001
0100
0010
,
0100
0001
1000
0001
0010
0100
0010
0001
2000
0000
0000
0000
0000
0000
3000
0000
,
0001
1000
0010
0100
0001
0100
0010
1000
0001
0010
0100
0010
0001
1000
0001
0100
,
0010
0100
0001
1000
0001
0100
0010
1000
0010
0100
0001
1000
0001
0010
0100
0010
,
0001
1000
0001
0010
0100
1000
0001
1000
0010
0100
0010
1000
0001
0100
0001
1000
,
0020
0000
2030
0000
0000
3000
0001
0000
0400
0000
0000
0000
0000
0000
0000
0300
,
0001
1000
0001
0100
0010
0100
0001
1000
0100
0010
0001
1000
0001
0010
0100
0010
,
0001
1000
0001
0100
0010
0100
0001
1000
0010
0100
0001
0100
0010
1000
0001
0010
,
0100
0010
0001
1000
0001
0100
0010
0100
0001
1000
0010
0100
0010
1000
0001
1000
,
0100
0000
0000
0010
0000
0000
0001
0000
0000
1000
0000
0000
0001
0000
0000
0100
0000
0000
0010
0000
0000
1000
0000
0000
0001
0000
0000
0000
1000
0000
0000
0000
0100
0000
0000
0000
0010
0000
0000
0000
0001
0000
0000
0000
1000
0000
0000
0000
,
0002
0003
1000
0010
1000
0000
0200
0300
0010
0100
1000
0000
0001
0000
0100
0000
,
0020
0030
1000
0010
1000
0000
0200
0300
0010
0001
1000
0000
0100
0000
0010
0000
,
0002
0003
1000
0010
1000
0000
0200
0300
0010
0100
1000
0000
0001
0000
0100
0000
,
0020
0030
1000
0010
1000
0000
0200
0300
0010
0001
1000
0000
0100
0000
0010
0000
,
0021
0030
0001
1000
0010
0000
0200
0300
0010
1000
0001
0000
1000
0000
0100
0000
,
0020
0030
0001
0100
0001
0000
2000
3000
0010
0100
0001
0000
0010
0000
0100
0000
,
2000
3000
0001
1000
0010
0000
0200
0300
0010
1000
0001
0000
1000
0000
0100
0000
,
0020
0030
0001
0100
0001
0000
2000
3000
0010
0100
0001
0000
0010
0000
0100
0000
,
4000
3000
0004
0003
4000
0000
0000
0000
,
3000
0000
0001
1000
0001
0010
0100
1000
,
0004
0000
0000
0000
0000
0000
0000
0000
1003
0010
1000
0001
0100
0001
1000
0100
,
0010
0001
1000
0001
0100
0010
0100
0001
1000
0100
0010
0001
1000
0001
0100
0010
,
1000
0000
0000
0000
0000
0000
0000
0000
0001
0000
0000
0000
0100
0000
0000
0000
0000
0000
0001
0000
0000
0000
0000
0000
1000
0000
0000
0010
0000
0000
1000
0000
0000
0001
0000
0000
0100
0000
0000
0001
0000
0000
1000
0000
0000
0010
0000
0000
,
0100
0001
0100
0010
1000
0001
1000
0100
0010
0100
1000
0001
1000
0100
0010
0001
,
1000
0001
0100
0010
0100
0001
1000
0100
0010
0100
1000
0001
1000
0010
0100
0010
,
1000
0001
1000
0010
0100
0010
1000
0001
0010
0100
0010
0001
1000
0001
0010
0100
,
1000
0001
1000
0010
0100
0001
0100
0010
4000
0000
0000
0000
0000
0000
0000
0000
,
3001
0000
0100
0001
0100
0000
0010
0000
1000
0100
0010
0000
0001
0000
1000
0000
,
0001
0000
1000
0100
1000
0000
0001
0000
0010
0100
1000
0000
0001
0000
0010
0000
,
0001
0000
0100
0001
0100
0000
0010
0000
1000
0100
0010
0000
0001
0000
1000
0000
,
0001
0000
1000
0100
1000
0000
0001
0000
0010
0100
1000
0000
0010
0000
0100
0000
,
0001
0000
1000
0100
1000
0000
0001
0000
0010
0100
1000
0000
0001
0000
0100
0000
,
0001
0000
1000
0010
1000
0000
0001
0000
0100
0010
1000
0000
0100
0000
0010
0000
,
0001
0000
1000
0100
1000
0000
0001
0000
0010
0100
1000
0000
0004
0000
0000
0003
,
1000
0010
1000
0001
0100
0010
0100
0001
1000
0001
0010
0100
0010
0001
1000
0001
,
0100
0010
0100
0001
1000
0001
0100
0010
0100
0001
1000
0100
0010
0001
1000
0001
,
0100
0010
0100
0001
1000
0001
0010
0100
0010
0001
1000
0001
0100
0010
1000
0010
,
0100
0001
1000
0001
0010
0100
1000
0001
2000
3000
0002
0000
0000
0000
0000
0003
,
1000
0000
0000
0100
1000
0000
0001
0000
,
0100
0000
0000
0001
0010
0000
0100
0000
,
1000
0000
0000
0100
1000
0000
0001
0000
,
0100
0000
0000
0001
0010
0000
0100
0000
,
1000
0000
0000
0100
1000
0000
0001
0000
,
0100
0000
0000
0001
0010
0000
0100
0000
,
1000
0000
0000
0100
1000
0000
0001
0000
,
0100
0000
0000
0001
0010
0000
0100
0000
,
1000
0000
0000
0000
;
