#TITLE:Rider of the Astral Fire;
#SUBTITLE:;
#ARTIST:Luca Turilli;
#TITLETRANSLIT:;
#SUBTITLETRANSLIT:;
#ARTISTTRANSLIT:;
#CREDIT:Arvin;
#BANNER:../bn-Rhapsody.png;
#BACKGROUND:../Rhapsody-bg.png;
#LYRICSPATH:;
#CDTITLE:;
#MUSIC:03.Rider of the Astral Fire.ogg;
#OFFSET:0.050;
#SAMPLESTART:33.293;
#SAMPLELENGTH:12.000;
#SELECTABLE:YES;
#BPMS:0.000=190.020;
#STOPS:;
#BGCHANGES:;
// cache tags:
#FIRSTBEAT:48.000;
#LASTBEAT:970.500;
#SONGFILENAME:Songs/Rhapsody of Fire/Rider of the Astral Fire - [Arvin]/rider.sm;
#HASMUSIC:1;
#HASBANNER:1;
#MUSICLENGTH:312.398;
// end cache tags

//---------------dance-single - Blank----------------
#NOTES:
     dance-single:
     Blank:
     Challenge:
     15:
     1.000,1.000,0.551,0.122,1.000,2436.000,172.000,38.000,143.000,5.000:

0000
0000
0000
0000
,
0000
0000
0000
0000
,
0000
0000
0000
0000
,
0000
0000
0000
0000
,
0000
0000
0000
0000
,
0000
0000
0000
0000
,
0000
0000
0000
0000
,
0000
0000
0000
0000
,
0000
0000
0000
0000
,
0000
0000
0000
0000
,
0000
0000
0000
0000
,
0000
0000
0000
0000
,
1MM1
0000
1000
0010
0100
0000
0001
0000
0100
0000
0010
0000
1M1M
0000
1000
0100
,
0010
0000
0001
0000
1000
0000
0001
0000
M1M1
0000
0100
0010
1000
0000
0001
0000
,
0100
0000
0010
0000
M11M
0000
0100
0010
1000
0000
0100
0000
1000
0000
0001
0000
,
1MM1
0000
0001
0100
0010
0000
1000
0000
0010
0000
0100
0000
M1M1
0000
0001
0010
,
0100
0000
1000
0000
0001
0000
1000
0000
1M1M
0000
0010
0100
0001
0000
1000
0000
,
0010
0000
0100
0000
M11M
0000
0010
0100
0001
0000
0010
0000
0001
0000
0100
0000
,
M11M
0000
0010
0100
0001
0000
0010
0000
0001
0000
1000
0000
1001
0000
0001
0010
,
0100
0000
1100
0000
0100
0000
0110
0000
0011
0000
0010
0001
1000
0000
1001
0000
,
0001
0000
0101
0000
0011
0000
0001
1000
0010
0000
1010
0000
1000
0000
1100
0000
,
1010
0000
1000
0010
0100
0000
0110
0000
0010
0000
1010
0000
1001
0000
1000
0100
,
0010
0000
0011
0000
0010
0000
0110
0000
1100
0000
0100
1000
0001
0000
0101
0000
,
0100
0000
0110
0000
1001
0000
1000
0100
0010
0000
0011
0000
0001
0000
0101
0000
,
0110
0000
0010
1000
0001
0000
1001
0000
1000
0000
1010
0000
0110
0000
0010
1000
,
0001
0000
1001
0000
1000
0000
1010
0000
0110
0000
0010
1000
0001
0000
1001
0000
,
1000
0000
1010
0000
0110
0000
0010
1000
0001
0000
1001
0000
1000
0000
1010
0000
,
0001
1000
0001
1000
0001
1000
0010
1000
0001
1000
0100
1000
0010
1000
0001
1000
,
0010
1000
0010
1000
0001
0010
0001
1000
0001
0100
0001
0010
0001
0100
0001
1000
,
0001
0100
0010
0100
0001
0010
0100
1000
0010
0100
0001
0010
0100
1000
0001
1000
,
0001
0100
0010
1000
0100
0010
0001
1000
0001
1000
0100
0010
0001
0010
0100
1000
,
0001
1000
0001
1000
0001
1000
0100
1000
0001
1000
0010
1000
0100
1000
0001
1000
,
0100
1000
0100
1000
0001
0100
0001
1000
0001
0010
0001
0100
0001
0010
0001
1000
,
0001
0010
0100
0010
0001
0100
0010
1000
0100
0010
0001
0100
0010
1000
0001
1000
,
0001
0010
0100
1000
0010
0100
0001
1000
0001
1000
0010
0100
0001
0100
0010
1000
,
0001
1000
0001
1000
0001
1000
0010
1000
0001
1000
0100
1000
0010
1000
0001
1000
,
0010
1000
0010
1000
0001
0010
0001
1000
0001
0100
0001
0010
0001
0100
0001
1000
,
0001
0100
0010
0100
0001
0010
0100
1000
0010
0100
0001
0010
0100
1000
0001
1000
,
0001
0100
0010
1000
0100
0010
0001
1000
0001
1000
0100
0010
0001
0010
0100
1000
,
0001
1000
0001
1000
0001
1000
0100
1000
0001
1000
0010
1000
0100
1000
0001
1000
,
0100
1000
0100
1000
0001
0100
0001
1000
0001
0010
0001
0100
0001
0010
0001
1000
,
0001
0010
0100
0010
0001
0100
0010
1000
0100
0010
0001
0100
0010
1000
0001
1000
,
0001
0010
0100
1000
0010
0100
0001
1000
0001
1000
0010
0100
0001
0100
0010
1000
,
0001
0100
0001
1000
0100
1000
0010
0100
0001
0010
0100
1000
0001
1000
0100
0010
,
0002
0000
0000
0000
0000
0000
0000
0000
0000
0000
1003
0010
1000
0010
0100
0001
,
M1M0
00M0
00M0
M000
0M00
00M0
000M
0M00
,
00M0
0M00
000M
00M0
0M00
M000
000M
00M0
,
000M
M000
000M
0M00
000M
M000
000M
00M0
,
0M00
M000
000M
M000
000M
M000
0M00
00M0
,
0001
0010
0001
1000
0010
0100
0001
0100
0010
1000
0001
1000
0100
0010
0001
0010
,
0100
1000
0010
0100
0001
1000
0001
0100
0010
0100
0001
0010
0100
1000
0001
1000
,
0100
0010
0100
0010
0001
1000
0100
0010
0001
0100
0010
1000
0001
0010
0100
1000
,
0001
0100
0001
1000
0100
1000
0010
0100
0001
0010
0100
1000
0010
0100
0010
0100
,
0001
1000
0001
0100
0010
1000
0100
0010
0100
1000
0001
1000
0010
0100
0001
0100
,
0010
1000
0100
0010
0001
1000
0001
0010
0100
0010
0001
0100
0010
1000
0001
1000
,
0010
0100
0010
0100
0001
1000
0010
0100
0001
0010
0100
1000
0001
0100
0010
1000
,
0001
0010
0001
1000
0010
1000
0100
0010
0001
0100
0010
1000
0100
0010
0100
0010
,
0001
1000
0001
0010
0100
1000
0010
0100
0010
1000
0001
1000
0100
0010
0001
0010
,
0100
1000
0010
0100
0001
1000
0001
0100
0010
0100
0001
0010
0100
1000
0001
1000
,
0100
0010
0100
0010
0001
1000
0100
0010
0001
0100
0010
1000
0001
0010
0100
1000
,
0001
0100
0001
1000
0100
1000
0010
0100
0001
0010
0100
1000
0010
0100
0010
0100
,
0001
1000
0001
0100
0010
1000
0100
0010
0100
1000
0001
1000
0010
0100
0001
0100
,
0010
1000
0100
0010
0001
1000
0001
0010
0100
0010
0001
0100
0010
1000
0001
1000
,
0010
0100
0010
0100
0001
1000
0010
0100
0001
0010
0100
1000
0001
0100
0010
1000
,
0001
0010
0001
1000
0010
1000
0100
0010
0001
0100
0010
1000
0100
0010
0100
0010
,
0001
1000
0001
0010
0100
1000
0010
0100
0002
0000
0000
0000
0003
0000
0000
1000
,
0001
0000
1001
0000
0000
0000
0001
0000
0101
0000
0000
0000
0000
0100
0001
0000
,
1001
0000
0000
0000
0000
0000
0100
0000
0101
0000
0000
0000
0000
0000
0000
0001
,
1000
0000
1001
0000
0000
0000
1000
0000
1010
0000
0000
0000
0000
0000
0000
1000
,
0001
0000
1001
0000
0000
0000
0010
0000
1010
0000
0000
0000
0000
0000
0000
0001
,
1000
0100
0010
0001
1002
0000
M000
M000
,
00M0
0M00
00M0
M000
0M00
00M0
0M00
M000
,
00M0
0M00
00M0
00M0
M000
00M0
0M00
00M0
,
M000
0M00
00M0
0M00
M000
00M0
0M00
00M0
,
M000
0000
0M00
0000
00M0
0000
0M00
0000
1003
0100
1000
0001
0100
0010
1000
0010
,
0100
0001
1000
0001
0010
0100
1000
0100
0010
0001
0100
0010
1000
0001
1000
0010
,
0100
0010
1000
0100
0010
0001
1000
0001
0010
0100
0010
0100
1000
0001
0010
0100
,
1000
0010
0100
0001
1000
0100
0010
0001
1000
0010
1000
0001
0010
0001
0100
0010
,
1000
0100
0010
0001
0100
0010
0100
0010
1000
0001
1000
0010
0100
0001
0010
0100
,
0010
0001
1000
0001
0100
0010
1000
0010
0100
0001
0010
0100
1000
0001
1000
0100
,
0010
0100
1000
0010
0100
0001
1000
0001
0100
0010
0100
0010
1000
0001
0100
0010
,
1000
0100
0010
0001
1000
0010
0100
0001
1000
0100
1000
0001
0100
0001
0010
0100
,
1000
0010
0100
0001
0010
0100
0010
0100
1000
0001
1000
0100
0010
0001
0100
0010
,
0100
0001
1000
0001
0010
0100
1000
0100
0010
0001
0100
0010
1000
0001
1000
0010
,
0100
0010
1000
0100
0010
0001
1000
0001
0010
0100
0010
0100
1000
0001
0010
0100
,
1000
0010
0100
0001
1000
0100
0010
0001
1000
0010
1000
0001
0010
0001
0100
0010
,
1000
0100
0010
0001
0100
0010
0100
0010
1000
0001
1000
0010
0100
0001
0010
0100
,
0010
0001
1000
0001
0100
0010
1000
0010
0100
0001
0010
0100
1000
0001
1000
0100
,
0010
0100
1000
0010
0100
0001
1000
0001
0100
0010
0100
0010
1000
0001
0100
0010
,
1000
0100
0010
0001
1000
0010
0100
0001
1000
0100
1000
0001
0100
0001
0010
0100
,
1000
0010
0100
0001
0010
0100
0010
0100
1000
0001
1000
0100
0010
0001
0100
0010
,
2000
0000
0000
0000
0000
0000
3000
0001
1000
0000
1001
0000
0000
0000
1000
0000
,
1010
0000
0000
0000
0000
0000
0000
1000
0001
0000
1001
0000
0000
0000
1000
0000
,
1010
0000
0000
0000
0000
0000
0000
1000
0001
0000
1001
0000
0000
0000
0001
0000
,
0101
0000
0000
0000
0000
0000
0000
0001
1000
0000
1001
0000
0000
0000
0100
0000
,
0101
0000
1001
1001
1001
1001
1001
1001
,
1000
0010
1000
0100
0010
0001
1000
0010
1000
0001
0100
0001
1000
0010
0100
0001
,
1000
0001
0100
0010
1000
0001
1000
0100
0010
0001
1000
0010
1000
0001
0010
0100
,
1000
0001
0100
0001
1000
0010
0100
0001
1000
0100
0010
0001
0100
0010
1000
0001
,
1000
0100
0010
0001
0010
0001
0100
0001
1000
0100
1000
0010
0100
0001
1000
0100
,
1000
0001
0010
0001
1000
0100
0010
0001
1000
0001
0010
0100
1000
0001
1000
0010
,
0100
0001
1000
0100
1000
0001
0100
0010
1000
0001
0010
0001
1000
0100
0010
0001
,
1000
0010
0100
0001
0010
0100
1000
0001
1000
0010
0100
0001
0100
0001
0010
0001
,
1000
0100
0010
0001
1000
0001
0100
0001
1000
0100
0010
0001
1000
0010
1000
0100
,
0010
0001
1000
0010
1000
0001
0100
0001
1000
0010
0100
0001
1000
0001
0100
0010
,
1000
0001
1000
0100
0010
0001
1000
0010
1000
0001
0010
0100
1000
0001
0100
0001
,
1000
0010
0100
0001
1000
0100
0010
0001
0100
0010
1000
0001
1000
0100
0010
0001
,
0010
0001
0100
0001
1000
0100
1000
0010
0100
0001
1000
0100
1000
0001
0010
0001
,
1000
0100
0010
0001
1000
0001
0010
0100
1000
0001
1000
0010
0100
0001
1000
0100
,
1000
0001
0100
0010
1000
0001
0010
0001
1000
0100
0010
0001
1000
0010
0100
0001
,
0010
0100
1000
0001
1000
0010
0100
0001
0100
0001
0010
0001
1000
0100
0010
0001
,
1000
0001
0100
0001
1000
0100
0010
0001
0010
0100
1000
0100
1000
0100
1000
0010
,
0200
0000
0000
0000
0000
0000
0000
0000
0301
0010
0001
0010
0001
1000
0010
1000
,
0001
0000
0000
0101
0000
0000
1000
0000
1001
0000
1010
0000
0000
0000
1000
0000
,
1001
0000
0000
0000
0000
0011
0011
1001
,
0000
0000
1000
0000
0001
0010
0001
0000
1001
0000
1001
0000
0000
0000
0000
0000
,
0000
0000
0000
0000
0000
0000
1100
0000
1010
0000
1000
0001
2000
0000
0000
0000
,
0000
0000
0000
0000
0000
0000
0000
0000
3010
1000
0010
1000
0001
0000
0000
0000
,
0000
0000
0000
0011
0011
1001
0000
1000
,
0001
0010
0001
0000
1001
0000
1001
0000
0000
0000
0000
0000
0000
0000
0000
0000
,
0000
0000
1100
0000
1010
0000
1000
0001
2002
0000
0000
0000
0000
0000
3003
0000
,
0010
1000
0010
1000
0001
1000
0100
0010
0001
0000
1000
0000
1001
0000
0001
0000
,
0101
1001
0001
1001
1000
0100
1100
0100
,
1100
1010
0010
0100
0101
0001
1001
1100
,
1100
0100
1000
0010
0100
0002
0000
1003
,
0200
0000
1300
0001
1001
1000
1010
1001
,
1000
1001
0001
0010
0011
0010
0011
0101
,
0100
0010
1010
1000
1001
0011
0011
0010
,
0001
0100
0010
2000
0000
3001
0010
0000
,
0100
1000
0001
0200
0000
0310
1000
0000
,
M002
M000
M0M0
0000
,
00M0
00M0
M0M0
0000
,
M000
0M00
MM00
0000
,
M000
0M00
M0M0
0000
,
M003
00M0
M0M0
0000
,
MMMM
0000
0000
0000
,
MMMM
0000
0000
0000
,
MMMM
0000
0000
0000
1001
1001
1001
0101
,
1001
0000
0001
0000
1000
0100
0010
0100
,
1000
0000
1000
0000
0010
0100
0010
1000
,
0001
0000
0001
0000
0100
0010
0100
0001
,
0010
0000
0010
0000
0100
1000
0010
0100
,
0001
0001
MMMM
0000
,
1000
1000
MMMM
0000
,
0010
0010
MMMM
0000
,
0200
0300
0200
0000
0301
0010
0001
1000
,
0200
0000
0000
0000
2300
0000
0000
0000
3010
0100
0010
1000
0001
0010
0100
1000
,
0002
0000
0000
0000
0203
0000
0000
0000
0310
1000
0010
0100
0001
0010
0100
1000
,
0020
0000
0000
0000
0230
0000
0000
0000
0301
1000
0001
1000
0100
0010
0001
0100
,
0020
0000
0230
0000
0301
1000
0010
0100
,
0001
0000
0010
0000
0001
0000
1000
0000
0001
0100
0010
1000
0001
0010
0100
1000
,
0001
0000
0100
0000
0001
0000
1000
0000
0100
0010
0001
1000
0010
1000
0001
0010
,
0100
0000
1000
0000
0010
0000
1000
0000
0100
0010
0001
1000
0001
1000
0100
0010
,
0001
1000
0001
0100
0001
0010
0100
1000
,
0100
0010
0100
1000
0004
0000
0000
0000
,
0000
0000
0000
0000
0000
0000
0000
0000
1003
0100
0010
0001
0010
0100
1000
0001
,
1000
0100
0010
0001
1000
0010
1000
0001
0100
0001
0010
0100
1000
0100
0010
0001
,
1000
0010
1000
0001
0100
0010
0100
0001
0010
0100
1000
0001
1000
0100
0010
0001
,
1000
0001
0100
0010
0100
0001
0010
0100
1000
0001
1000
0001
1000
0100
0010
0001
,
2000
0000
0000
0000
0000
0000
0000
0000
3001
0010
0100
1000
0100
0010
0001
1000
,
0001
0010
0100
1000
0001
0100
0001
1000
0010
1000
0100
0010
0001
0010
0100
1000
,
0001
0100
0001
1000
0010
0100
0010
1000
0100
0010
0001
1000
0001
0010
0100
1000
,
0001
1000
0010
0100
0010
1000
0100
0010
0001
1000
0001
1000
0001
0010
0100
1000
,
0002
0000
1013
0010
,
0100
0001
0010
0100
,
1000
0001
1010
0010
,
1000
0001
1000
0010
,
0200
0000
1301
1000
,
0100
0010
0001
0100
,
0010
1000
1001
0001
,
0100
0010
0100
0001
,
0020
0000
0000
0000
1130
0100
1000
0001
,
0010
0001
1000
0010
1000
0100
0010
0001
,
0100
0010
1000
0001
0010
0100
1000
0001
,
1000
0100
0010
0001
2000
0000
3200
0000
,
0320
0000
0000
0000
0031
1000
0010
1000
,
0001
0010
0100
1000
0010
0100
0001
1000
,
0001
1000
0100
0010
0001
0100
0010
1000
,
0001
0010
0100
1000
0002
0000
0023
0000
,
0230
0000
1301
1000
,
0010
0100
0001
0010
,
0100
1000
0001
0100
,
0010
1000
0001
0010
,
0200
0000
1300
0001
,
1000
0010
0100
0001
,
0010
0100
1000
0001
,
1000
0010
0100
0001
,
0020
0000
0000
0000
1130
0000
1000
0010
,
1000
0000
0010
0000
1000
0000
0010
0000
2000
0000
0000
0000
0000
0000
3000
0001
,
1000
0000
1001
0000
0000
0000
1000
0000
1010
0000
0000
0000
0000
0000
0000
1000
,
0001
0000
1001
0000
0000
0000
0010
0000
1010
0000
0000
0000
0000
0000
0000
0001
,
1000
0000
1001
0000
0000
0000
0001
0000
0101
0000
0000
0000
0000
0000
0000
0001
,
1000
0000
1001
0000
0000
0000
0100
0000
0101
0000
0000
0000
0000
0000
0000
1000
,
0001
0000
0010
0000
0100
0000
1000
0000
0001
0100
0001
0010
0100
1000
0001
0100
,
0001
1000
0010
1000
0001
0100
0010
1000
0001
1000
0010
0100
0001
1000
0001
0010
,
0100
1000
0001
0100
0001
1000
0100
0010
0001
1000
0010
1000
0001
0100
0010
1000
,
0001
0010
0100
1000
0010
0100
0001
1000
0001
0010
0100
1000
0100
1000
0010
1000
,
0001
0010
0001
0100
0010
1000
0001
0010
0001
1000
0100
1000
0001
0010
0100
1000
,
0001
1000
0100
0010
0001
1000
0001
0100
0010
1000
0001
0010
0001
1000
0010
0100
,
0001
1000
0100
1000
0001
0010
0100
1000
0001
0100
0010
1000
0100
0010
0001
1000
,
0001
0100
0010
1000
0010
1000
0100
1000
0001
0010
0100
1000
0001
1000
0010
1000
,
0001
0010
0100
1000
0001
0100
0001
0010
0100
1000
0001
0100
0001
1000
0010
1000
,
0001
0100
0010
1000
0001
1000
0010
0100
0001
1000
0001
0010
0100
1000
0001
0100
,
0001
1000
0100
0010
0001
1000
0010
1000
0001
0100
0010
1000
0001
0010
0100
1000
,
0010
0100
0001
1000
0001
0010
0100
1000
0100
1000
0010
1000
0001
0010
0001
0100
,
0010
1000
0001
0010
0001
1000
0100
1000
0001
0010
0100
1000
0001
1000
0100
0010
,
0001
1000
0001
0100
0010
1000
0001
0010
0001
1000
0010
0100
0001
1000
0100
1000
,
0001
0010
0100
1000
0001
0100
0010
1000
0100
0010
0001
1000
0001
0100
0010
1000
,
0010
1000
0100
1000
0001
0010
0100
1000
0001
1000
0010
1000
0001
0010
0100
1000
,
0100
0010
0001
0010
0001
1000
0010
1000
0001
0100
0001
0010
0100
1000
0001
0100
,
0001
1000
0010
1000
0001
0100
0010
1000
0001
1000
0010
0100
0001
1000
0001
0010
,
0100
1000
0001
0100
0001
1000
0100
0010
0001
1000
0010
1000
0001
0100
0010
1000
,
0001
0010
0100
1000
0010
0100
0001
1000
0001
0010
0100
1000
0100
1000
0010
1000
,
0001
0010
0001
0100
0010
1000
0001
0010
0001
1000
0100
1000
0001
0010
0100
1000
,
0001
1000
0100
0010
0001
1000
0001
0100
0010
1000
0001
0010
0001
1000
0010
0100
,
0001
1000
0100
1000
0001
0010
0100
1000
0001
0100
0010
1000
0100
0010
0001
1000
,
0001
0100
0010
1000
0010
1000
0100
1000
0001
0010
0100
1000
0001
1000
0010
1000
,
0001
0010
0100
1000
0001
0100
0001
0010
0100
1000
0001
0100
0001
1000
0010
1000
,
0001
0100
0010
1000
0001
1000
0010
0100
0001
1000
0001
0010
0100
1000
0001
0100
,
0001
1000
0100
0010
0001
1000
0010
1000
0001
0100
0010
1000
0001
0010
0100
1000
,
0010
0100
0001
1000
0001
0010
0100
1000
0100
1000
0010
1000
0001
0010
0001
0100
,
0010
1000
0001
0010
0001
1000
0100
1000
0001
0010
0100
1000
0001
1000
0100
0010
,
0001
1000
0001
0100
0010
1000
0001
0010
0001
1000
0010
0100
0001
1000
0100
1000
,
0001
0010
0100
1000
0001
0100
0010
1000
0100
0010
0001
1000
0001
0100
0010
1000
,
0010
1000
0100
1000
0001
0010
0100
1000
0001
1000
0010
1000
0001
0010
0100
1000
,
0100
0010
0001
0010
0001
0010
0001
0100
0001
0000
1000
0010
1000
0001
0010
0001
,
1000
0100
1000
0010
0100
0001
0010
0100
1000
0000
0000
1010
0000
0000
1001
0000
,
0001
0000
1000
0000
0000
0000
0000
0000
1MM1
0000
1000
0010
0100
0000
0001
0000
,
0100
0000
0010
0000
1M1M
0000
1000
0100
0010
0000
0001
0000
1000
0000
0001
0000
,
M1M1
0000
0100
0010
1000
0000
0001
0000
0100
0000
0010
0000
M11M
0000
0100
0010
,
1000
0000
0100
0000
1000
0000
0001
0000
1MM1
0000
0001
0100
0010
0000
1000
0000
,
0010
0000
0100
0000
M1M1
0000
0001
0010
0100
0000
1000
0000
0001
0000
1000
0000
,
1M1M
0000
0010
0100
0001
0000
1000
0000
0010
0000
0100
0000
M11M
0000
0010
0100
,
0001
0000
0010
0000
0001
0000
0100
0000
M11M
0000
0010
0100
0001
0000
0010
0000
,
0001
0000
1000
0000
1001
0000
0001
0010
0100
0000
1100
0000
0100
0000
0110
0000
,
0011
0000
0010
0001
1000
0000
1001
0000
0001
0000
0101
0000
0011
0000
0001
1000
,
0010
0000
1010
0000
1000
0000
1100
0000
1010
0000
1000
0010
0100
0000
0110
0000
,
0010
0000
1010
0000
1001
0000
1000
0100
0010
0000
0011
0000
0010
0000
0110
0000
,
1100
0000
0100
1000
0001
0000
0101
0000
0100
0000
0110
0000
1001
0000
1000
0100
,
0010
0000
0011
0000
0001
0000
0101
0000
0110
0000
0010
1000
0001
0000
1001
0000
,
1000
0000
1010
0000
0110
0000
0010
1000
0001
0000
1001
0000
1000
0000
1010
0000
,
0110
0000
0010
1000
0001
0000
1001
0000
1000
0000
1010
0000
0110
0000
0010
1000
,
0001
1001
1000
1010
2002
3003
0000
0000
;
