#TITLE:Mirai Nikki;
#SUBTITLE:WTF man whit this mines!!;
#ARTIST:Katou Tatsuya;
#TITLETRANSLIT:;
#SUBTITLETRANSLIT:;
#ARTISTTRANSLIT:;
#CREDIT:;
#BANNER:bn.jpg;
#BACKGROUND:bg.jpg;
#LYRICSPATH:;
#CDTITLE:bombastik.png;
#MUSIC:Mirai Nikki.mp3;
#OFFSET:0.900;
#SAMPLESTART:99.940;
#SAMPLELENGTH:12.000;
#SELECTABLE:YES;
#BPMS:0.000=152.000;
#STOPS:;
#BGCHANGES:;
// cache tags:
#FIRSTBEAT:4.000;
#LASTBEAT:287.375;
#SONGFILENAME:Songs/FUCK ANIME PACK/Mirai Nikki/Mirai Nikki.sm;
#HASMUSIC:1;
#HASBANNER:1;
#MUSICLENGTH:117.110;
// end cache tags

//---------------dance-single - Blank----------------
#NOTES:
     dance-single:
     Blank:
     Challenge:
     10:
     1.000,1.000,1.000,1.000,0.935,622.000,331.000,496.000,349.000,192.000:

0000
0000
0000
0000
,
M0M0
00M0
M000
00M0
M000
00M0
000M
0M00
,
000M
M000
00M0
0M00
000M
M000
00M0
00M0
,
MMMM
M000
00M0
0M00
000M
M000
00M0
00M0
,
0M00
00M0
M000
00M0
000M
000M
00M0
MMMM
,
1111
0001
0110
0001
0022
0133
1010
0101
,
2210
0000
0002
3303
0110
0000
1000
0000
0022
0000
2000
3033
1100
0000
0001
0000
,
1110
0000
0011
0000
2200
0000
0002
3303
0220
0000
2000
3330
0011
0000
1100
0000
,
0022
0000
2000
3033
0110
0000
1100
0000
0220
0000
0002
0333
1100
0000
0010
0000
,
1110
0000
0010
0000
0022
0000
0200
0333
1100
0000
0010
0000
1100
0000
0011
0000
,
2200
0000
0020
3330
0110
0000
1000
0000
0022
0000
0200
0333
1010
0000
0100
0000
,
1001
0000
1001
0000
2200
0000
0020
3330
0011
0000
0100
0000
1100
0000
0001
0000
,
2002
0000
0200
3303
0011
0000
0100
0000
2200
0000
0002
0303
0110
0000
3011
1100
,
0011
0100
0010
0100
1001
0010
0100
0010
1001
0100
0010
0100
1001
0010
0100
0010
,
1001
0100
0010
0100
1001
0010
0100
0010
1001
0100
0010
0100
1001
0010
0100
0010
,
1001
0100
0010
0100
1001
0010
0100
0010
1001
0100
0010
0100
1001
0010
0100
0010
,
1001
0100
0010
0100
1001
0010
0100
0010
1001
0100
0010
0100
1001
0010
0100
0010
,
2002
3M23
223M
33M2
M223
233M
3M22
M233
,
23M2
0000
0000
0000
32M3
0000
0000
0000
232M
0000
0000
0000
3M32
0000
0000
0003
M2M2
0000
0000
0000
M323
0000
0000
0000
223M
0000
0000
0000
33M2
0000
0000
0000
,
M223
0000
0000
0000
233M
0000
0000
0000
3M22
0000
0000
0000
M233
0000
0000
0300
22MM
0000
0000
0000
33M2
0000
0000
0003
2MM2
0000
0000
0000
32M3
0000
0000
0000
,
M322
0000
0000
0000
2M33
0000
0000
0000
32M2
0000
0000
0000
M323
0000
0000
0030
2M2M
0000
0000
0000
323M
0000
0000
0000
23M2
0000
0000
0000
3M23
0000
0000
0000
,
1031
0100
0010
0100
1001
0000
0220
0330
0022
0033
2200
3300
0101
0010
0100
1000
,
0011
0000
2200
3300
2002
3003
0220
0330
1010
0100
0010
0001
1100
0000
0022
0033
,
0220
0330
2002
3003
0101
0010
0100
1000
0011
0000
2200
3300
2002
3003
0220
0330
,
0101
0010
0100
1000
0011
0000
0220
0330
2200
3300
2002
3003
1010
0100
0011
1000
,
0222
0333
2200
3300
0220
0330
2002
3003
0101
0010
0100
1000
0011
0000
0220
0330
,
2002
3003
2200
3300
0101
0010
0100
1000
0011
0000
0220
0330
2200
3300
0010
1000
,
0222
1333
0100
0010
1100
0000
0022
0033
0220
0330
2002
3003
0101
0010
0100
1000
,
0022
0000
0000
0033
0000
0000
0220
0000
0000
0330
0000
0000
2002
0000
0000
3003
0000
0000
0220
0000
0000
0330
0000
0000
1000
0000
0100
0000
0010
0000
0001
0000
0010
0000
0100
0000
1000
0000
0100
0000
0010
0000
0001
0000
0010
0000
0100
0000
,
2002
3003
0110
1000
0222
0333
1000
0000
0110
0000
0000
0000
2220
3330
0101
0010
,
2202
3303
0010
0000
1100
0000
0000
0000
0222
0333
0100
1000
0222
0333
1000
0000
,
0110
0000
0000
0000
2202
3303
0101
0010
2202
3303
0010
0000
1100
0000
0000
0000
,
2220
3330
0101
1000
0222
0333
0100
0000
1001
0000
0000
0000
0222
0333
1000
0001
,
2220
3330
0001
0000
0110
0000
0000
0000
2202
3303
0010
0100
2022
3033
0100
0000
,
1010
0000
0000
0000
0222
0333
0100
1000
0222
0333
1100
0000
0111
0000
0110
0000
,
2111
0000
0220
0000
3332
0000
0020
0100
1033
0000
0101
0010
1100
0000
0011
0000
,
2200
0000
0020
3330
2002
0000
0000
3103
0022
0000
2000
0000
3033
0000
0001
0000
,
2110
0000
0022
3033
2000
0000
0200
3001
2320
0000
3031
0010
0200
0300
1010
0000
,
0022
0000
0200
0333
2000
0000
0200
3001
1310
0000
0101
2000
0000
0000
0110
3001
,
1110
11MM
M012
M123
123M
M312
M123
1M32
,
21M3
31M2
M123
2M31
31M2
12M3
231M
31M1
,
2222
3333
M01M
0000
0M12
0000
12M3
0000
231M
0000
312M
0000
M231
0000
132M
0000
,
1M32
0000
12M3
0000
132M
0000
M231
0000
M321
0000
1M32
0000
21M3
0000
3011
1100
,
0011
0100
1000
0100
0011
0000
2002
3003
0220
0330
2200
3300
0101
0010
0100
1000
,
0011
0000
0220
0330
2200
3300
2002
3003
0101
0010
0100
1000
0011
0000
0220
0330
,
2200
3300
2002
3003
0101
0010
0100
1000
0011
0000
2002
3003
2200
3300
0220
0330
,
1010
0100
0010
0001
1100
0000
0022
0033
0220
0330
2002
3003
0101
0010
2200
3301
,
2220
3330
0022
0033
0220
0330
2002
3003
1010
0100
0010
0001
1100
0000
0220
0330
,
2002
3003
0022
0033
1010
0100
0010
0001
1100
0000
0022
0033
2002
3003
0220
0330
,
2222
3333
0010
0100
1011
0000
2200
3300
0220
0330
2002
3003
1010
0100
0010
0001
,
1100
0000
0000
0000
0000
0000
0022
0000
0000
0033
0000
0000
2002
0000
0000
3003
0000
0000
0220
0000
0000
0330
0000
0000
1000
0000
0100
0000
0010
0000
0001
0000
0010
0000
0100
0000
1000
0000
0100
0000
0010
0000
0001
0000
0010
0000
0100
0000
,
2MM2
0000
0000
0000
0000
0000
0000
0000
0000
0000
0000
0000
0000
0000
0000
0000
0000
0000
0000
0000
0000
0000
0000
0000
0MM0
0000
0000
0000
0000
0000
0000
0000
0000
0000
0000
0000
0000
0000
0000
0000
0000
0000
0000
0000
0000
0000
0000
0000
0MM0
0000
0000
0000
0000
0000
0000
0000
0000
0000
0000
0000
0000
0000
0000
0000
0000
0000
0000
0000
0000
0000
0000
0000
0MM0
0000
0000
0000
0000
0000
0000
0000
0000
0000
0000
0000
0000
0000
0000
0000
0000
0000
0000
0000
0000
0000
0000
0000
0MM0
0000
0000
0000
0000
0000
0000
0000
0000
0000
0000
0000
0000
0000
0000
0000
0000
0000
0000
0000
0000
0000
0000
0000
0MM0
0000
0000
0000
0000
0000
0000
0000
0000
0000
0000
0000
0000
0000
0000
0000
0000
0000
0000
0000
0000
0000
0000
0000
0MM0
0000
0000
0000
0000
0000
0000
0000
0000
0000
0000
0000
0000
0000
0000
0000
0000
0000
0000
0000
0000
0000
0000
0000
0MM0
0000
0000
0000
0000
0000
0000
0000
0000
0000
0000
0000
3000
0000
0000
0000
0003
0000
M00M
0000
0000
0000
0000
0000
,
1111
0100
1001
0110
0002
0000
1113
0100
,
2002
0000
0000
0000
3003
M00M
0000
0000
0100
0000
0000
0000
0100
0000
0000
0000
2022
0000
0000
0000
3133
M0MM
0000
0000
0100
0000
0000
0000
1011
0000
0100
0000
,
1011
0000
0100
0000
0012
0000
2000
0003
3111
0000
1000
0000
0111
0000
1000
0000
,
0012
0000
0000
0000
2M00
0000
0000
0000
3103
0000
0000
0000
0100
0000
0000
0000
2022
0000
0000
0000
0000
0000
0000
0000
3133
M0MM
0000
0000
1011
0000
0100
0000
,
2022
0000
0000
0000
3233
M0MM
0000
0000
2320
0000
0000
0000
3M32
M0M0
0000
0000
2203
0000
0000
0000
332M
MM00
0000
0000
2132
0000
0000
0000
32M3
M00M
0000
0000
,
0322
0000
0000
0000
2M33
00MM
0000
0000
3202
0000
0000
0000
M323
0M0M
0000
0000
2231
0000
0000
0000
33M2
MM00
0000
0000
0223
0000
0000
0000
2331
0MM0
3010
M000
,
1202
0000
0000
0000
M323
0M0M
0000
0000
2231
00M0
0000
0000
33M2
0000
0000
0000
2023
000M
0000
0000
323M
M0M0
0000
0000
1322
0M00
0000
0000
2M33
00MM
0000
0000
,
32M2
M000
0000
0000
0323
0M0M
0000
0000
2230
00M0
3000
M000
1312
0M00
0000
0000
2123
0M0M
0000
0000
323M
00M0
0000
0000
0322
MM00
1133
00MM
0011
0000
11MM
MM00
,
MM22
0000
0133
00MM
1000
0000
0010
0000
M200
0000
0000
0000
2322
0M00
3033
M0MM
2202
0000
3303
MM0M
0222
0000
0333
0MMM
0010
0000
0100
0000
1000
0000
0100
0000
,
0002
0000
0000
0000
2223
0000
3330
MMM0
0222
0000
0333
0MMM
2022
0000
3033
M0MM
0100
0000
0010
0000
0001
0000
0010
0000
2000
0000
0000
0000
3222
M000
0333
0MMM
,
2220
0000
3330
MMM0
2220
0000
3330
MMM0
0001
0000
0010
0000
0100
0000
1000
0000
0020
0000
0000
0000
2232
00M0
3303
MM0M
0222
0000
0333
0MMM
2220
0000
3330
MMM0
,
0001
0000
0010
0000
0100
0000
1000
0000
0020
0000
0000
0000
2232
00M0
3303
MM0M
2220
0000
3330
MMM0
0222
0000
0333
0MMM
1000
0000
0100
0000
2002
0000
3013
M00M
,
22M2
0000
3303
MM0M
2220
0000
3330
MMM0
0222
0000
0333
0MMM
2202
0000
3303
MM0M
0010
0000
0100
0000
0010
0000
0001
0000
0200
0000
0000
0000
2322
0M00
3033
M0MM
,
0222
0000
0333
0MMM
0222
0000
0333
0MMM
1000
0000
0100
0000
0010
0000
0001
0000
0200
0000
0000
0000
2322
0M00
3033
M0MM
2220
0000
3330
MMM0
2022
0000
3033
M0MM
,
0100
0000
0010
0000
0100
0000
1000
0000
0020
0000
0000
0000
2232
00M0
3303
MM0M
2202
0000
3303
MM0M
0222
0000
0333
0MMM
1000
0000
0100
0000
1000
0000
0100
0000
,
0020
0000
0000
0000
0000
0000
0000
0000
0000
0000
0000
0000
0000
0000
0000
0000
0000
0000
0000
0000
0000
0000
0000
0000
2232
0000
0000
0000
0000
0000
00M0
0000
0000
0000
0000
0000
3303
0000
0000
0000
0000
0000
MM0M
0000
0000
0000
0000
0000
2202
0000
0000
0000
0000
0000
0000
0000
0000
0000
0000
0000
3303
0000
0000
0000
0000
0000
MM0M
0000
0000
0000
0000
0000
2202
0000
0000
0000
0000
0000
0000
0000
0000
0000
0000
0000
3303
0000
0000
0000
0000
0000
MM0M
0000
0000
0000
0000
0000
0011
0000
0000
0000
0000
0000
0000
0000
0000
0000
0000
0000
1100
0000
0000
0000
0000
0000
0000
0000
0000
0000
0000
0000
0011
0000
0000
0000
0000
0000
0000
0000
0000
0000
0000
0000
1100
0000
0000
0000
0000
0000
0000
0000
0000
0000
0000
0000
0011
0000
0000
0000
0000
0000
0000
0000
1100
0000
0000
0000
0000
0000
0000
0000
0011
0000
0000
0000
0000
0000
0000
0000
1100
0000
0000
0000
0000
0000
0000
0000
0011
0000
0000
0000
0000
0000
0000
0000
1100
0000
0000
0000
0000
0000
0000
0000
,
0022
M000
M000
M000
M000
M000
M000
M000
M000
M000
0M00
0000
0M00
0000
0M00
0000
,
0M00
0M00
0M00
0000
0M00
0000
M000
0000
,
0M00
0000
M000
0000
0M00
0000
0000
MM00
,
0000
0000
0000
0000
0000
0000
0000
0000
0000
0000
0000
0000
0000
0000
0000
0000
0000
0000
0000
0000
0000
0000
0000
0000
MM00
0000
0000
0000
0000
0000
0000
0000
0000
0000
0000
0000
0000
0000
0000
0000
0000
0000
0000
0000
0000
0000
0000
0000
0000
0000
0000
0000
0000
0000
0000
0000
0000
0000
0000
0000
0000
0000
0000
0000
0000
0000
0000
0000
0000
0000
0000
0000
MM00
0000
0000
0000
0000
0000
0000
0000
0000
0000
0000
0000
0000
0000
0000
0000
0000
0000
0000
0000
0000
0000
0000
0000
0000
0000
0000
0000
0000
0000
0000
0000
0000
0000
0000
0000
0000
0000
0000
0000
0000
0000
0000
0000
0000
0000
0000
0000
MM00
0000
0000
0000
0000
0000
MM00
0000
0000
0000
0000
0000
MM00
0000
0000
0000
0000
0000
MM00
0000
0000
0000
0000
0000
MM33
0000
0000
0000
0000
0000
MMMM
0000
MMMM
0000
0000
0000
MMMM
0000
0000
0000
0000
0000
MMMM
0000
0000
0000
0000
0000
0000
0000
0000
0000
0000
0000
0000
0000
0000
0000
0000
0000
0000
0000
0000
0000
0000
0000
0000
0000
0000
0000
0000
0000
;
