#TITLE:Almagest;
#SUBTITLE:;
#ARTIST:Galdeira (Tomosuke vs DJ Yoshitaka);
#TITLETRANSLIT:;
#SUBTITLETRANSLIT:;
#ARTISTTRANSLIT:;
#CREDIT:;
#BANNER:almagest-bn.png;
#BACKGROUND:almagest-bg.png;
#LYRICSPATH:;
#CDTITLE:cdtitle.png;
#MUSIC:Almagest.mp3;
#OFFSET:-0.050;
#SAMPLESTART:16.000;
#SAMPLELENGTH:12.000;
#SELECTABLE:YES;
#BPMS:0.000=178.000;
#STOPS:;
#BGCHANGES:;
// cache tags:
#FIRSTBEAT:0.625;
#LASTBEAT:287.500;
#SONGFILENAME:Songs/toune 8/[Patashu] Almagest/almagest.sm;
#HASMUSIC:1;
#HASBANNER:1;
#MUSICLENGTH:100.075;
// end cache tags

//---------------dance-single - why would you play t----------------
#NOTES:
     dance-single:
     why would you play t:
     Challenge:
     16:
     1.000,1.000,1.000,0.709,1.000,1143.000,397.000,71.000,0.000,170.000:
0000
0000
0000
0000
0000
0200
0000
0000
0000
0000
0300
0000
0000
0000
0000
0020
0000
0000
0000
0000
0030
0000
0000
0000
0000
0002
0000
0000
0000
0000
0003
0000
,
0000
0000
0000
2000
0000
0000
0000
0000
3000
0000
0000
0000
0000
0200
0000
0000
0000
0000
0300
0000
0000
0000
0000
0020
0000
0000
0000
0000
0030
0000
0000
0000
,
1011
0100
0010
1000
0101
0010
0100
0001
1010
0100
0010
0001
1010
0100
1000
0001
,
0110
1000
0001
1000
0010
1000
0001
0010
1000
0001
0100
1000
0010
0100
0010
0100
,
1001
0100
0010
1000
0101
0010
0100
0001
1010
0100
0010
0001
1010
0100
1000
0001
,
0110
1000
0001
1000
0010
1000
0001
0010
1000
0001
0100
1000
0010
0001
1000
0100
,
1011
0100
0011
0100
1001
0010
1100
0001
1010
0100
1001
0010
0101
1000
0110
0001
,
1100
0010
0101
1000
0011
1000
0101
0010
1100
0001
0110
1000
0011
0100
1001
0010
,
1100
0011
1100
0011
1100
0011
1100
0011
1001
0110
1001
0110
1001
0110
1001
0110
,
0001
0010
0100
1000
0010
0100
0001
0010
0100
1000
0010
0100
0001
1000
0100
0010
0001
0100
0010
1000
0100
0010
0001
0100
1000
0000
0010
0000
0001
0000
0100
0000
,
1011
0100
0010
0001
1100
0010
1100
0101
1010
0101
0010
1000
0101
1010
0101
1001
,
0110
1001
0110
1001
0011
1100
0011
1000
0111
0111
0000
0111
0000
0111
1000
1000
,
0121
0030
0000
0000
0000
0000
0000
0000
0111
0000
0000
0000
1000
0000
0000
0000
0100
0000
0000
0000
0010
0000
0000
0000
1101
0000
0000
0000
0010
0000
0000
0000
0001
0000
0000
0000
0100
0000
0000
0000
1011
0000
0000
0000
0100
0000
0000
0000
0010
0000
0000
0000
1000
0000
0000
0000
0111
0000
0000
0000
1000
0000
0000
0000
,
0110
0000
1011
0100
0010
1000
0111
1000
0001
0100
1011
0100
0011
1001
1110
0001
,
1100
0000
1101
0010
0100
0010
1101
0010
1000
0100
1011
0100
0001
0100
1011
0100
,
1010
0000
1110
0001
1000
0001
1110
0001
0100
1000
0111
1000
0011
1001
1110
0001
,
1110
0000
0111
1000
0010
0100
1011
0100
0010
0001
1110
0001
0100
1000
0111
1000
,
0101
0000
1101
0010
0001
0100
1011
0100
0010
0001
1110
0001
1100
0110
1011
0100
,
1010
0000
1110
0001
0100
0010
1101
0010
1000
0100
1011
0100
1000
0010
1101
0010
,
1101
0000
0000
0000
1011
0000
0100
0000
0010
0000
0100
0000
1011
0000
0100
0000
0001
0010
0100
1000
0111
0000
1000
0000
0110
0000
1001
0000
0110
0000
1001
0000
,
0121
0030
0000
0000
0000
0000
0000
0000
0110
0000
0000
0000
0001
0000
0000
0000
1110
0000
0000
0000
0001
0000
0000
0000
1010
0000
0000
0000
0100
0000
0000
0000
1001
0000
0000
0000
0010
0000
0000
0000
1100
0000
0000
0000
0010
0000
0000
0000
1101
0000
0000
0000
0010
0000
0000
0000
1100
0000
0000
0000
0001
0000
0000
0000
,
1110
0000
0101
0010
1101
0010
1100
0001
1010
0100
1001
0100
1011
0110
1001
0010
,
1101
0000
0011
0100
1011
0100
1010
0001
1100
0010
1001
0100
1011
0100
1011
0100
,
1001
0000
0000
0000
1101
0000
0010
0000
0001
0000
0100
0000
1011
0000
0100
0000
1010
0000
0101
0000
1001
0000
0110
0000
0001
0010
0100
1000
0001
0100
0010
1000
,
0111
0000
0101
0010
1101
0010
1100
0001
0110
1000
0110
0001
1110
0001
1010
0100
,
1011
0000
1001
0010
1101
0010
0101
1000
0110
0001
1010
0100
1011
0101
1010
0100
,
1011
0000
0000
0000
1010
0000
0001
0000
1010
0000
0100
0000
1001
0000
0010
0000
1101
0000
0010
0000
1000
0100
0010
1000
0101
0000
0010
0000
0001
0100
1000
0010
,
1101
0000
0000
0000
1000
0000
0100
0000
0011
0000
0100
0000
1001
0000
0010
0000
1000
0001
1000
0001
0100
0000
0011
0000
1100
0000
0011
0000
1100
0000
0011
0000
,
2120
0000
0100
0000
0000
0000
3232
0000
0000
0000
0000
0003
1301
0000
0000
0000
,
2022
3033
0000
0000
0100
0000
0000
0000
2012
3003
0000
0000
0100
0000
0000
0000
0011
0000
0000
0000
0100
0000
0000
0000
0001
0000
0000
0000
0110
0000
0000
0000
1001
0000
0000
0000
0010
0000
0000
0000
0001
0000
0000
0000
1100
0000
0000
0000
0011
0000
0100
0000
1000
0000
0010
0000
0100
0000
0000
0000
0001
0000
0000
0000
,
1010
0000
1100
0000
0001
1100
1010
0001
1100
0000
0010
0100
1011
0000
0100
0000
,
2202
3303
0000
0000
0010
0000
0000
0000
2102
3003
0000
0000
0010
0000
0000
0000
1100
0000
0000
0000
0001
0000
0000
0000
0010
0000
0000
0000
0100
0000
0000
0000
1001
0000
0000
0000
0110
0000
0000
0000
1000
0000
0000
0000
0010
0000
0000
0000
1001
0000
0100
0000
0010
0000
1000
0000
0200
0000
0000
0000
0310
0000
0000
0000
,
0101
0000
0000
0000
0010
0000
0000
0000
1001
0000
0000
0100
0010
0000
0000
0000
0010
0000
0001
0000
1010
0000
0100
0000
0011
0000
1000
0000
0011
0000
1000
0000
,
0222
0333
0000
0000
1000
0000
0000
0000
0212
0303
0000
0000
1000
0000
0000
0000
0101
0000
0000
0000
0010
0000
0000
0000
1000
0000
0000
0000
0101
0000
0000
0000
1010
0000
0000
0000
0100
0000
0000
0000
0010
0000
0000
0000
1100
0000
0000
0000
0011
0000
1000
0000
0100
0000
0001
0000
0010
0000
0000
0000
0100
0000
0000
0000
,
1010
0000
0100
0000
1011
0000
0100
0000
0011
0100
1000
0010
0100
0001
0010
0100
2000
0000
0000
0000
3101
0000
0100
0000
0011
0000
1000
0000
0100
0010
0001
1000
,
0120
0030
0000
0000
0000
0000
0000
0000
0100
0000
0000
0000
0000
0000
0000
0000
1001
0000
0000
0000
0000
0000
0000
0000
0110
0000
0000
0000
0000
0000
0000
0000
0010
0000
0000
0000
0101
0000
0000
0000
1000
0000
0000
0000
0000
0000
0000
0000
0011
0000
0000
0000
0100
0000
0000
0000
2010
0000
0000
0000
3100
0000
0000
0000
,
0002
0000
0000
0000
0000
0000
0000
0000
0000
0000
0000
0000
0000
0000
0000
0000
0000
0000
0000
0000
0000
0000
0000
0000
0000
0000
0000
0000
0000
0000
0000
0000
0000
0000
0000
0000
2003
0000
0000
0000
0000
0000
0000
0000
0000
0000
0000
0000
0000
0000
0000
0000
0000
0000
0000
0000
0000
0000
0000
0000
0000
0000
0000
0000
0000
0000
0000
0000
0000
0000
0000
0000
3100
0000
0000
0000
0000
0000
0010
0000
0000
0000
0000
0000
0001
0000
0000
0000
0000
0000
1000
0000
0000
0000
0000
0000
0001
0000
0000
0000
0000
0000
0010
0000
0000
0000
0000
0000
0100
0000
0000
0000
1000
0000
0000
0000
0010
0000
0000
0000
0002
0000
0000
0000
0000
0000
0000
0000
0000
0000
0000
0000
0000
0000
0000
0000
0000
0000
0000
0000
0000
0000
0000
0000
1103
0000
0000
0000
0000
0000
0000
0000
0000
0000
0000
0000
0000
0000
0000
0000
0000
0000
0000
0000
0000
0000
0000
0000
0000
0000
0000
0000
0000
0000
0000
0000
0000
0000
0000
0000
0000
0000
0000
0000
0000
0000
0000
0000
0000
0000
0000
0000
,
2212
3303
0000
0000
0000
0000
0000
0000
2112
3003
0000
0000
0000
0000
0000
0000
1101
0000
0000
0000
0010
0000
0000
0000
0001
0000
0000
0000
0110
0000
0000
0000
1001
0000
0000
0000
0100
0000
0000
0000
0010
0000
0000
0000
1100
0000
0000
0000
0011
0000
1000
0000
0010
0000
0100
0000
0001
0000
0000
0000
1000
0000
0000
0000
,
0101
0010
1000
0010
1001
0110
1001
0101
1010
0100
1001
0110
1101
0010
0100
1000
,
2122
3033
0000
0000
0000
0000
0000
0000
2112
3003
0000
0000
0000
0000
0000
0000
1101
0000
0000
0000
0010
0000
0000
0000
0100
0000
0000
0000
1000
0000
0000
0000
0110
0000
0000
0000
1001
0000
0000
0000
0100
0000
0000
0000
0010
0000
0000
0000
1001
0000
0010
0000
0100
0000
1000
0000
0020
0000
0000
0000
0031
0000
0000
0000
,
1010
0100
0001
1000
0011
0100
1001
0010
1001
0110
1001
1010
0101
0010
0101
1000
,
2212
3303
0000
0000
0000
0000
0000
0000
2112
3003
0000
0000
0000
0000
0000
0000
1011
0000
0000
0000
0100
0000
0000
0000
0010
0000
0000
0000
1100
0000
0000
0000
0011
0000
0000
0000
0100
0000
0000
0000
0010
0000
0000
0000
1001
0000
0000
0000
0110
0000
0001
0000
1000
0000
0010
0000
0100
0000
0000
0000
0001
0000
0000
0000
,
1110
0001
0000
0100
1011
0100
1000
0011
1100
0010
0100
0001
1110
0001
0100
1000
,
0121
0030
0000
0000
1000
0000
0000
0000
0001
0000
0000
0000
1000
0000
0000
0000
0101
0000
0000
0000
1010
0000
0000
0000
0011
0000
0000
0000
1100
0000
0000
0000
0111
0000
0000
0000
1000
0000
0000
0000
0100
0000
0000
0000
0010
0000
0000
0000
0001
0010
0100
1000
0001
0000
0000
0000
0020
0000
0000
0000
0130
0000
0000
0000
,
1000
0000
0000
0000
0000
0000
0000
0000
0010
0000
0000
0000
0000
0000
0000
0000
1000
0000
0000
0000
0000
0000
0000
0000
0001
0000
0000
0000
0000
0000
0000
0000
0010
0000
0000
0000
0000
0000
0000
0000
0100
0000
0000
0000
0000
0000
0000
0000
1000
0000
0000
0000
0000
0000
0010
0000
0000
0000
0000
0000
0100
0000
0000
0000
0000
0000
0001
0000
0000
0000
0000
0000
0100
0000
0000
0000
0000
0000
1000
0000
0000
0000
0000
0000
0010
0000
0000
0000
0000
0000
0001
0000
0000
0000
0000
0000
0110
0000
0000
0000
0000
0000
0000
0000
0000
0000
0000
0000
1100
0000
0000
0000
0000
0000
0000
0000
0000
0000
0000
0000
0010
0000
0000
0000
0000
0000
0000
0000
0000
0000
0000
0000
0101
0000
0000
0000
0000
0000
0000
0000
0000
0000
0000
0000
1001
0000
0000
0000
0000
0000
0000
0000
0000
0000
0000
0000
0010
0000
0000
0000
0000
0000
0000
0000
0000
0000
0000
0000
0001
0000
0000
0000
0000
0000
0010
0000
0000
0000
0000
0000
0100
0000
0000
0000
0000
0000
1000
0000
0000
0000
0000
0000
,
0111
0000
1000
0000
0011
0000
0100
0000
1010
0000
0100
0000
1010
0000
0100
0000
0001
0010
0100
1000
0100
0010
0001
1000
0100
0000
1000
0000
0100
0000
1000
0000
,
0001
0000
0000
0000
0000
0000
0000
0000
0000
0000
0000
0000
0010
0000
0000
0000
0000
0000
0000
0000
0000
0000
0000
0000
0100
0000
0000
0000
0000
0000
0000
0000
0000
0000
0000
0000
1000
0000
0000
0000
0000
0000
0000
0000
0000
0000
0000
0000
0011
0000
0000
0000
0000
0000
0000
0000
0000
0000
0000
0000
0110
0000
0000
0000
0000
0000
0000
0000
0000
0000
0000
0000
1001
0000
0000
0000
0000
0000
0000
0000
0000
0000
0000
0000
0100
0000
0000
0000
0000
0000
0000
0000
0000
0000
0000
0000
0001
0000
0000
0000
0000
0000
1000
0000
0000
0000
0000
0000
0001
0000
0000
0000
0000
0000
1000
0000
0000
0000
0000
0000
0010
0000
0000
0000
0000
0000
0000
0000
0100
0000
0000
0000
0001
0000
0000
0000
1000
0000
0000
0000
0000
0000
0000
0000
0011
0000
0000
0000
0000
0000
0000
0000
0100
0000
0000
0000
0000
0000
0000
0000
0010
0000
0000
0000
0000
0000
0000
0000
1100
0000
0000
0000
0000
0000
0000
0000
0001
0000
0000
0000
0100
0000
0000
0000
0010
0000
0000
0000
0000
0000
0000
0000
,
2100
0010
0001
0100
0011
0100
0010
0001
0100
0010
0100
0001
0110
0001
0100
0010
,
3201
0010
1000
0010
1001
0010
1000
0010
0001
1000
0010
0001
1010
0001
1000
0010
,
1302
0010
1000
0100
1010
0100
0010
1000
0010
0100
1000
0010
1100
0010
0100
1000
,
0123
1000
0001
0100
1001
0100
1000
0001
1230
0001
1000
0010
1001
0010
1001
0310
,
2101
0000
0010
0000
0001
0000
0100
0000
0011
0000
0100
0000
0001
0000
0110
0000
0001
0000
0010
0000
0100
0000
0011
0000
0110
0000
0001
0000
0010
0100
0001
0100
,
3012
1000
0010
0100
1010
0100
1000
0110
1000
0010
0100
1000
0110
1000
0010
1000
,
0123
1000
0001
1000
0101
1000
0100
0001
1000
0001
0100
1000
0101
1000
0101
1030
,
0211
0000
1000
0000
0011
0000
1000
0000
0010
0000
0001
0000
1010
0000
0001
0000
1000
0010
0001
1000
0011
0000
1000
0000
0010
0000
0001
0000
1010
0000
0301
0000
,
1210
0001
1000
0010
1001
0010
1000
0001
1010
0001
1000
0010
1001
0010
0001
1300
,
0121
1000
0100
1000
0101
1000
0001
0100
1001
0100
1000
0000
0101
1000
0001
0130
,
1012
0100
1000
0010
1100
0010
1000
0100
1010
0100
0010
1000
0110
1000
0110
1000
,
0123
0000
0001
0000
1100
0000
0001
0000
0100
0000
1000
0000
0101
0000
1030
0000
0211
0000
1000
0000
0011
0000
1000
0000
0001
0010
1000
0001
0010
1000
0301
0010
,
2101
0010
0100
0010
0101
0010
0100
0011
0110
0001
0100
0011
0110
0001
0100
3010
,
1102
0010
1000
0100
1010
0100
1000
0110
1100
0010
1000
0010
1100
0010
1100
0013
,
1201
0000
0010
0000
1001
0000
0010
0000
1001
0000
0010
0000
1001
0000
0010
0000
1001
0000
0010
0000
0001
0010
1000
0001
0010
0000
0001
0000
1000
0010
0301
0010
,
2100
0000
0000
0000
0000
0000
0000
0000
0000
0000
0000
0000
0010
0000
0000
0000
0000
0000
0000
0000
0000
0000
0000
0000
0001
0000
0000
0000
0000
0000
0000
0000
0000
0000
0000
0000
0100
0000
0000
0000
0000
0000
0000
0000
0000
0000
0000
0000
0011
0000
0000
0000
0000
0000
0000
0000
0000
0000
0000
0000
0100
0000
0000
0000
0000
0000
0000
0000
0000
0000
0000
0000
0011
0000
0000
0000
0000
0000
0000
0000
0000
0000
0000
0000
0100
0000
0000
0000
0000
0000
0000
0000
0000
0000
0000
0000
0001
0000
0000
0000
0000
0000
0010
0000
0000
0000
0000
0000
0100
0000
0000
0000
0000
0000
0010
0000
0000
0000
0000
0000
0001
0000
0000
0000
0000
0000
0000
0000
0010
0000
0000
0000
0000
0000
0000
0000
0100
0000
0000
0000
0000
0000
0000
0000
0001
0000
0000
0000
0000
0000
0000
0000
0010
0000
0000
0000
0000
0000
0000
0000
0001
0000
0000
0000
0000
0000
0000
0000
0100
0000
0000
0000
0000
0000
0000
0000
0010
0000
0000
0000
3000
0000
0000
0000
0100
0000
0000
0000
0000
0000
0000
0000
,
1011
0000
1000
0110
0001
0010
0100
1000
0010
0001
0010
1000
0110
0001
0010
0100
,
1000
0110
0000
1000
0111
1000
0001
0010
1000
0101
0010
0100
1011
0100
1000
0001
,
1110
0000
1000
0110
1101
0010
0100
1000
0010
0001
0100
1000
0101
0010
0100
1000
,
0100
0011
0000
0100
1011
0100
0010
1000
0100
0011
0100
1000
0101
0010
0100
0001
,
2100
3010
1100
0011
0100
1000
0010
0100
0010
1000
0001
0010
1100
0001
0010
0100
,
1000
0100
1010
0101
1011
0110
1000
0001
1000
0110
1001
0110
1011
1100
0011
1100
,
0010
0100
1000
0110
1001
0010
0100
1000
0100
0001
0010
1000
0101
0010
0100
1000
,
0010
0100
1010
0101
1011
0110
1000
0010
0000
0101
1010
1100
0111
1001
0110
0001
,
1100
0010
0001
0000
0100
0010
0001
0000
0100
0010
0001
0000
0100
0010
0001
0000
;

//---------------dance-single - Patashu 16th Nov 200----------------
#NOTES:
     dance-single:
     Patashu 16th Nov 200:
     Hard:
     14:
     1.000,1.000,1.000,0.709,1.000,1115.000,370.000,71.000,0.000,105.000:
0000
0000
0000
0000
0000
0200
0000
0000
0000
0000
0300
0000
0000
0000
0000
0020
0000
0000
0000
0000
0030
0000
0000
0000
0000
0002
0000
0000
0000
0000
0003
0000
,
0000
0000
0000
2000
0000
0000
0000
0000
3000
0000
0000
0000
0000
0200
0000
0000
0000
0000
0300
0000
0000
0000
0000
0020
0000
0000
0000
0000
0030
0000
0000
0000
,
1011
0100
0010
1000
0101
0010
0100
0001
1010
0100
0010
0001
1010
0100
1000
0001
,
0110
1000
0001
1000
0010
1000
0001
0010
1000
0001
0100
1000
0010
0100
0010
0100
,
1001
0100
0010
1000
0101
0010
0100
0001
1010
0100
0010
0001
1010
0100
1000
0001
,
0110
1000
0001
1000
0010
1000
0001
0010
1000
0001
0100
1000
0010
0001
0100
0010
,
1001
0100
0011
0100
1001
0010
1100
0001
1010
0100
1001
0010
0101
1000
0110
0001
,
1100
0010
0101
1000
0011
1000
0101
0010
1100
0001
0110
1000
0011
0100
1001
0010
,
1100
0011
1100
0011
1100
0011
1100
0011
1100
0011
1100
0011
1100
0011
1100
0011
,
1000
0100
0010
0001
1000
0100
0010
0001
1000
0100
0010
0001
1000
0001
0010
0100
1000
0001
0010
0100
1000
0001
0010
0100
1000
0000
0010
0000
0001
0000
0100
0000
,
1011
0100
0010
0001
1100
0010
1100
0001
1010
0101
0010
1000
0101
0010
0101
1000
,
0110
0001
0110
1000
0011
1100
0011
1000
0111
0111
0000
0111
0000
0111
1000
0100
,
1021
0030
0000
0000
0000
0000
0000
0000
0111
0000
0000
0000
1000
0000
0000
0000
0100
0000
0000
0000
0010
0000
0000
0000
1101
0000
0000
0000
0010
0000
0000
0000
0001
0000
0000
0000
0100
0000
0000
0000
1011
0000
0000
0000
0100
0000
0000
0000
0010
0000
0000
0000
1000
0000
0000
0000
0111
0000
0000
0000
1000
0000
0000
0000
,
0010
0000
1011
0100
0010
1000
0111
1000
0001
0100
1011
0100
0011
1100
0011
0100
,
1000
0000
1101
0010
0100
0010
1101
0010
1000
0100
1011
0100
0001
0100
1011
0100
,
1000
0000
1110
0001
1000
0001
1110
0001
0100
1000
0111
1000
0110
1001
0110
0001
,
1110
0000
0111
1000
0010
0100
1011
0100
0010
0001
1110
0001
0100
1000
0111
1000
,
0010
0000
1101
0010
0001
0100
1011
0100
0010
0001
1110
0001
1100
0011
1100
0010
,
0001
0000
1110
0001
0100
0010
1101
0010
1000
0100
1011
0100
1000
0010
1101
0010
,
1101
0000
0000
0000
1011
0000
0100
0000
0010
0000
0100
0000
1011
0000
0100
0000
0001
0010
0100
1000
0011
0000
1000
0000
0110
0000
0001
0000
0110
0000
1001
0000
,
0120
0030
0000
0000
0000
0000
0000
0000
0110
0000
0000
0000
0001
0000
0000
0000
1100
0000
0000
0000
0001
0000
0000
0000
1010
0000
0000
0000
0100
0000
0000
0000
1001
0000
0000
0000
0010
0000
0000
0000
1100
0000
0000
0000
0010
0000
0000
0000
0101
0000
0000
0000
0010
0000
0000
0000
1100
0000
0000
0000
0001
0000
0000
0000
,
1010
0000
0101
0010
1100
0010
1100
0001
1010
0100
1001
0100
1001
0110
1001
0010
,
1100
0000
0011
0100
1001
0010
1100
0001
1100
0010
1001
0100
0011
0100
1011
0100
,
1000
0000
0000
0000
1101
0000
0010
0000
0001
0000
0100
0000
1011
0000
0100
0000
1010
0000
0101
0000
1010
0000
0100
0000
0001
0010
0100
1000
0001
0000
1000
0000
,
0111
0000
0101
0010
1100
0010
1100
0001
0110
1000
0110
0001
1100
0001
1010
0100
,
1011
0000
1001
0010
1100
0010
0101
1000
0110
0001
1010
0100
1010
0101
1010
0100
,
1011
0000
0000
0000
1010
0000
0001
0000
1010
0000
0100
0000
1001
0000
0010
0000
1101
0000
0010
0000
1000
0100
0010
0001
1000
0000
0100
0000
0001
0010
0100
1000
,
0011
0000
0000
0000
1000
0000
0100
0000
0011
0000
0100
0000
1001
0000
0010
0000
1000
0100
0010
0001
1000
0000
0011
0000
1100
0000
0001
0000
1100
0000
0001
0000
,
2120
0000
0100
0000
0000
0000
3232
0000
0000
0000
0000
0003
1301
0000
0000
0000
,
2022
3033
0000
0000
0100
0000
0000
0000
2012
3003
0000
0000
0100
0000
0000
0000
0011
0000
0000
0000
0100
0000
0000
0000
0001
0000
0000
0000
0110
0000
0000
0000
1001
0000
0000
0000
0010
0000
0000
0000
0001
0000
0000
0000
1100
0000
0000
0000
0011
0000
0000
0000
1000
0000
0000
0000
0100
0000
0000
0000
0001
0000
0000
0000
,
1010
0000
1100
0000
0001
1100
0010
0001
1100
0000
0010
0100
1011
0000
0100
0000
,
2202
3303
0000
0000
0010
0000
0000
0000
2102
3003
0000
0000
0010
0000
0000
0000
1100
0000
0000
0000
0001
0000
0000
0000
0010
0000
0000
0000
0100
0000
0000
0000
1001
0000
0000
0000
0110
0000
0000
0000
1000
0000
0000
0000
0010
0000
0000
0000
1001
0000
0000
0000
0010
0000
0000
0000
2000
0000
0000
0000
3010
0000
0000
0000
,
0101
0000
0000
0000
0010
0000
0000
0000
1001
0000
0000
0100
0010
0000
0000
0000
0010
0000
0001
0000
1010
0000
0100
0000
0011
0000
1000
0000
0011
0000
1000
0000
,
0222
0333
0000
0000
1000
0000
0000
0000
0212
0303
0000
0000
1000
0000
0000
0000
0101
0000
0000
0000
0010
0000
0000
0000
1000
0000
0000
0000
0101
0000
0000
0000
1010
0000
0000
0000
0100
0000
0000
0000
0010
0000
0000
0000
1100
0000
0000
0000
0011
0000
0000
0000
1000
0000
0000
0000
0001
0000
0000
0000
0100
0000
0000
0000
,
1010
0000
0100
0000
0011
0000
0100
0000
1000
0100
0010
0001
1000
0100
0010
0001
2000
0000
0000
0000
3101
0000
0100
0000
0011
0000
1000
0000
0100
0010
0001
1000
,
0120
0030
0000
0000
0000
0000
0000
0000
0100
0000
0000
0000
0000
0000
0000
0000
1001
0000
0000
0000
0000
0000
0000
0000
0110
0000
0000
0000
0000
0000
0000
0000
0010
0000
0000
0000
0101
0000
0000
0000
1000
0000
0000
0000
0000
0000
0000
0000
0011
0000
0000
0000
0100
0000
0000
0000
2010
0000
0000
0000
3100
0000
0000
0000
,
0002
0000
0000
0000
0000
0000
2003
0000
0000
0000
0000
0000
3100
0010
0001
1000
0001
0010
0100
1000
0002
0000
0000
0000
1103
0000
0000
0000
0000
0000
0000
0000
,
2212
3303
0000
0000
0000
0000
0000
0000
2112
3003
0000
0000
0000
0000
0000
0000
1101
0000
0000
0000
0010
0000
0000
0000
0001
0000
0000
0000
0110
0000
0000
0000
1001
0000
0000
0000
0100
0000
0000
0000
0010
0000
0000
0000
1100
0000
0000
0000
0011
0000
0000
0000
0100
0000
0000
0000
0001
0000
0000
0000
1000
0000
0000
0000
,
0101
0010
1000
0010
1001
0110
1001
0100
1010
0100
1001
0010
1101
0010
0100
0000
,
2122
3033
0000
0000
0000
0000
0000
0000
2112
3003
0000
0000
0000
0000
0000
0000
1101
0000
0000
0000
0010
0000
0000
0000
0100
0000
0000
0000
1000
0000
0000
0000
0110
0000
0000
0000
1001
0000
0000
0000
0100
0000
0000
0000
0010
0000
0000
0000
1001
0000
0000
0000
0100
0000
0000
0000
0020
0000
0000
0000
0031
0000
0000
0000
,
1010
0100
0001
1000
0011
0100
1001
0010
1001
0110
1001
0010
0101
0010
0101
0000
,
2212
3303
0000
0000
0000
0000
0000
0000
2112
3003
0000
0000
0000
0000
0000
0000
1011
0000
0000
0000
0100
0000
0000
0000
0010
0000
0000
0000
1100
0000
0000
0000
0011
0000
0000
0000
0100
0000
0000
0000
0010
0000
0000
0000
1001
0000
0000
0000
0110
0000
0000
0000
1000
0000
0000
0000
0010
0000
0000
0000
0001
0000
0000
0000
,
1110
0001
0000
0100
1011
0100
1000
0011
1100
0010
0100
0001
1110
0001
0100
1000
,
0121
0030
0000
0000
1000
0000
0000
0000
0001
0000
0000
0000
1000
0000
0000
0000
0100
0000
0000
0000
0010
0000
0000
0000
0001
0000
0000
0000
1000
0000
0000
0000
0111
0000
0000
0000
1000
0000
0000
0000
0100
0000
0000
0000
0010
0000
0000
0000
0001
0000
0010
0000
0100
0000
0000
0000
0020
0000
0000
0000
0130
0000
0000
0000
,
1000
0000
0000
0000
0000
0000
0000
0000
0010
0000
0000
0000
0000
0000
0000
0000
1000
0000
0000
0000
0000
0000
0000
0000
0001
0000
0000
0000
0000
0000
0000
0000
0010
0000
0000
0000
0000
0000
0000
0000
0100
0000
0000
0000
0000
0000
0000
0000
1000
0000
0000
0000
0000
0000
0000
0000
0001
0000
0000
0000
0000
0000
0000
0000
1000
0000
0000
0000
0000
0000
0000
0000
0001
0000
0000
0000
0000
0000
0000
0000
0010
0000
0000
0000
0000
0000
0000
0000
1000
0000
0000
0000
0000
0000
0000
0000
0110
0000
0000
0000
0000
0000
0000
0000
0000
0000
0000
0000
1001
0000
0000
0000
0000
0000
0000
0000
0000
0000
0000
0000
0010
0000
0000
0000
0000
0000
0000
0000
0000
0000
0000
0000
1100
0000
0000
0000
0000
0000
0000
0000
0000
0000
0000
0000
0011
0000
0000
0000
0000
0000
0000
0000
0000
0000
0000
0000
0100
0000
0000
0000
0000
0000
0000
0000
0000
0000
0000
0000
0001
0000
0000
0000
0000
0000
0010
0000
0000
0000
0000
0000
0100
0000
0000
0000
0000
0000
1000
0000
0000
0000
0000
0000
,
0011
0000
0100
0000
1010
0000
0100
0000
1010
0000
0100
0000
1010
0000
0100
0000
0010
0100
0001
0010
0100
1000
0001
0010
0100
0000
1000
0000
0100
0000
1000
0000
,
0001
0000
0000
0010
0000
0000
0100
0000
0000
1000
0000
0000
0011
0000
0000
1100
0000
0000
0011
0000
0000
0100
0000
0000
0001
0000
0010
0000
0100
0000
1000
0000
0010
0000
0100
0000
0001
0000
1000
0000
0100
0000
0010
0000
0001
0000
0010
0000
,
2100
0010
0001
0100
3011
0100
0010
0001
1000
0100
0010
0001
0110
0001
1000
0010
,
0201
0010
1000
0010
1301
0010
0100
1000
0010
1000
0100
0001
0110
1000
0010
0100
,
1002
0010
1000
0100
1013
0100
0010
0100
0001
0010
0100
1000
0101
0010
0100
1000
,
0120
1000
0001
0100
1031
0100
0010
0001
1200
0001
1000
0010
1301
0010
1100
0010
,
2101
0000
0000
0010
0000
0000
0001
0000
0000
0100
0000
0000
3011
0000
0000
0100
0000
0000
0001
0000
0000
0110
0000
0000
1000
0000
0000
0100
0000
0000
0010
0000
0000
1001
0000
0000
0110
0000
0000
0001
0000
0000
0010
0000
0100
0000
1000
0000
,
0012
1000
0010
0100
1013
0100
1000
0110
0001
0100
0010
1000
0011
0100
0010
0001
,
0120
1000
0001
1000
0131
1000
0100
0010
0001
0010
0100
1000
0011
0100
0011
1000
,
0211
0000
1000
0000
0011
0000
1000
0000
0310
0000
0001
0000
1010
0000
0100
0000
0001
0010
0100
1000
0011
0000
1000
0000
0010
0000
0100
0000
1010
0000
0001
0000
,
1210
0001
1000
0001
1310
0001
1000
0010
1100
0001
1000
0010
0101
0010
0100
1000
,
0121
1000
0001
1000
0131
1000
0001
0100
1001
0010
0100
0000
0101
1000
0010
0100
,
1012
0100
1000
0010
1103
0010
1000
0100
0011
0100
1000
0001
0110
1000
0101
1000
,
0120
0000
0001
0000
1100
0000
0001
0000
0130
0000
1000
0000
0101
0000
1000
0000
0211
0000
1000
0000
0011
0000
1000
0000
0301
0010
0100
1000
0001
0000
0010
0000
,
2101
0010
0100
0010
3101
0010
0100
1001
0110
0001
0100
1001
0110
0001
0100
0010
,
1102
0010
1000
0100
1013
0100
1000
0011
1100
0010
1000
0001
1100
0010
1001
0010
,
1201
0000
0010
0000
1001
0000
0010
0000
1301
0000
0010
0000
1001
0000
0100
0000
1001
0000
0100
0000
0001
0010
0100
1000
0010
0000
0001
0000
1000
0100
0001
0010
,
2100
0000
0000
0010
0000
0000
0001
0000
0000
0100
0000
0000
3011
0000
0000
0100
0000
0000
1001
0000
0000
0100
0000
0000
0001
0000
0010
0000
0100
0000
1000
0000
0001
0000
0010
0000
0100
0000
1000
0000
0001
0000
0010
0000
0100
0000
1000
0000
,
0111
0000
1000
0110
0001
0010
0100
1000
0010
0001
0010
1000
0110
0001
0010
0100
,
1000
0110
0000
1000
0111
1000
0001
0010
1000
0101
0010
0100
1011
0100
1000
0001
,
1110
0000
1000
0110
1101
0010
0100
1000
0010
0001
0100
1000
0101
0010
0100
1000
,
0100
0011
0000
0100
1011
0100
0010
1000
0100
0011
0100
1000
0101
0010
0100
0001
,
2100
3010
1100
0011
0100
1000
0010
0100
0010
1000
0001
0010
1100
0001
0010
0100
,
1000
0100
1010
0101
0011
1100
0010
0001
1000
0110
1001
0110
0011
1100
0011
1100
,
0010
0100
1000
0110
1001
0010
0100
1000
0100
0001
0010
1000
0101
0010
0100
1000
,
0010
0100
1010
0101
1001
0110
1000
0010
0000
0101
1010
1001
0110
1001
0110
0001
,
1100
0010
0001
0000
0100
0010
0001
0000
0100
0010
0001
0000
0100
0010
0001
0000
;

//---------------dance-single - Patashu 16th Nov 200----------------
#NOTES:
     dance-single:
     Patashu 16th Nov 200:
     Medium:
     12:
     1.000,1.000,1.000,0.709,1.000,1056.000,286.000,71.000,0.000,57.000:
0000
0000
0000
0000
0000
0200
0000
0000
0000
0000
0300
0000
0000
0000
0000
0020
0000
0000
0000
0000
0030
0000
0000
0000
0000
0002
0000
0000
0000
0000
0003
0000
,
0000
0000
0000
2000
0000
0000
0000
0000
3000
0000
0000
0000
0000
0200
0000
0000
0000
0000
0300
0000
0000
0000
0000
0020
0000
0000
0000
0000
0030
0000
0000
0000
,
1011
0100
0010
1000
0001
0010
0100
0001
1000
0100
0010
0001
0010
0100
1000
0001
,
0100
1000
0001
1000
0010
1000
0001
0010
1000
0001
0100
1000
0010
0100
0010
0100
,
1000
0100
0010
1000
0001
0010
0100
0001
1000
0100
0010
0001
0010
0100
1000
0001
,
0100
1000
0001
1000
0010
1000
0001
0010
1000
0001
0100
1000
0010
0001
0100
0010
,
1100
0001
1100
0001
1100
0010
1100
0010
1100
0001
1100
0010
1100
0001
1100
0001
,
1100
0010
1100
0010
1100
0001
1100
0010
1100
0001
1100
0001
1100
0010
1100
0001
,
1100
0011
1100
0011
1100
0011
1100
0011
1100
0011
1100
0011
1100
0011
1100
0011
,
1100
0001
0010
0100
1000
0100
0011
0100
1000
0001
0100
0010
1100
0010
0001
0100
,
1001
0100
0010
0001
1100
0010
1001
0010
1100
0011
0100
1000
0100
0010
0100
0010
,
0001
0100
0001
0100
0010
1000
0010
1000
0101
0101
0000
0101
0000
0101
0000
0000
,
1021
0030
0000
0000
0000
0000
0000
0000
0110
0000
0000
0000
1000
0000
0000
0000
0100
0000
0000
0000
0010
0000
0000
0000
0101
0000
0000
0000
0010
0000
0000
0000
0001
0000
0000
0000
0100
0000
0000
0000
1010
0000
0000
0000
0100
0000
0000
0000
0010
0000
0000
0000
1000
0000
0000
0000
0101
0000
0000
0000
1000
0000
0000
0000
,
0010
0000
0011
0100
0010
1000
0110
1000
0001
0100
1010
0100
0001
1000
0011
0100
,
1000
0000
1001
0010
0100
0010
0101
0010
1000
0100
0011
1000
0001
0100
1010
0100
,
1000
0000
0110
0001
1000
0010
1100
0001
0100
1000
0011
0100
0010
1000
0110
0001
,
1110
0000
0011
1000
0010
0100
1001
0100
0010
0001
1100
0010
0100
1000
0011
0100
,
0010
0000
0101
0010
0001
0010
1100
0010
0100
0001
0110
1000
0100
0001
1100
0010
,
0001
0000
0110
0001
0100
0010
1001
0010
1000
0100
0011
1000
0100
0010
1001
0010
,
1101
0000
1011
0100
0010
0100
1011
0100
0001
1000
0111
1000
0010
0100
1011
0100
,
1021
0030
0000
0000
0000
0000
0000
0000
0110
0000
0000
0000
0001
0000
0000
0000
0100
0000
0000
0000
0001
0000
0000
0000
1010
0000
0000
0000
0100
0000
0000
0000
0001
0000
0000
0000
0010
0000
0000
0000
1100
0000
0000
0000
0010
0000
0000
0000
0001
0000
0000
0000
0010
0000
0000
0000
1100
0000
0000
0000
0001
0000
0000
0000
,
1000
0000
0101
0010
1000
0010
1100
0001
0010
0100
1001
0100
0010
0100
1001
0010
,
0100
0000
0011
0100
1000
0010
1100
0001
0100
0010
1001
0100
0010
0100
1011
0100
,
1000
0000
0000
0000
0000
0000
1101
0000
0000
0010
0000
0000
0001
0000
0000
0100
0000
0000
1011
0000
0000
0100
0000
0000
1000
0000
0000
0001
0000
0000
1000
0000
0000
0001
0000
0000
0100
0000
0010
0000
0100
0000
0010
0000
0000
1000
0000
0000
,
0111
0000
0101
0010
1000
0010
1100
0001
0010
1000
0110
0001
0100
0001
1010
0100
,
1011
0000
1001
0010
0100
0010
0101
1000
0010
0001
1100
0010
1000
0001
1010
0100
,
1011
0000
0000
0000
0000
0000
1010
0000
0000
0001
0000
0000
1010
0000
0000
0100
0000
0000
1001
0000
0000
0010
0000
0000
1101
0000
0000
0010
0000
0000
1000
0000
0001
0000
1000
0000
0010
0000
0000
0100
0000
0000
0001
0000
1000
0000
0100
0000
,
0011
0000
0000
0000
0000
0000
1000
0000
0000
0100
0000
0000
0011
0000
0000
0100
0000
0000
1000
0000
0000
0100
0000
0000
0001
0000
0010
0000
0100
0000
1000
0000
0000
0001
0000
0000
1000
0000
0000
0001
0000
0000
1000
0000
0000
0001
0000
0000
,
2120
0000
0100
0000
0000
0000
3232
0000
0000
0000
0000
0003
1301
0000
0000
0000
,
2022
3033
0000
0000
0000
0000
0000
0000
2012
3003
0000
0000
0000
0000
0000
0000
0011
0000
0000
0000
0000
0000
0000
0000
0001
0000
0000
0000
0100
0000
0000
0000
0010
0000
0000
0000
0000
0000
0000
0000
0100
0000
0000
0000
1000
0000
0000
0000
0011
0000
0000
0000
0000
0000
0000
0000
0100
0000
0000
0000
0000
0000
0000
0000
,
1010
0000
1100
0000
0001
1100
0010
0001
1100
0000
0010
0100
1011
0000
0100
0000
,
2202
3303
0000
0000
0000
0000
0000
0000
2102
3003
0000
0000
0000
0000
0000
0000
1100
0000
0000
0000
0000
0000
0000
0000
0010
0000
0000
0000
0000
0000
0000
0000
1000
0000
0000
0000
0100
0000
0000
0000
0010
0000
0000
0000
0000
0000
0000
0000
1001
0000
0000
0000
0000
0000
0000
0000
1020
0000
0000
0000
0030
0000
0000
0000
,
0101
0000
0010
0000
1001
0000
0010
0000
0010
0001
1010
0100
0011
0000
0011
0000
,
0222
0333
0000
0000
0000
0000
0000
0000
0212
0303
0000
0000
0000
0000
0000
0000
0101
0000
0000
0000
0000
0000
0000
0000
1000
0000
0000
0000
0001
0000
0000
0000
0100
0000
0000
0000
0000
0000
0000
0000
0010
0000
0000
0000
0100
0000
0000
0000
0011
0000
0000
0000
0000
0000
0000
0000
0100
0000
0000
0000
0000
0000
0000
0000
,
1010
0000
0000
0100
0000
0000
0011
0000
0000
0100
0000
0000
1000
0000
0100
0000
0010
0000
0001
0000
0010
0000
0100
0000
2000
0000
0000
0000
0000
0000
3100
0000
0000
0100
0000
0000
0011
0000
0000
1000
0000
0000
0001
0000
1000
0000
0001
0000
,
0120
0030
0000
0000
0000
0000
0000
0000
0100
0000
0000
0000
0000
0000
0000
0000
1001
0000
0000
0000
0000
0000
0000
0000
0110
0000
0000
0000
0000
0000
0000
0000
0010
0000
0000
0000
0100
0000
0000
0000
1000
0000
0000
0000
0000
0000
0000
0000
0011
0000
0000
0000
0100
0000
0000
0000
2010
0000
0000
0000
3100
0000
0000
0000
,
0002
0000
0000
0000
0000
0000
0000
0000
0000
2003
0000
0000
0000
0000
0000
0000
0000
0000
3100
0000
0010
0000
0001
0000
1000
0000
0100
0000
0010
0000
0002
0000
0000
0000
0000
0000
1103
0000
0000
0000
0000
0000
0000
0000
0000
0000
0000
0000
,
2202
3303
0000
0000
0000
0000
0000
0000
2102
3003
0000
0000
0000
0000
0000
0000
1001
0000
0000
0000
0010
0000
0000
0000
1000
0000
0000
0000
0110
0000
0000
0000
0001
0000
0000
0000
0100
0000
0000
0000
0010
0000
0000
0000
1001
0000
0000
0000
0000
0000
0000
0000
0100
0000
0000
0000
0010
0000
0000
0000
1000
0000
0000
0000
,
0101
0010
0000
0100
1001
0100
1010
0001
0010
0100
1001
0010
1101
0010
0100
1000
,
0222
0333
0000
0000
0000
0000
0000
0000
0212
0303
0000
0000
0000
0000
0000
0000
1001
0000
0000
0000
0010
0000
0000
0000
0100
0000
0000
0000
1000
0000
0000
0000
0010
0000
0000
0000
1001
0000
0000
0000
0100
0000
0000
0000
0010
0000
0000
0000
0000
0000
0000
0000
0100
0000
0000
0000
0020
0000
0000
0000
0031
0000
0000
0000
,
1010
0100
0000
1000
0011
0100
1000
0010
1100
0011
1100
0001
1100
0010
1100
0010
,
2202
3303
0000
0000
0000
0000
0000
0000
2102
3003
0000
0000
0000
0000
0000
0000
1001
0000
0000
0000
0100
0000
0000
0000
1000
0000
0000
0000
0110
0000
0000
0000
0001
0000
0000
0000
0100
0000
0000
0000
0010
0000
0000
0000
1001
0000
0000
0000
0000
0000
0000
0000
1000
0000
0000
0000
0100
0000
0000
0000
0001
0000
0000
0000
,
1110
0001
0000
0100
0011
0100
1000
0011
0100
1000
0001
0010
1100
0001
0100
1000
,
0121
0030
0000
0000
1000
0000
0000
0000
0001
0000
0000
0000
1000
0000
0000
0000
0100
0000
0000
0000
0010
0000
0000
0000
0001
0000
0000
0000
1000
0000
0000
0000
0111
0000
0000
0000
1000
0000
0000
0000
0100
0000
0000
0000
0010
0000
0000
0000
0001
0000
0000
0000
0010
0000
0000
0000
0200
0000
0000
0000
1300
0000
0000
0000
,
0001
0000
0010
0000
0100
0000
1000
0000
0010
0000
0100
0000
0001
0000
1000
0000
0010
0000
0100
0000
0001
0000
1000
0000
0101
0000
0000
0010
0000
0000
0100
0000
0000
1000
0000
0000
0011
0000
0000
0100
0000
0000
0001
0000
0010
0000
0100
0000
,
1001
0000
0100
0000
0010
0000
0100
0000
0010
0000
0100
0000
0010
0000
0100
0000
0001
0010
0100
1000
0001
0010
0100
1000
0001
0000
1000
0000
0001
0000
1000
0000
,
0001
0000
0000
0010
0000
0000
0100
0000
0000
1000
0000
0000
0011
0000
0000
1100
0000
0000
0011
0000
0000
0100
0000
0000
0001
0000
0010
0000
0100
0000
1000
0000
0010
0000
0100
0000
0001
0000
1000
0000
0100
0000
0010
0000
0001
0000
0010
0000
,
2100
0010
3001
0100
1001
0100
0010
0001
1000
0100
0010
0001
0110
0001
1000
0010
,
0201
0010
1300
0010
1001
0010
0100
1000
0010
1000
0100
0001
0110
1000
0010
0100
,
1002
0010
0103
0010
1001
0100
0010
0100
0001
0010
0100
1000
0101
0010
0100
1000
,
0120
1000
0031
0100
1001
0100
0010
0001
1200
0001
1300
0010
1001
0010
1100
0010
,
2101
0010
3001
0100
1001
0100
0001
0110
1000
0100
0010
1001
0110
0001
0010
0100
,
0012
1000
0013
0100
0011
0100
1000
0110
0001
0100
0010
1000
0011
0100
0010
0001
,
0120
1000
0031
0100
0011
1000
0100
0010
0001
0010
0100
1000
0011
0100
0011
1000
,
0211
0000
0000
1000
0000
0000
0311
0000
0000
1000
0000
0000
0010
0000
0000
0001
0000
0000
1010
0000
0000
0100
0000
0000
1000
0000
0001
0000
1000
0000
0011
0000
0000
1000
0000
0000
0010
0000
0000
0100
0000
0000
1010
0000
0000
0001
0000
0000
,
1210
0001
1300
0001
1010
0001
1000
0010
1100
0001
1000
0010
0101
0010
0100
1000
,
0121
1000
0031
1000
0011
1000
0001
0100
1001
0010
0100
0000
0101
1000
0010
0100
,
1012
0100
1003
0010
1100
0001
1000
0100
0011
0100
1000
0001
0110
1000
0101
1000
,
0120
0001
1130
0001
0010
1000
0101
1000
0211
1000
0311
1000
0010
0100
0010
0100
,
2011
0100
3010
0100
1001
0010
0100
1001
0110
0001
0100
1001
0110
0001
0100
0010
,
1102
0010
1003
0100
1010
0100
1000
0011
1100
0010
1000
0001
1100
0010
1100
0010
,
1201
0000
0000
0010
0000
0000
1301
0000
0000
0010
0000
0000
1100
0000
0000
0010
0000
0000
1100
0000
0000
0001
0000
0000
1100
0000
0000
0010
0000
0000
1000
0000
0010
0000
0100
0000
0001
0000
0000
0010
0000
0000
0001
0000
0100
0000
0010
0000
,
2100
0000
0000
0010
0000
0000
3001
0000
0000
0100
0000
0000
0011
0000
0000
0100
0000
0000
1001
0000
0000
0100
0000
0000
0001
0000
0010
0000
0100
0000
1000
0000
0001
0000
0010
0000
0100
0000
1000
0000
0001
0000
0010
0000
0100
0000
1000
0000
,
0111
0000
1000
0110
0001
0010
0100
1000
0010
0001
0010
1000
0110
0001
0010
0100
,
1000
0110
0000
1000
0111
1000
0001
0010
1000
0101
0010
0100
1011
0100
1000
0001
,
1110
0000
1000
0010
1101
0010
0100
1000
0010
0001
0100
1000
0101
0010
0100
1000
,
0100
0011
0000
0100
1011
0100
0010
1000
0100
0011
0100
1000
0101
0010
0100
0001
,
2100
3010
1100
0011
0100
1000
0010
0100
0010
1000
0001
0010
1100
0001
0010
0100
,
1000
0100
1001
0110
1001
0100
0010
0001
0000
0011
0100
1000
0011
0100
0001
1000
,
0010
0100
1000
0110
1001
0010
0100
1000
0100
0001
0010
1000
0101
0010
0100
1000
,
0010
0100
0001
0110
1001
0010
1000
0100
0000
0101
0010
1000
0110
1000
0010
0001
,
1100
0010
0001
0000
0100
0010
0001
0000
0100
0010
0001
0000
0100
0010
0001
0000
;
