#TITLE:Junkman Stage;
#SUBTITLE:Megaman 7;
#ARTIST:Capcom;
#TITLETRANSLIT:;
#SUBTITLETRANSLIT:;
#ARTISTTRANSLIT:;
#CREDIT:SulferDragon;
#BANNER:Junkman-banner.png;
#BACKGROUND:Junkman-bg.png;
#LYRICSPATH:;
#CDTITLE:!SulferDragon.png;
#MUSIC:Junk Man Stage - Forgotten Factory.mp3;
#OFFSET:0.210;
#SAMPLESTART:37.860;
#SAMPLELENGTH:15.400;
#SELECTABLE:YES;
#BPMS:0.000=187.397;
#STOPS:;
#BGCHANGES:;
// cache tags:
#FIRSTBEAT:1.000;
#LASTBEAT:365.000;
#SONGFILENAME:Songs/KBU/Junkman Stage (SulferDragon)/Junk Man Stage - Forgotten Factory.sm;
#HASMUSIC:1;
#HASBANNER:1;
#MUSICLENGTH:120.555;
// end cache tags

//---------------dance-single - ----------------
#NOTES:
     dance-single:
     :
     Hard:
     11:
     1.000,1.000,1.000,1.000,0.398,735.000,160.000,287.000,0.000,4.000:
0000
0000
0000
0000
0000
0000
0000
0000
0210
0300
0000
0000
0200
0300
0000
0000
0000
0000
0000
0000
0000
0000
0000
0000
0000
0000
0000
0000
0200
0300
0000
0000
,
1001
0000
0000
0000
0000
0000
0000
0000
0200
0300
0000
0000
0200
0300
0000
0000
1010
0000
0000
0000
0000
0000
0000
0000
0020
0030
0000
0000
0020
0030
0000
0000
,
1000
0000
0000
0000
0011
0000
0000
0000
0000
0000
0000
0000
0020
0030
0000
0000
1100
0000
0000
0000
0000
0000
0000
0000
0200
0300
0010
0000
2000
3000
0001
0000
,
1200
0300
0000
0000
0200
0300
0000
0000
0000
0000
0000
0000
0000
0000
0000
0000
0000
0000
0000
0000
0200
0300
0000
0000
1001
0000
0000
0000
0000
0000
0000
0000
,
0200
0300
0000
0000
0200
0300
0000
0000
1010
0000
0000
0000
0000
0000
0000
0000
0020
0030
0000
0000
0020
0030
0000
0000
1000
0000
0000
0000
0011
0000
0000
0000
,
0000
0000
0000
0000
0020
0030
0000
0000
1100
0000
0000
0000
0000
0000
0000
0000
0200
0300
0010
0000
2000
3000
0001
0000
0200
0300
0000
0000
0010
0000
0000
0000
,
1000
0000
0000
0000
0002
0003
0000
0000
0000
0000
0000
0000
1001
0000
0000
0000
0000
0000
0000
0000
1000
0000
0000
0000
0000
0000
0000
0000
0200
0300
0000
0000
,
0201
0300
0000
0000
0010
0000
0000
0000
0200
0300
0000
0000
0200
0300
0000
0000
0011
0000
0000
0000
0000
0000
0000
0000
0002
0003
0000
0000
0000
0000
0000
0000
,
1010
0000
0000
0000
0002
0003
0000
0000
0000
0000
0000
0000
0100
0000
0000
0000
1010
0000
0000
0000
0002
0003
0000
0000
1100
0000
0000
0000
0020
0030
0000
0000
,
0120
0030
0000
0000
0000
0000
0000
0000
0120
0030
0000
0000
0020
0030
0000
0000
1100
0000
0001
0000
0200
0300
0010
0000
1001
0000
0000
0000
0100
0000
0000
0000
,
1010
0000
0000
0000
0002
0003
0000
0000
0000
0000
0000
0000
0001
0000
0000
0000
1010
0000
0000
0000
0100
0000
0000
0000
1000
0000
0000
0000
0020
0030
0000
0000
,
1100
0000
0000
0000
0020
0030
0000
0000
1000
0000
0000
0000
0100
0000
0000
0000
1010
0000
0000
0000
0100
0000
0000
0000
2000
3000
0000
0000
0100
0000
0000
0000
,
0011
0000
0000
0000
2000
3000
0000
0000
0100
0000
0000
0000
1000
0000
0000
0000
0110
0000
0000
0000
1000
0000
0000
0000
0100
0000
0000
0000
2000
3000
0000
0000
,
0101
0000
0000
0000
2000
3000
0000
0000
0100
0000
0000
0000
2000
0000
3000
0000
0200
0300
1000
0000
0020
0030
1000
0000
0011
0000
0000
0000
0100
0000
0000
0000
,
1010
0000
0000
0000
0002
0003
0000
0000
0000
0000
0000
0000
0001
0000
0000
0000
1010
0000
0000
0000
0100
0000
0000
0000
1000
0000
0000
0000
0020
0030
0000
0000
,
1100
0000
0000
0000
0020
0030
0000
0000
1000
0000
0000
0000
0100
0000
0000
0000
1010
0000
0000
0000
0100
0000
0000
0000
2000
3000
0000
0000
0100
0000
0000
0000
,
0011
0000
0000
0000
2000
3000
0000
0000
0100
0000
0000
0000
1000
0000
0000
0000
0110
0000
0000
0000
1000
0000
0000
0000
0100
0000
0000
0000
2000
3000
0000
0000
,
0101
0000
0000
0000
2000
3000
0000
0000
0010
0000
0100
0000
0002
0003
1000
0000
0020
0030
1000
0000
0200
0300
0010
0000
0001
0000
0000
0000
0000
0000
0000
0000
,
0002
1000
0023
1000
0230
0000
2300
0010
,
0100
3020
0000
0100
0001
1000
0031
0000
,
0002
1000
0023
1000
0230
0000
2300
0010
,
0100
0000
0000
0000
3020
0000
0000
0000
0000
0000
0000
0000
0001
0000
0000
0000
0230
0000
0000
0000
1000
0000
0010
0000
0302
0003
0000
0000
0002
0003
0000
0000
,
0000
0000
0000
0000
0000
0000
0000
0000
0000
0000
0000
0000
1010
0000
0000
0000
0000
0000
0000
0000
0100
0000
0000
0000
0002
0003
0000
0000
0002
0003
0000
0000
,
0000
0000
0000
0000
0000
0000
0000
0000
0000
0000
0000
0000
1010
0000
0000
0000
0000
0000
0000
0000
0100
0000
0010
0000
0002
0003
0000
0000
0002
0003
0000
0000
,
0000
0000
0000
0000
0002
0003
0000
0000
0000
0000
0000
0000
0002
0003
0000
0000
0000
0000
0000
0000
0002
0003
0000
0000
2010
3000
0000
0000
0200
0300
0000
0000
,
1020
0030
0000
0000
0002
0003
0000
0000
1010
0000
0001
0000
0200
0300
0001
0000
1020
0030
0100
0000
0002
0003
0100
0000
1010
0000
0000
0000
0100
0000
0000
0000
,
1001
0000
0000
0000
0200
0300
0000
0000
0000
0000
0000
0000
0200
0300
0000
0000
1010
0000
0000
0000
0200
0300
0000
0000
1000
0000
0000
0000
0200
0300
0000
0000
,
1010
0000
0000
0000
0200
0300
0000
0000
1000
0000
0000
0000
0200
0300
0000
0000
1020
0030
0000
0000
0002
0003
0000
0000
0021
0030
0000
0000
0020
0030
0100
0000
,
0010
0000
0000
0000
1200
0300
0000
0000
0200
0300
0010
0000
0100
0000
0000
0000
2010
3000
0000
0000
2000
3000
0000
0000
0101
0000
0000
0000
0020
0030
0000
0000
,
2001
3000
0000
0000
0200
0300
0000
0000
0020
0030
0001
0000
0200
0300
1000
0000
0020
0030
1000
0000
0002
0003
1000
0000
0011
0000
0000
0000
0100
0000
0000
0000
,
1010
0000
0000
0000
0200
0300
0000
0000
0000
0000
0000
0000
0200
0300
0000
0000
1010
0000
0000
0000
0200
0300
0000
0000
1000
0000
0000
0000
0200
0300
0000
0000
,
1010
0000
0000
0000
0200
0300
0000
0000
1000
0000
0000
0000
0200
0300
0000
0000
1020
0030
0000
0000
0002
0003
0000
0000
0021
0030
0000
0000
0020
0030
0100
0000
,
0010
0000
0000
0000
1200
0300
0000
0000
0200
0300
0010
0000
0100
0000
0000
0000
2010
3000
0000
0000
2000
3000
0000
0000
0110
0000
0000
0000
0002
0003
0000
0000
,
1020
0030
0000
0000
0200
0300
0000
0000
0002
0003
1000
0000
0020
0030
0001
0000
0200
0300
0001
0000
2000
3000
0001
0000
1100
0000
0000
0000
0000
0000
0000
0000
,
0020
0000
0230
0010
0302
0100
0023
0100
,
1000
0230
1000
0010
2300
0100
3011
0101
,
0101
0011
0101
0101
0011
0101
0010
1000
,
0101
0000
0010
0000
0100
0000
0001
0000
0100
0010
0100
0010
2001
0000
0000
0000
,
0001
0010
0000
3020
0001
0230
0320
0001
,
0230
0000
0000
0000
0001
0000
0000
0000
2300
0000
0000
0000
0010
0000
0000
0000
3002
0000
0000
0000
0010
0000
0000
0000
0203
0300
0000
0000
0010
0000
0000
0000
,
1001
0000
0000
0000
0200
0300
0000
0000
1000
0000
0000
0000
0200
0300
0000
0000
0011
0000
0000
0000
2000
3000
0000
0000
0101
0000
0000
0000
0020
0030
0000
0000
,
0101
0000
0000
0000
0020
0030
0000
0000
0101
0000
1000
0000
0020
0030
1000
0000
0201
0300
0010
0000
2000
3000
0010
0000
0100
0000
0000
0000
1000
0000
0000
0000
,
0101
0000
0000
0000
1000
0000
0000
0000
0100
0010
1000
0001
0010
0000
0000
0000
0101
0000
0000
0000
1000
0000
0000
0000
0100
0000
0000
0000
1000
0000
0000
0000
,
0101
0000
0000
0000
1000
0000
0000
0000
0100
0010
1000
0001
0010
0000
0000
0000
0101
0000
0000
0000
1000
0000
0000
0000
0110
0000
0000
0000
0001
0000
0010
0000
,
0001
0000
0110
0000
1000
0100
1000
0000
0210
0000
0000
0000
0000
0000
0000
0000
,
0010
0000
0001
0000
0320
0000
0001
2030
0100
0010
3200
0010
2300
0000
0100
0000
,
0010
3200
0010
1000
0320
1000
0100
1000
,
0100
0000
1030
0000
0200
0000
1000
0302
0100
0000
0023
0000
0230
0000
0010
0000
,
1000
0320
1000
0100
0032
0100
1013
0000
,
0101
0000
0000
0000
0000
0000
0000
0000
1010
0000
0100
0000
0001
0000
1000
0000
0101
0000
0010
0000
0100
0000
0000
0000
2001
3000
0000
0000
0100
0000
0000
0000
,
1010
0000
0000
0000
0002
0003
0000
0000
0000
0000
0000
0000
0001
0000
0000
0000
1010
0000
0000
0000
0100
0000
0000
0000
1000
0000
0000
0000
0020
0030
0000
0000
,
1100
0000
0000
0000
0020
0030
0000
0000
1000
0000
0000
0000
0100
0000
0000
0000
1010
0000
0000
0000
0100
0000
0000
0000
2000
3000
0000
0000
0100
0000
0000
0000
,
0011
0000
0000
0000
2000
3000
0000
0000
0100
0000
0000
0000
1000
0000
0000
0000
0110
0000
0000
0000
1000
0000
0000
0000
0100
0000
0000
0000
2000
3000
0000
0000
,
0101
0000
0000
0000
2000
3000
0000
0000
0100
0000
0000
0000
2000
0000
3000
0000
0200
0300
1000
0000
0020
0030
1000
0000
0011
0000
0000
0000
0100
0000
0000
0000
,
1010
0000
0000
0000
0002
0003
0000
0000
0000
0000
0000
0000
0001
0000
0000
0000
1010
0000
0000
0000
0100
0000
0000
0000
1000
0000
0000
0000
0020
0030
0000
0000
,
1100
0000
0000
0000
0020
0030
0000
0000
1000
0000
0000
0000
0100
0000
0000
0000
1010
0000
0000
0000
0100
0000
0000
0000
2000
3000
0000
0000
0100
0000
0000
0000
,
0011
0000
0000
0000
2000
3000
0000
0000
0100
0000
0000
0000
1000
0000
0000
0000
0110
0000
0000
0000
1000
0000
0000
0000
0100
0000
0000
0000
2000
3000
0000
0000
,
0101
0000
0000
0000
2000
3000
0000
0000
0010
0000
0100
0000
0002
0003
1000
0000
0020
0030
1000
0000
0200
0300
0010
0000
0001
0000
0000
0000
0000
0000
0000
0000
,
0002
1000
0023
1000
0230
0000
2300
0010
,
0100
3020
0000
0100
0001
1000
0031
0000
,
0002
1000
0023
1000
0230
0000
2300
0010
,
0100
0000
0000
0000
3020
0000
0000
0000
0000
0000
0000
0000
0001
0000
0000
0000
0230
0000
0000
0000
1000
0000
0010
0000
0302
0003
0000
0000
0002
0003
0000
0000
,
0000
0000
0000
0000
0000
0000
0000
0000
0000
0000
0000
0000
1010
0000
0000
0000
0000
0000
0000
0000
0100
0000
0000
0000
0002
0003
0000
0000
0002
0003
0000
0000
,
0000
0000
0000
0000
0000
0000
0000
0000
0000
0000
0000
0000
1010
0000
0000
0000
0000
0000
0000
0000
0100
0000
0010
0000
0002
0003
0000
0000
0002
0003
0000
0000
,
0000
0000
0000
0000
0002
0003
0000
0000
0000
0000
0000
0000
0002
0003
0000
0000
0000
0000
0000
0000
0002
0003
0000
0000
2010
3000
0000
0000
0200
0300
0000
0000
,
1020
0030
0000
0000
0002
0003
0000
0000
1010
0000
0001
0000
0200
0300
0001
0000
1020
0030
0100
0000
0002
0003
0100
0000
1010
0000
0000
0000
0100
0000
0000
0000
,
1001
0000
0000
0000
0200
0300
0000
0000
0000
0000
0000
0000
0200
0300
0000
0000
1010
0000
0000
0000
0200
0300
0000
0000
1000
0000
0000
0000
0200
0300
0000
0000
,
1010
0000
0000
0000
0200
0300
0000
0000
1000
0000
0000
0000
0200
0300
0000
0000
1020
0030
0000
0000
0002
0003
0000
0000
0021
0030
0000
0000
0020
0030
0100
0000
,
0010
0000
0000
0000
1200
0300
0000
0000
0200
0300
0010
0000
0100
0000
0000
0000
2010
3000
0000
0000
2000
3000
0000
0000
0101
0000
0000
0000
0020
0030
0000
0000
,
2001
3000
0000
0000
0200
0300
0000
0000
0020
0030
0001
0000
0200
0300
1000
0000
0020
0030
1000
0000
0002
0003
1000
0000
0011
0000
0000
0000
0100
0000
0000
0000
,
1010
0000
0000
0000
0200
0300
0000
0000
0000
0000
0000
0000
0200
0300
0000
0000
1010
0000
0000
0000
0200
0300
0000
0000
1000
0000
0000
0000
0200
0300
0000
0000
,
1010
0000
0000
0000
0200
0300
0000
0000
1000
0000
0000
0000
0200
0300
0000
0000
1020
0030
0000
0000
0002
0003
0000
0000
0021
0030
0000
0000
0020
0030
0100
0000
,
0010
0000
0000
0000
1200
0300
0000
0000
0200
0300
0010
0000
0100
0000
0000
0000
2010
3000
0000
0000
2000
3000
0000
0000
0110
0000
0000
0000
0002
0003
0000
0000
,
1020
0030
0000
0000
0200
0300
0000
0000
0002
0003
1000
0000
0020
0030
0001
0000
0200
0300
0001
0000
2000
3000
0001
0000
1100
0000
0000
0000
0000
0000
0000
0000
,
0020
0000
0230
0010
0302
0100
0023
0100
,
1000
0230
1000
0010
2300
0100
3011
0101
,
0101
0011
0101
0101
0011
0101
0010
1000
,
0101
0000
0010
0000
0100
0000
0001
0000
0100
0010
0100
0010
2001
0000
0000
0000
,
0001
0010
0000
3020
0001
0230
0320
0001
,
0230
0000
0000
0000
0001
0000
0000
0000
2300
0000
0000
0000
0010
0000
0000
0000
3002
0000
0000
0000
0010
0000
0000
0000
0203
0300
0000
0000
0010
0000
0000
0000
,
1001
0000
0000
0000
0200
0300
0000
0000
1000
0000
0000
0000
0200
0300
0000
0000
0011
0000
0000
0000
2000
3000
0000
0000
0101
0000
0000
0000
0020
0030
0000
0000
,
0101
0000
0000
0000
0020
0030
0000
0000
0101
0000
1000
0000
0020
0030
1000
0000
0201
0300
0010
0000
2000
3000
0010
0000
0100
0000
0000
0000
1000
0000
0000
0000
,
0101
0000
0000
0000
1000
0000
0000
0000
0100
0010
1000
0001
0010
0000
0000
0000
0101
0000
0000
0000
1000
0000
0000
0000
0100
0000
0000
0000
1000
0000
0000
0000
,
0101
0000
0000
0000
1000
0000
0000
0000
0100
0010
1000
0001
0010
0000
0000
0000
0101
0000
0000
0000
1000
0000
0000
0000
0110
0000
0000
0000
0001
0000
0010
0000
,
0001
0000
0110
0000
1000
0100
1000
0000
0210
0000
0000
0000
0000
0000
0000
0000
,
0010
0000
0001
0000
0320
0000
0001
2030
0100
0010
3200
0010
2300
0000
0100
0000
,
0010
3200
0010
1000
0320
1000
0100
1000
,
0100
0000
1030
0000
0200
0000
1000
0302
0100
0000
0023
0000
0230
0000
0010
0000
,
1000
0320
1000
0100
0032
0100
1013
0000
,
0101
0000
0000
0000
1010
0100
0001
1000
0101
0010
0100
0000
2001
0000
3200
0000
,
0320
0032
0000
0000
0000
0000
0000
0000
,
0000
0003
0000
0000
;

//---------------dance-single - ----------------
#NOTES:
     dance-single:
     :
     Challenge:
     12:
     1.000,1.000,1.000,1.000,0.398,735.000,208.000,307.000,0.000,121.000:
0000
0000
0000
0000
0000
0000
0000
0000
1201
0300
0000
0000
0200
0300
0000
0000
0000
0000
0000
0000
0000
0000
0000
0000
0000
0000
0000
0000
0200
0300
0000
0000
,
1001
0000
0000
0000
0000
0000
0000
0000
0200
0300
0000
0000
0200
0300
0000
0000
1010
0000
0000
0000
0000
0000
0000
0000
0020
0030
0000
0000
0020
0030
0000
0000
,
1000
0000
0000
0000
0011
0000
0000
0000
0000
0000
0000
0000
0020
0030
0000
0000
1100
0000
0000
0000
0000
0000
0000
0000
0200
0300
0010
0000
2000
3000
0001
0000
,
1210
0300
0000
0000
0200
0300
0000
0000
0000
0000
0000
0000
0000
0000
0000
0000
0000
0000
0000
0000
0200
0300
0000
0000
1001
0000
0000
0000
0000
0000
0000
0000
,
0200
0300
0000
0000
0200
0300
0000
0000
1010
0000
0000
0000
0000
0000
0000
0000
0020
0030
0000
0000
0020
0030
0000
0000
1000
0000
0000
0000
0011
0000
0000
0000
,
0000
0000
0000
0000
0020
0030
0000
0000
1100
0000
0000
0000
0000
0000
0000
0000
0200
0300
0010
0000
2000
3000
0001
0000
0200
0300
0000
0000
0010
0000
0000
0000
,
1000
0000
0000
0000
0002
0003
0000
0000
0000
0000
0000
0000
1001
0000
0000
0000
0000
0000
0000
0000
1000
0000
0000
0000
0000
0000
0000
0000
0200
0300
0000
0000
,
0201
0300
0000
0000
0010
0000
0000
0000
0200
0300
0000
0000
0200
0300
0000
0000
0011
0000
0000
0000
0000
0000
0000
0000
0002
0003
0000
0000
0000
0000
0000
0000
,
1010
0000
0000
0000
0002
0003
0000
0000
0000
0000
0000
0000
0100
0000
0000
0000
1010
0000
0000
0000
0002
0003
0000
0000
1110
0000
0000
0000
0020
0030
0000
0000
,
1120
0030
0000
0000
0000
0000
0000
0000
1120
0030
0000
0000
0020
0030
0000
0000
1110
0000
0001
0000
0200
0300
0010
0000
1101
0000
0000
0000
0100
0000
0000
0000
,
1010
0000
0000
0000
0002
0003
0000
0000
0000
0000
0000
0000
0001
0000
0000
0000
1010
0000
0000
0000
0100
0000
0000
0000
1000
0000
0000
0000
0020
0030
0000
0000
,
1100
0000
0000
0000
0020
0030
0000
0000
1000
0000
0000
0000
0100
0000
0000
0000
1010
0000
0000
0000
0100
0000
0000
0000
2000
3000
0000
0000
0100
0000
0000
0000
,
0011
0000
0000
0000
2000
3000
0000
0000
0100
0000
0000
0000
1000
0000
0000
0000
0110
0000
0000
0000
1000
0000
0000
0000
0100
0000
0000
0000
2000
3000
0000
0000
,
0101
0000
0000
0000
2000
3000
0000
0000
0100
0000
0000
0000
2000
0000
3000
0000
0200
0300
0001
0000
0020
0030
0001
0000
1110
0000
0000
0000
0100
0000
0000
0000
,
1010
0000
0000
0000
0002
0003
0000
0000
0000
0000
0000
0000
0001
0000
0000
0000
1010
0000
0000
0000
0100
0000
0000
0000
1000
0000
0000
0000
0020
0030
0000
0000
,
1100
0000
0000
0000
0020
0030
0000
0000
1000
0000
0000
0000
0100
0000
0000
0000
1010
0000
0000
0000
0100
0000
0000
0000
2000
3000
0000
0000
0100
0000
0000
0000
,
0011
0000
0000
0000
2000
3000
0000
0000
0100
0000
0000
0000
1000
0000
0000
0000
0110
0000
0000
0000
1000
0000
0000
0000
0100
0000
0000
0000
2000
3000
0000
0000
,
0101
0000
0000
0000
2000
3000
0000
0000
0010
0000
0100
0000
0002
0003
1000
0000
0020
0030
1000
0000
0200
0300
0010
0000
0001
0000
0000
0000
0000
0000
0000
0000
,
0102
1000
0023
1000
0231
0000
2300
0010
,
0101
3020
0000
1000
0101
1000
0031
0000
,
0102
1000
0023
1000
0231
0000
2300
0010
,
0101
0000
0000
0000
3020
0000
0000
0000
0000
0000
0000
0000
1000
0000
0000
0000
0231
0000
0000
0000
1000
0000
0010
0000
0302
0003
0000
0000
0002
0003
0000
0000
,
0000
0000
0000
0000
0000
0000
0000
0000
0000
0000
0000
0000
1010
0000
0000
0000
0000
0000
0000
0000
0100
0000
0000
0000
0002
0003
0000
0000
0002
0003
0000
0000
,
0000
0000
0000
0000
0000
0000
0000
0000
0000
0000
0000
0000
1010
0000
0000
0000
0000
0000
0000
0000
1100
0000
0010
0000
0002
0003
0000
0000
0002
0003
0000
0000
,
0000
0000
0000
0000
0002
0003
0000
0000
0000
0000
0000
0000
0002
0003
0000
0000
0000
0000
0000
0000
0002
0003
0000
0000
2110
3000
0000
0000
0200
0300
0000
0000
,
1120
0030
0000
0000
0002
0003
0000
0000
1110
0000
0001
0000
0200
0300
0001
0000
1120
0030
0100
0000
0002
0003
0100
0000
1011
0000
0000
0000
0100
0000
0000
0000
,
1001
0000
0000
0000
0200
0300
0000
0000
0000
0000
0000
0000
0200
0300
0000
0000
1010
0000
0000
0000
0200
0300
0000
0000
1000
0000
0000
0000
0200
0300
0000
0000
,
1010
0000
0000
0000
0200
0300
0000
0000
1000
0000
0000
0000
0200
0300
0000
0000
1020
0030
0000
0000
0002
0003
0000
0000
1021
0030
0000
0000
0020
0030
0010
0000
,
0010
0000
0000
0000
1201
0300
0000
0000
0200
0300
0100
0000
0100
0000
0000
0000
2011
3000
0000
0000
2000
3000
0000
0000
1101
0000
0000
0000
0020
0030
0000
0000
,
2001
3000
0000
0000
0200
0300
0000
0000
0020
0030
0001
0000
0200
0300
1000
0000
0020
0030
1000
0000
0002
0003
1000
0000
0111
0000
0000
0000
0100
0000
0000
0000
,
1010
0000
0000
0000
0200
0300
0000
0000
0000
0000
0000
0000
0200
0300
0000
0000
1010
0000
0000
0000
0200
0300
0000
0000
1000
0000
0000
0000
0200
0300
0000
0000
,
1010
0000
0000
0000
0200
0300
0000
0000
1000
0000
0000
0000
0200
0300
0000
0000
1020
0030
0000
0000
0002
0003
0000
0000
1021
0030
0000
0000
0020
0030
0010
0000
,
0010
0000
0000
0000
1201
0300
0000
0000
0200
0300
0100
0000
0100
0000
0000
0000
2110
3000
0000
0000
2000
3000
0000
0000
0111
0000
0000
0000
0002
0003
0000
0000
,
1020
0030
0000
0000
0200
0300
0000
0000
0002
0003
1000
0000
0020
0030
0001
0000
0200
0300
0001
0000
2000
3000
0001
0000
1110
0000
0000
0000
0000
0000
0000
0000
,
1020
0000
0230
0010
1302
0100
0023
0100
,
1001
0230
1000
0010
2301
0010
3211
1001
,
1001
0000
1321
0000
1100
0000
1100
0000
1132
0000
1010
0000
0100
0000
2003
3000
,
0201
0300
0020
0030
0200
0300
0002
0003
0020
0031
0200
0301
2110
0000
0000
0000
,
0101
0010
0000
3020
1001
0230
0320
0001
,
1230
0000
0000
0000
0001
0000
0000
0000
2300
0000
0000
0000
0010
0000
0000
0000
3102
0000
0000
0000
0010
0000
0000
0000
0203
0300
0000
0000
0010
0000
0000
0000
,
1001
0000
0000
0000
0200
0300
0000
0000
1000
0000
0000
0000
0200
0300
0000
0000
0011
0000
0000
0000
2000
3000
0000
0000
0111
0000
0000
0000
0020
0030
0000
0000
,
0111
0000
0000
0000
0020
0030
0000
0000
0111
0000
1000
0000
0020
0030
1000
0000
0211
0300
0010
0000
2000
3000
0010
0000
0100
0000
0000
0000
1000
0000
0000
0000
,
0101
0000
0000
0000
1000
0000
0000
0000
0100
0010
1000
0001
0010
0000
0000
0000
0101
0000
0000
0000
1000
0000
0000
0000
0100
0000
0000
0000
1000
0000
0000
0000
,
0101
0000
0000
0000
1000
0000
0000
0000
0100
0010
1000
0001
0010
0000
0000
0000
0101
0000
0000
0000
1000
0000
0000
0000
0111
0000
0000
0000
0010
0000
0010
0000
,
0010
0000
1110
0000
0100
0100
0100
0000
0211
0000
0000
0000
0000
0000
0000
0000
,
1010
0000
0001
0000
0320
0000
0001
2030
0100
0010
3200
0010
2300
0000
0100
0000
,
0011
3200
0010
1000
0321
1000
0100
1000
,
0101
0000
1030
0000
0200
0000
0010
0302
1100
0000
0023
0000
0230
0000
0010
0000
,
1001
0320
1000
0100
1032
0100
1113
0000
,
1110
0000
0000
0000
0000
0000
0000
0000
1110
0000
0001
0000
0100
0000
0001
0000
1110
0000
0001
0000
0010
0000
0000
0000
2101
3000
0000
0000
0100
0000
0000
0000
,
1010
0000
0000
0000
0002
0003
0000
0000
0000
0000
0000
0000
0001
0000
0000
0000
1010
0000
0000
0000
0100
0000
0000
0000
1000
0000
0000
0000
0020
0030
0000
0000
,
1100
0000
0000
0000
0020
0030
0000
0000
1000
0000
0000
0000
0100
0000
0000
0000
1010
0000
0000
0000
0100
0000
0000
0000
2000
3000
0000
0000
0100
0000
0000
0000
,
0011
0000
0000
0000
2000
3000
0000
0000
0100
0000
0000
0000
1000
0000
0000
0000
0110
0000
0000
0000
1000
0000
0000
0000
0100
0000
0000
0000
2000
3000
0000
0000
,
0101
0000
0000
0000
2000
3000
0000
0000
0100
0000
0000
0000
2000
0000
3000
0000
0200
0300
0001
0000
0020
0030
0001
0000
1110
0000
0000
0000
0100
0000
0000
0000
,
1010
0000
0000
0000
0002
0003
0000
0000
0000
0000
0000
0000
0001
0000
0000
0000
1010
0000
0000
0000
0100
0000
0000
0000
1000
0000
0000
0000
0020
0030
0000
0000
,
1100
0000
0000
0000
0020
0030
0000
0000
1000
0000
0000
0000
0100
0000
0000
0000
1010
0000
0000
0000
0100
0000
0000
0000
2000
3000
0000
0000
0100
0000
0000
0000
,
0011
0000
0000
0000
2000
3000
0000
0000
0100
0000
0000
0000
1000
0000
0000
0000
0110
0000
0000
0000
1000
0000
0000
0000
0100
0000
0000
0000
2000
3000
0000
0000
,
0101
0000
0000
0000
2000
3000
0000
0000
0010
0000
0100
0000
0002
0003
1000
0000
0020
0030
1000
0000
0200
0300
0010
0000
0001
0000
0000
0000
0000
0000
0000
0000
,
0102
1000
0023
1000
0231
0000
2300
0010
,
0101
3020
0000
1000
0101
1000
0031
0000
,
0102
1000
0023
1000
0231
0000
2300
0010
,
0101
0000
0000
0000
3020
0000
0000
0000
0000
0000
0000
0000
1000
0000
0000
0000
0231
0000
0000
0000
1000
0000
0010
0000
0302
0003
0000
0000
0002
0003
0000
0000
,
0000
0000
0000
0000
0000
0000
0000
0000
0000
0000
0000
0000
1010
0000
0000
0000
0000
0000
0000
0000
0100
0000
0000
0000
0002
0003
0000
0000
0002
0003
0000
0000
,
0000
0000
0000
0000
0000
0000
0000
0000
0000
0000
0000
0000
1010
0000
0000
0000
0000
0000
0000
0000
1100
0000
0010
0000
0002
0003
0000
0000
0002
0003
0000
0000
,
0000
0000
0000
0000
0002
0003
0000
0000
0000
0000
0000
0000
0002
0003
0000
0000
0000
0000
0000
0000
0002
0003
0000
0000
2110
3000
0000
0000
0200
0300
0000
0000
,
1120
0030
0000
0000
0002
0003
0000
0000
1110
0000
0001
0000
0200
0300
0001
0000
1120
0030
0100
0000
0002
0003
0100
0000
1011
0000
0000
0000
0100
0000
0000
0000
,
1001
0000
0000
0000
0200
0300
0000
0000
0000
0000
0000
0000
0200
0300
0000
0000
1010
0000
0000
0000
0200
0300
0000
0000
1000
0000
0000
0000
0200
0300
0000
0000
,
1010
0000
0000
0000
0200
0300
0000
0000
1000
0000
0000
0000
0200
0300
0000
0000
1020
0030
0000
0000
0002
0003
0000
0000
1021
0030
0000
0000
0020
0030
0010
0000
,
0010
0000
0000
0000
1201
0300
0000
0000
0200
0300
0100
0000
0100
0000
0000
0000
2011
3000
0000
0000
2000
3000
0000
0000
1101
0000
0000
0000
0020
0030
0000
0000
,
2001
3000
0000
0000
0200
0300
0000
0000
0020
0030
0001
0000
0200
0300
1000
0000
0020
0030
1000
0000
0002
0003
1000
0000
0111
0000
0000
0000
0100
0000
0000
0000
,
1010
0000
0000
0000
0200
0300
0000
0000
0000
0000
0000
0000
0200
0300
0000
0000
1010
0000
0000
0000
0200
0300
0000
0000
1000
0000
0000
0000
0200
0300
0000
0000
,
1010
0000
0000
0000
0200
0300
0000
0000
1000
0000
0000
0000
0200
0300
0000
0000
1020
0030
0000
0000
0002
0003
0000
0000
1021
0030
0000
0000
0020
0030
0010
0000
,
0010
0000
0000
0000
1201
0300
0000
0000
0200
0300
0100
0000
0100
0000
0000
0000
2110
3000
0000
0000
2000
3000
0000
0000
0111
0000
0000
0000
0002
0003
0000
0000
,
1020
0030
0000
0000
0200
0300
0000
0000
0002
0003
1000
0000
0020
0030
0001
0000
0200
0300
0001
0000
2000
3000
0001
0000
1110
0000
0000
0000
0000
0000
0000
0000
,
1020
0000
0230
0010
1302
0100
0023
0100
,
1001
0230
1000
0010
2301
0010
3211
1001
,
1001
0000
1321
0000
1100
0000
1100
0000
1132
0000
1010
0000
0100
0000
2003
3000
,
0201
0300
0020
0030
0200
0300
0002
0003
0020
0031
0200
0301
2110
0000
0000
0000
,
0101
0010
0000
3020
1001
0230
0320
0001
,
1230
0000
0000
0000
0001
0000
0000
0000
2300
0000
0000
0000
0010
0000
0000
0000
3102
0000
0000
0000
0010
0000
0000
0000
0203
0300
0000
0000
0010
0000
0000
0000
,
1001
0000
0000
0000
0200
0300
0000
0000
1000
0000
0000
0000
0200
0300
0000
0000
0011
0000
0000
0000
2000
3000
0000
0000
0111
0000
0000
0000
0020
0030
0000
0000
,
0111
0000
0000
0000
0020
0030
0000
0000
0111
0000
1000
0000
0020
0030
1000
0000
0211
0300
0010
0000
2000
3000
0010
0000
0100
0000
0000
0000
1000
0000
0000
0000
,
0101
0000
0000
0000
1000
0000
0000
0000
0100
0010
1000
0001
0010
0000
0000
0000
0101
0000
0000
0000
1000
0000
0000
0000
0100
0000
0000
0000
1000
0000
0000
0000
,
0101
0000
0000
0000
1000
0000
0000
0000
0100
0010
1000
0001
0010
0000
0000
0000
0101
0000
0000
0000
1000
0000
0000
0000
0111
0000
0000
0000
0010
0000
0010
0000
,
0010
0000
1110
0000
0100
0100
0100
0000
0211
0000
0000
0000
0000
0000
0000
0000
,
1010
0000
0001
0000
0320
0000
0001
2030
0100
0010
3200
0010
2300
0000
0100
0000
,
0011
3200
0010
1000
0321
1000
0100
1000
,
0101
0000
1030
0000
0200
0000
0010
0302
1100
0000
0023
0000
0230
0000
0010
0000
,
1001
0320
1000
0100
1032
0100
1113
0000
,
1110
0000
0000
0000
1110
0001
0100
0001
1110
0001
0010
0000
2101
0000
3200
0000
,
0320
0032
0000
0000
0000
0000
0000
0000
,
0000
0003
0000
0000
;
