#TITLE:Dragula;
#SUBTITLE:;
#ARTIST:Rob Zombie;
#TITLETRANSLIT:;
#SUBTITLETRANSLIT:;
#ARTISTTRANSLIT:;
#CREDIT:;
#BANNER:Dragula.png;
#BACKGROUND:bg.JPG;
#LYRICSPATH:;
#CDTITLE:Title.png;
#MUSIC:Dragula.mp3;
#OFFSET:-0.160;
#SAMPLESTART:53.788;
#SAMPLELENGTH:12.000;
#SELECTABLE:YES;
#BPMS:0.000=125.010,109.000=250.030,173.000=125.010,234.000=250.030,394.000=125.010,439.000=250.030,631.000=125.010,660.500=62.510,661.500=125.010;
#STOPS:108.000=1.420
,233.000=1.420
,438.000=1.420
;
#BGCHANGES:;
// cache tags:
#FIRSTBEAT:16.000;
#LASTBEAT:661.500;
#SONGFILENAME:Songs/juju step2/Dragula/Dragula.sm;
#HASMUSIC:1;
#HASBANNER:1;
#MUSICLENGTH:222.884;
// end cache tags

//---------------dance-single - Copied from----------------
#NOTES:
     dance-single:
     Copied from:
     Hard:
     7:
     0.708,0.927,1.000,0.651,0.034,710.000,249.000,145.000,0.000,9.000:
0000
0000
0000
0000
,
0000
0000
0000
0000
,
0000
0000
0000
0000
,
0000
0000
0000
0000
,
1000
1000
1000
1000
,
0100
0100
0100
0100
,
0010
0010
0010
0010
,
0001
0001
0001
0001
,
1010
0100
0010
0100
1000
0100
2020
3030
,
0101
0010
0001
0010
0100
0010
0202
0303
,
1001
0100
0010
1000
0001
0100
2002
3003
,
0110
0001
0010
0100
1000
0100
0220
0330
,
1001
0001
0010
0100
1000
0100
0010
1000
,
0101
0100
0010
1000
0010
0100
0010
1000
,
1100
0001
0010
1000
0001
0010
0100
0001
,
1010
0100
0001
1000
0001
0100
0010
1000
,
0100
0100
0100
0100
,
0010
0010
0010
0010
,
1000
1000
1000
1000
,
0001
0001
0001
0001
,
1001
1000
0010
0100
1000
0100
0010
0100
,
0101
0010
0100
0001
0010
0001
1010
0010
,
0100
0001
1000
0010
0100
0001
1000
0001
,
0110
0010
0100
0001
1000
0100
0010
1000
,
0001
0001
0001
0001
,
0010
0010
0010
0010
,
0100
0100
0100
0100
,
0000
2002
3003
1001
,
1001
1001
1001
1010
,
0220
0000
0330
0110
,
0110
0110
0110
0101
,
2200
0000
3300
1100
,
1100
1100
1100
2200
,
3300
0002
0200
0000
,
2000
0000
0000
0000
,
3303
2020
3030
1010
,
1010
1010
1010
1001
,
0202
0000
0303
0101
,
0101
0101
0101
0110
,
0022
0000
0033
0011
,
0011
0011
0011
0022
,
0033
2000
0200
0000
,
0002
0000
0000
0000
,
3303
0000
0000
0000
1100
0000
0010
1000
0010
1000
0010
1000
0100
0000
0001
0000
,
1000
0000
0100
0010
0100
0000
0010
0100
0010
0100
0010
0100
1000
0000
0001
0000
,
0100
0000
0001
0100
0001
0000
0100
0001
0100
0001
0100
0001
1000
0000
0100
0000
,
0010
0000
1000
0100
1000
0000
0100
1000
0100
1000
0100
1000
0010
0000
0001
0000
,
0010
1000
0100
0000
0100
0000
0100
0000
,
0100
0010
0010
0010
,
0010
0001
0001
0001
,
0001
1000
1000
1000
,
1000
0000
1001
0100
0010
1000
0001
1000
,
0110
0001
0010
0100
1000
0100
0010
0001
,
0010
0001
1010
0100
0001
0010
0001
1000
,
0010
0100
0101
0010
1000
0100
0010
1000
,
0001
0100
0001
0000
0001
0000
0001
0000
,
0001
0100
0100
0100
,
0100
1000
1000
1000
,
1000
0000
2002
3003
,
1001
1001
1001
1001
,
1010
0220
0000
0330
,
0110
0110
0110
0110
,
0101
2200
0000
3300
,
1100
1100
1100
1100
,
2200
3300
0002
0020
,
0000
0200
0000
0000
,
0000
0333
2020
3030
,
1010
1010
1010
1010
,
1001
0202
0000
0303
,
0101
0101
0101
0101
,
0110
0022
0000
0033
,
0011
0011
0011
0011
,
0022
0033
0200
0020
,
0000
0002
0000
0000
,
0000
0000
0333
0000
1001
0000
0001
0100
,
0001
0000
0100
0001
0100
0000
0100
1000
,
0100
0000
1000
0100
1000
0000
0001
1000
,
0001
0000
1000
0001
1000
0000
0010
0100
,
0010
0110
1001
1001
,
1001
1010
0110
0110
,
0110
0101
0011
0011
,
0011
1001
1010
1010
,
1010
0000
0110
0000
1001
0000
0100
0001
,
0100
0000
0001
0100
0001
0000
0010
1000
,
0010
0000
1000
0010
1000
0000
0001
1000
,
0001
0000
1000
0001
1000
0000
0100
0010
,
0100
0110
1001
1001
,
1001
1010
0110
0110
,
0110
0101
0011
0011
,
0011
1001
1010
1010
,
1010
0000
1010
0000
0200
0300
0002
0003
,
0020
0030
0200
0300
2000
3000
0200
0300
,
0020
0030
0002
0003
0020
0030
0200
0300
,
2000
3000
0200
0300
0020
0030
0002
0003
,
0020
0030
0200
0300
2000
3000
0200
0300
,
0002
0003
0200
0300
2000
3000
0200
0300
,
0002
0003
0200
0300
2000
3000
0200
0300
,
0002
0003
0200
0300
2000
3000
0200
0300
,
0002
0003
0200
0300
1000
0000
1000
0000
,
1000
1000
0100
0100
,
0100
0100
0001
0001
,
0001
0001
0010
0010
,
0010
0000
0010
0000
1001
0100
0010
1000
,
0110
0001
0100
0010
1000
0001
0010
0001
,
1010
0100
0010
0001
0100
0010
1000
0010
,
0101
0010
0100
0001
1000
0010
1100
0001
,
0100
0010
1000
0001
0100
0000
0100
0000
,
0100
0100
0010
0010
,
0010
0010
0100
0100
,
0100
0100
0000
2002
,
3003
1001
1001
1001
,
1001
1010
0220
0000
,
0330
0110
0110
0110
,
0110
0101
2200
0000
,
3300
1100
1100
1100
,
1100
2200
3300
0002
,
0200
0000
2000
0000
,
0000
0000
3303
2020
,
3030
1010
1010
1010
,
1010
1001
0202
0000
,
0303
0101
0101
0101
,
0101
0110
0022
0000
,
0033
0011
0011
0011
,
0011
0022
0033
2000
,
0200
0000
0002
0000
,
0000
0000
3303
1001
,
0100
0001
0100
0000
0001
0100
0001
0000
,
1000
0010
1000
0000
0010
1000
0010
0000
,
1000
0001
1000
0000
0001
1000
0001
0000
,
0100
0010
0100
0000
0110
0000
1001
0000
,
1001
1010
0110
0110
,
0110
0101
1100
1100
,
1100
1001
1010
1010
,
1010
1010
0101
1001
,
0010
1000
0010
0000
1000
0010
1000
0000
,
0001
0100
0001
0000
0100
0001
0100
0000
,
0001
1000
0001
0000
1000
0001
1000
0000
,
0100
0010
0100
0000
0110
0000
1001
0000
,
1001
1001
1010
0110
,
0110
0110
0101
0011
,
0011
0011
1001
1100
,
1100
1100
1010
2002
,
3003
1001
1001
1001
,
1001
1010
0220
0000
,
0330
0110
0110
0110
,
0110
0101
2200
0000
,
3300
1100
1100
1100
,
1100
2200
3300
0002
,
0020
0000
0200
0000
,
0000
0000
0333
2020
,
3030
1010
1010
1010
,
1010
1001
0202
0000
,
0303
0101
0101
0101
,
0101
0110
0022
0000
,
0033
0011
0011
0011
,
0011
0022
0033
0200
,
0020
0000
0002
0000
,
0000
0000
0000
0000
0333
0000
2002
3003
,
0010
0100
0001
1000
0010
0100
0220
0330
,
0001
0010
0100
1000
0010
0100
2020
3030
,
0100
0010
0001
0010
0100
0010
0202
0303
,
0010
1000
0010
0100
0010
1000
0022
0033
,
0100
0010
0100
0001
0100
0001
2200
3300
,
0100
0001
0010
0001
0100
0010
2002
3003
,
0100
1000
0100
0001
0010
0000
2000
0200
,
0000
0002
0000
3303
0000
0000
0000
0000
;
