#TITLE:HELL SCAPER;
#SUBTITLE:-TOKKANKOUJI mix-;
#ARTIST:L.E.D.LIGHT-G remix by paraoka;
#TITLETRANSLIT:;
#SUBTITLETRANSLIT:;
#ARTISTTRANSLIT:;
#CREDIT:;
#BANNER:hellScaper.png;
#BACKGROUND:hellScaper-bg.png;
#LYRICSPATH:;
#CDTITLE:kyka06.png;
#MUSIC:hellscapertoukkankoujiMix.mp3;
#OFFSET:1.020;
#SAMPLESTART:19.500;
#SAMPLELENGTH:18.280;
#SELECTABLE:YES;
#BPMS:0.000=105.250,4.000=210.510,68.000=105.255,76.000=210.010,220.000=212.010,260.000=108.005,264.000=216.010,296.000=218.010;
#STOPS:;
#BGCHANGES:;
// cache tags:
#FIRSTBEAT:4.000;
#LASTBEAT:362.000;
#SONGFILENAME:Songs/juju steps/hellscapertoukkankoujimix/kyka's dwi's.sm;
#HASMUSIC:1;
#HASBANNER:1;
#MUSICLENGTH:106.318;
// end cache tags

//---------------dance-single - ----------------
#NOTES:
     dance-single:
     :
     Beginner:
     1:
     0.132,0.170,0.019,0.047,0.000,91.000,2.000,5.000,0.000,0.000:
0000
0000
0000
0000
,
1000
0000
0000
0000
,
0001
0000
0000
0000
,
0010
0000
0000
0000
,
0100
0000
1000
0000
,
0010
0000
0000
0000
,
0100
0000
0000
0000
,
0001
0000
0000
0000
,
1000
0000
0000
0000
,
0010
0000
0000
0000
,
0100
0000
0000
0000
,
0001
0000
0000
0000
,
1000
0000
0010
0000
,
1000
0000
0000
0000
,
0100
0000
0000
0000
,
0010
0000
0000
0000
,
0001
0000
0000
0000
,
1000
0000
0000
0000
,
1000
0000
1000
0000
,
0001
0000
0000
0000
,
0000
0000
0000
0000
,
0100
0000
0000
0000
,
0100
0000
0000
0000
,
0010
0000
0000
0000
,
0000
0000
0000
0000
,
1000
0000
0000
0000
,
0100
0000
0000
0000
,
0010
0000
0000
0000
,
0000
0000
0000
0000
,
0001
0000
0000
0000
,
1000
0000
0000
0000
,
0010
0000
0000
0000
,
1000
0000
0000
0000
,
0002
0000
0000
0000
,
0000
0000
0000
0000
,
1003
0000
0000
0000
,
0100
0000
0000
0000
,
0020
0000
0000
0000
,
0000
0000
0000
0000
,
0031
0000
0000
0000
,
1000
0000
0000
0000
,
0010
0000
0000
0000
,
1000
0000
0001
0000
,
0100
0000
0000
0000
,
0100
0000
0000
0000
,
0100
0000
0000
0000
,
0010
0000
1000
0000
,
0100
0000
0000
0000
,
0010
0000
0000
0000
,
0001
0000
0000
0000
,
0100
0000
0010
0000
,
1000
0000
0000
0000
,
0001
0000
0000
0000
,
0100
0000
0000
0000
,
0010
0000
0000
0000
,
1000
0000
0000
0000
,
1000
0000
0000
0000
,
0001
0000
0000
0000
,
0100
0000
0000
0000
,
0010
0000
0000
0000
,
1000
0000
0000
0000
,
0001
0000
0000
0000
,
0100
0000
0000
0000
,
0002
0000
0000
0000
,
0000
0000
0000
0000
,
1003
0000
0000
0000
,
1000
0000
0000
0000
,
0001
0000
0000
0000
,
0200
0000
0000
0000
,
0000
0000
0000
0000
,
0310
0000
0000
0000
,
1000
0000
0000
0000
,
0200
0000
0000
0000
,
0000
0000
0000
0000
,
0310
0000
0000
0000
,
0001
0000
0000
0000
,
1000
0000
0000
0000
,
0001
0000
0010
0000
,
0100
0000
0000
0000
,
1000
0000
0000
0000
,
0010
0000
0000
0000
,
1000
0000
0001
0000
,
0100
0000
0000
0000
,
0010
0000
0000
0000
,
1000
0000
0000
0000
,
0100
0000
0010
0000
,
0001
0000
0000
0000
,
1000
0000
0000
0000
,
0001
0000
0000
0000
,
0110
0000
0000
0000
,
0000
0000
1001
0000
;

//---------------dance-single - ----------------
#NOTES:
     dance-single:
     :
     Easy:
     4:
     0.310,0.383,0.226,0.019,0.005,205.000,24.000,2.000,0.000,0.000:
0000
0000
0000
0000
,
1000
0100
0010
0000
,
0001
0010
0100
0000
,
1000
0010
0100
0000
,
0001
1000
1001
0000
,
1000
0100
1000
0000
,
0010
0100
0001
0000
,
0010
0100
1000
0000
,
0010
0000
0000
1000
0000
0000
0000
0000
,
0001
0100
0010
0000
,
1000
0100
0010
0000
,
0001
1000
0100
0000
,
0010
0001
0011
0000
,
1000
0010
0100
0000
,
0001
0010
0100
0000
,
0010
0001
0100
0000
,
0010
1000
0001
1000
,
0001
0000
0000
0000
0000
1000
0100
0000
,
0010
0000
1001
0000
,
1000
0000
0100
0000
,
0010
0000
0001
0000
,
1000
0000
0010
0000
,
1000
0100
0010
0001
,
0100
0000
0010
0000
,
1000
0000
0100
0000
,
0010
0000
0001
0000
,
1000
0100
0010
0001
,
1000
0000
0010
0000
,
0100
0000
0001
0000
,
0010
0000
0100
0000
,
1001
0000
0000
0000
,
1000
0100
0010
0000
,
0001
0100
0010
0000
,
1000
0000
0001
0000
,
0100
0000
0010
0000
,
1000
0010
1000
0000
,
0001
0100
0001
0000
,
0010
0000
0100
0000
,
1000
0000
0010
0000
,
1001
0000
0000
1000
,
0001
0000
0000
0100
,
0010
0000
0000
1000
,
0100
0000
1001
0000
,
1001
0000
0000
0100
,
0010
0000
0000
1000
,
0100
0000
0000
0100
,
0001
0000
0011
0000
,
1001
0000
0000
0010
,
1000
0000
0000
0100
,
0010
0000
0000
0010
,
0001
0000
1001
0000
,
1010
0000
0000
0100
,
0010
0000
0000
1000
,
0100
0000
0000
1000
,
2002
0000
0000
3003
,
1000
0000
0010
0000
,
0100
0000
0001
0000
,
1000
0000
0100
0000
,
0010
0001
0100
0001
,
0010
0000
0001
0000
,
0100
0000
0010
0000
,
1000
0000
0100
0000
,
1000
0000
0001
0000
,
0100
0000
0100
0000
,
0010
0000
0010
0000
,
1001
0000
0000
0000
0110
0000
0000
0000
0000
1100
0000
0000
0000
0000
0000
0000
,
1000
0000
0001
0000
,
0100
0000
0010
0000
,
1000
0000
0100
0000
,
0010
0000
0001
0000
,
0100
0000
0010
0000
,
1000
0000
0100
0000
,
1000
0000
0010
0000
,
1000
0000
1001
0000
,
1001
0000
0000
1000
,
0010
0000
0000
0100
,
0001
0000
0000
0010
,
0001
0000
1001
0000
,
1100
0000
0000
0100
,
0010
0000
0000
1000
,
0001
0000
0000
1000
,
0100
0000
1001
0000
,
0110
0000
0000
1000
,
0010
0000
0000
1000
,
0001
0000
0000
0100
,
0001
0000
0011
0000
,
0110
0000
0000
1000
,
0010
0000
0000
0100
,
0001
0000
0000
1000
,
1001
0000
0000
0000
,
0000
0000
0000
1000
0010
0000
0000
0000
;

//---------------dance-single - ----------------
#NOTES:
     dance-single:
     :
     Medium:
     7:
     0.521,0.553,0.235,0.000,0.028,363.000,25.000,0.000,0.000,0.000:
0000
0000
0000
0000
,
1000
0000
0100
0000
0010
1000
0001
0000
,
0100
0000
0010
0000
1000
1000
0001
0000
,
1000
0000
0100
0000
0010
1000
0001
0000
,
0010
0001
0010
0000
1001
0000
0000
0000
,
0100
0000
0010
0000
1000
0001
0100
0000
,
0010
0000
0001
0000
1000
0100
0010
0000
,
0100
0000
0001
0000
0010
1000
0001
0000
,
0010
0001
1000
0000
,
0010
0000
1000
0000
0100
1000
0010
0000
,
0001
0000
0100
0000
0010
0001
1000
0000
,
0100
0000
0010
0000
0001
0100
1000
0000
,
0001
1000
0001
0000
1010
0000
0000
0000
,
0001
0000
0100
0000
0010
0001
1000
0000
,
0100
0000
0010
0000
0001
0100
1000
0000
,
0010
0000
0100
0000
0001
0010
1000
0000
,
0001
1000
0001
0000
1000
0100
1000
0000
,
1000
0000
0000
0000
0000
0001
0100
0010
,
1000
0000
0000
1000
0000
0000
0001
0000
0100
0000
0000
0100
0000
0000
0000
0000
,
0001
0000
1000
0000
,
0010
1000
1000
1000
,
1001
0000
0000
0110
0000
0000
1000
0000
,
1100
0000
0000
0010
0000
0000
0000
0000
,
1000
0001
0100
0010
,
1000
0100
0100
0100
,
0100
0000
0000
0011
0000
0000
0100
0000
,
0101
0000
0000
1000
0000
0000
0000
0000
,
1001
0000
1000
0000
,
0100
0010
0001
1000
,
1010
0000
0000
0100
0000
0000
0001
0000
,
0101
0000
0000
0000
,
1000
0000
0000
0100
0000
0000
0010
0000
,
0001
0000
0000
1000
0010
0010
0000
0000
,
1000
0100
0010
0001
,
0100
0010
1000
0100
,
0010
0000
0000
0001
0000
0000
1000
0000
,
0010
0000
0000
1000
0100
0100
0000
0000
,
0010
0001
0100
0010
,
1000
0001
1000
0000
,
1000
0000
0001
0000
0100
0000
0010
0001
,
1000
0000
0100
0000
0010
0000
0001
0100
,
1000
0000
0100
0000
0010
0000
0001
1000
,
0010
0100
0001
0000
,
1000
0000
0100
0000
0010
0000
0001
0010
,
0001
0000
0100
0000
0010
0000
1000
0100
,
1000
0100
0010
0001
,
0100
0010
0100
0000
0010
0000
0000
0000
,
1000
0000
0100
0000
0010
0000
0001
0010
,
0001
0000
0100
0000
0010
0000
1000
0010
,
1000
0000
0100
0000
0010
0000
0001
0010
,
0001
1000
0010
0000
,
1000
0000
0100
0000
0010
0000
0001
0010
,
0001
0000
0100
0000
0010
0000
1000
0100
,
1000
0000
0001
0000
0100
0000
0010
0100
,
0010
1000
0010
1000
0000
0100
0000
0000
,
0011
0000
0000
0000
,
0000
1000
0001
1000
,
1010
0000
0000
0101
0000
0000
0100
0000
,
0101
0000
0000
0011
0000
0000
0000
0000
,
0100
1000
0010
0100
,
0001
1001
1000
0010
,
1010
0000
0000
1100
0000
0000
0010
0000
,
0011
0000
0000
0000
,
1000
0001
1000
0010
,
1000
0000
0010
0000
1000
0000
0001
0001
,
1000
0001
0000
0000
1000
0010
0000
0000
0000
1001
0000
0000
0000
0000
0000
1000
,
0001
0000
0000
0010
0000
0000
0100
1000
,
1100
0000
0000
0010
0100
0001
0000
0000
,
0010
0100
1000
0010
,
0100
0001
0010
0100
,
1000
0000
0000
0010
0000
0000
0100
0001
,
0100
0000
0000
0010
1000
0010
0000
0000
,
1000
0100
0010
0001
,
1000
0010
1001
0000
,
1000
0000
0100
0000
0010
0000
0001
0010
,
0001
0000
0100
0000
0010
0000
1000
0100
,
0010
0000
0001
0000
1000
0000
0010
0100
,
0010
1000
0100
0000
,
0010
0000
0001
0000
1000
0000
0010
1000
,
0100
0000
0010
0000
0001
0000
0100
0010
,
1000
0000
0100
0000
0010
0000
0001
0010
,
0001
0010
1001
0000
,
1000
0000
0100
0000
0010
0000
0001
0010
,
0001
0000
0100
0000
0010
0000
1000
0100
,
0010
0000
0001
0000
1000
0000
0010
1000
,
0010
1000
0010
0000
0101
0000
0000
0000
,
1000
0000
0100
0000
0010
0000
0001
0010
,
0001
0000
1000
0000
0010
0000
0100
0001
,
1000
0000
0100
0000
0010
0000
0001
1000
,
1001
0000
0000
0000
,
0000
0000
0000
1000
1000
0000
0000
0000
;

//---------------dance-single - ----------------
#NOTES:
     dance-single:
     :
     Hard:
     10:
     0.777,0.809,0.677,0.038,0.320,502.000,72.000,4.000,0.000,0.000:
0000
0000
0000
0000
,
1000
0100
0010
0001
1000
1000
1000
1000
,
0010
0100
0001
1000
0010
0010
0010
0010
,
0100
0001
1000
0100
0010
0010
0010
0010
,
0001
1000
0001
0000
0100
0010
0100
0000
1001
0000
0000
0000
0000
0000
0000
0000
,
0001
0010
0100
1000
0001
0001
0001
0001
,
0100
0010
1000
0001
0100
0100
0100
0100
,
0010
1000
0001
0010
0100
0100
0100
0100
,
1000
0001
1000
0000
0010
0100
0110
0000
0000
0000
0001
0000
1000
0000
0001
0000
,
1000
0100
0010
0001
1000
1000
1000
1000
,
0010
0100
0001
1000
0010
0010
0010
0010
,
0100
0001
1000
0100
0010
0010
0010
0010
,
0001
1000
0001
0000
0100
0010
0100
0000
1001
0000
0000
0000
0000
0000
0000
0000
,
0001
0010
0100
1000
0001
0001
0001
0001
,
0100
0010
1000
0001
0100
0100
0100
0100
,
0010
1000
0001
0010
0100
0100
0100
0100
,
1000
0001
0010
1000
0001
0100
1000
0010
,
0101
0000
0010
0000
1000
0001
0001
0001
,
0001
0000
0000
0001
1000
0000
0001
0000
0001
0000
0000
0001
1000
0000
0000
0000
,
1001
0001
0100
0010
,
1000
0101
0101
0101
,
1001
0000
0000
1100
0000
0000
0101
0000
,
1001
0000
0000
1100
0000
0000
0000
0000
,
0101
1000
0010
0100
,
0100
1001
1100
0101
,
1001
0000
0000
1100
0000
0000
0101
0000
,
1001
0000
0000
0101
0000
0000
0000
0000
,
1100
0001
0100
0001
,
1000
0110
0101
1001
,
1100
0000
0000
0101
0000
0000
1001
0000
,
2002
0000
0000
0000
0000
0000
0000
0000
0000
0000
0000
0000
0000
3003
0000
0000
,
1000
0100
1000
0010
0000
0000
0100
0001
,
0101
0000
0000
0001
1000
1001
0000
0000
,
1000
0100
0010
0001
0100
0001
0100
0010
,
1000
0100
1000
0010
0100
0010
1000
0001
,
1000
0001
0100
0010
0000
0000
1000
0001
,
0101
0000
0000
0001
0010
0011
0000
0000
,
0001
0010
0100
1000
0010
0100
0001
1000
,
0001
0100
0010
1000
1100
0000
0101
0000
,
1000
0000
0000
1000
0000
0000
1000
0000
0000
1000
0000
0000
1000
0000
1000
0000
,
0001
0000
0000
0001
0000
0000
0001
0000
0000
0001
0000
0000
0001
0000
0001
0000
,
0100
0000
0000
0100
0000
0000
0100
0000
0000
0100
0000
0000
0100
0000
0100
0000
,
0010
0000
0010
0000
0010
0000
0010
1000
0000
0000
0000
0000
0000
0000
0000
0000
,
0001
0000
0000
0001
0000
0000
0001
0000
0000
0001
0000
0000
0001
0000
0001
0000
,
1000
0000
0000
1000
0000
0000
1000
0000
0000
1000
0000
0000
1000
0000
1000
0000
,
0010
0000
0000
0010
0000
0000
0010
0000
0000
0010
0000
0000
0010
0000
0010
0000
,
0100
0000
0100
0000
0100
0000
0100
0001
0000
0000
0000
0000
0000
0000
0000
0000
,
1000
0000
0000
1000
0000
0000
1000
0000
0000
1000
0000
0000
1000
0000
1000
0000
,
0001
0000
0000
0001
0000
0000
0001
0000
0000
0001
0000
0000
0001
0000
0001
0000
,
0100
0000
0000
0100
0000
0000
0100
0000
0000
0100
0000
0000
0100
0000
0100
0000
,
0010
0000
0010
0000
0010
0000
0010
1000
0000
0000
0000
0000
0000
0000
0000
0000
,
0001
0000
0000
0001
0000
0000
0001
0000
0000
0001
0000
0000
0001
0000
0001
0000
,
1000
0000
0000
1000
0000
0000
1000
0000
0000
1000
0000
0000
1000
0000
1000
0000
,
0010
0000
0000
0010
0000
0000
0010
0000
0000
0010
0000
0000
0010
0000
0010
0000
,
0100
0100
0100
0100
0000
1001
0000
0000
,
1001
1000
0010
0100
,
0001
1010
1010
1010
,
1001
0000
0000
0011
0000
0000
1010
0000
,
1001
0000
0000
0011
0000
0000
0000
0000
,
1010
0001
0100
0010
,
0010
1001
0011
1010
,
1001
0000
0000
0011
0000
0000
1010
0000
,
1001
0000
0000
1010
0000
0000
0000
0000
,
0011
1001
0110
1001
,
1001
0110
1010
1001
,
0001
0001
0000
0000
1000
1000
0000
0000
0000
0010
0000
0010
0000
0100
0000
0100
,
0001
0010
0001
0100
0000
0000
0010
1000
,
1010
0000
0000
1000
0001
1001
0000
0000
,
0001
0010
0100
1000
0010
1000
0010
0100
,
0001
0010
0001
0100
0010
0100
0001
1000
,
0001
1000
0010
0100
0000
0000
0001
1000
,
1010
0000
0000
1000
0100
1100
0000
0000
,
1000
0100
0010
0001
0100
0010
1000
0001
,
1000
0010
0100
0001
0011
0000
1010
0000
,
0001
0000
0000
0001
0000
0000
0001
0000
0000
0001
0000
0000
0001
0000
0001
0000
,
1000
0000
0000
1000
0000
0000
1000
0000
0000
1000
0000
0000
1000
0000
1000
0000
,
0010
0000
0000
0010
0000
0000
0010
0000
0000
0010
0000
0000
0010
0000
0010
0000
,
0100
0000
0100
0000
0100
0000
0100
0001
0000
0000
0000
0000
0000
0000
0000
0000
,
1000
0000
0000
1000
0000
0000
1000
0000
0000
1000
0000
0000
1000
0000
1000
0000
,
0001
0000
0000
0001
0000
0000
0001
0000
0000
0001
0000
0000
0001
0000
0001
0000
,
0100
0000
0000
0100
0000
0000
0100
0000
0000
0100
0000
0000
0100
0000
0100
0000
,
0010
0000
0010
0000
0010
0000
0010
1000
0000
0000
0000
0000
0000
0000
0000
0000
,
0001
0000
0000
0001
0000
0000
0001
0000
0000
0001
0000
0000
0001
0000
0001
0000
,
1000
0000
0000
1000
0000
0000
1000
0000
0000
1000
0000
0000
1000
0000
1000
0000
,
0010
0000
0000
0010
0000
0000
0010
0000
0000
0010
0000
0000
0010
0000
0010
0000
,
0100
0000
0100
0000
0100
0000
0100
0001
0000
0000
0000
0000
0000
0000
0000
0000
,
1000
0000
0000
1000
0000
0000
1000
0000
0000
1000
0000
0000
1000
0000
1000
0000
,
0001
0000
0000
0001
0000
0000
0001
0000
0000
0001
0000
0000
0001
0000
0001
0000
,
0100
0000
0000
0100
0000
0000
0100
0000
0000
0100
0000
0000
0100
0000
0100
0000
,
0220
0000
0000
0000
,
0000
0000
0330
1001
1001
0000
0000
0000
;

//---------------dance-single - ----------------
#NOTES:
     dance-single:
     :
     Challenge:
     12:
     1.000,1.000,1.000,0.132,0.748,752.000,150.000,14.000,0.000,0.000:
0000
0000
0000
0000
,
1000
0100
1000
0000
0001
0010
0001
0000
1000
0000
0010
0000
0100
0000
0001
0000
,
1000
0010
1000
0000
0001
0100
0001
0000
0100
0000
0010
0000
1000
0000
0100
0000
,
0010
0001
0010
0000
0100
0010
0100
0000
1000
0000
0010
0000
1000
0000
0010
0000
,
1000
0100
1000
0000
0001
0100
0001
0000
0220
0000
0000
0000
0000
0000
0000
0330
,
0001
0010
0001
0000
1000
0100
1000
0000
0001
0000
0100
0000
0010
0000
1000
0000
,
0001
0100
0001
0000
1000
0010
1000
0000
0010
0000
0100
0000
0001
0000
0010
0000
,
0100
1000
0100
0000
0010
0100
0010
0000
0001
0000
0100
0000
0001
0000
0100
0000
,
0001
0010
0001
0000
1000
0010
1001
0000
0000
0000
1000
0000
0010
0000
0100
0000
,
0001
0010
0001
0000
1000
0100
1000
0000
0001
0000
0100
0000
0010
0000
1000
0000
,
0001
0100
0001
0000
1000
0010
1000
0000
0010
0000
0100
0000
0001
0000
0010
0000
,
0100
1000
0100
0000
0010
0100
0010
0000
0001
0000
0100
0000
0001
0000
0100
0000
,
0001
0010
0001
0000
1000
0010
1000
0000
0220
0000
0000
0000
0000
0000
0000
0330
,
1000
0100
1000
0000
0001
0010
0001
0000
1000
0000
0010
0000
0100
0000
0001
0000
,
1000
0010
1000
0000
0001
0100
0001
0000
0100
0000
0010
0000
1000
0000
0100
0000
,
0010
0001
0010
0000
0100
0010
0100
0000
1000
0000
0010
0000
1000
0000
0010
0000
,
1000
0001
1000
0010
1000
0100
1000
0010
1000
0001
1000
0000
0010
0000
0010
0000
,
1001
0001
0100
0010
1000
0100
0010
0001
0100
0010
1100
0010
0101
0010
1100
0010
,
1100
0001
0100
0110
1000
0100
0101
0010
1100
0010
0001
1100
0010
1000
0001
1000
,
0110
0010
1000
0001
0001
0100
0001
0001
,
0100
0010
1100
0010
1001
0100
1001
0100
,
1001
0100
0010
1010
1000
0100
0110
0010
,
0011
0100
1000
0011
0001
0100
1000
1000
,
0011
0100
0001
0100
1000
0100
0010
0100
,
0001
0100
1010
0010
1010
0100
1100
0010
,
0011
0100
0010
1100
0001
0100
0011
0001
,
1100
0010
1000
1001
0001
0100
0001
1000
,
1001
0010
1000
0100
0001
0100
0010
0010
,
1000
0100
1010
0001
0110
0100
0011
0100
,
1001
1000
0010
1100
1000
0100
1001
0001
,
1010
0100
0010
0010
0001
0100
0001
1000
,
1000
0010
0100
0020
0000
0000
1030
0100
,
2000
0000
0000
3001
0100
0010
1000
0000
,
1000
1000
0100
0100
0010
0010
0001
0001
,
0100
0100
0010
0010
1000
1000
0001
0001
,
0100
0010
1000
0200
0000
0000
0310
0001
,
0020
0000
0000
0031
0100
1010
0000
0000
,
1000
1000
0010
0010
0100
0100
0001
0001
,
1000
1000
0001
0001
1001
0000
0110
0000
,
1000
0100
0000
1000
0100
0000
0100
1000
0000
0100
1000
0000
0101
0000
0101
0000
,
0100
0010
0000
0100
0010
0000
0010
0100
0000
0010
0100
0000
1100
0000
1100
0000
,
0001
0100
0000
0001
0100
0000
0100
0001
0000
0100
0001
0000
1001
0000
1001
0000
,
1100
0000
1100
0000
0110
0000
0001
1010
0000
0000
0000
0000
0000
0000
0000
0000
,
0100
0001
0000
0100
0001
0000
0001
0100
0000
0001
0100
0000
0011
0000
0011
0000
,
0001
1000
0000
0001
1000
0000
1000
0001
0000
1000
0001
0000
0101
0000
0101
0000
,
0010
0001
0000
0010
0001
0000
0001
0010
0000
0001
0010
0000
0110
0000
0110
0000
,
0101
0000
0101
0000
1001
0000
0010
1100
0000
0000
0000
0000
0000
0000
0000
0000
,
0010
1000
0000
0010
1000
0000
1000
0010
0000
1000
0010
0000
1100
0000
1100
0000
,
1000
0001
0000
1000
0001
0000
0001
1000
0000
0001
1000
0000
1010
0000
1010
0000
,
0100
1000
0000
0100
1000
0000
1000
0100
0000
1000
0100
0000
0110
0000
0110
0000
,
1010
0000
1010
0000
1001
0000
0100
0011
0000
0000
0000
0000
0000
0000
0000
0000
,
0001
0010
0000
0001
0010
0000
0010
0001
0000
0010
0001
0000
1010
0000
1010
0000
,
0010
0100
0000
0010
0100
0000
0100
0010
0000
0100
0010
0000
0011
0000
0011
0000
,
1000
0010
0000
1000
0010
0000
0010
1000
0000
0010
1000
0000
1001
0000
1001
0000
,
0011
0011
0110
1001
0000
1100
0000
0000
,
0110
0100
0001
0100
1000
0010
1000
0100
,
0010
0100
1010
1000
0011
0010
0101
0001
,
1001
0010
0100
1001
0001
0010
0110
1000
,
0101
0010
0001
1100
1000
0010
0100
0001
,
1100
0010
1000
0010
0001
0010
0100
0010
,
1000
0010
0101
0100
1001
0010
0011
0100
,
1100
0010
0100
1001
1000
0010
1100
0010
,
1001
0100
0001
0001
1000
0010
1000
0001
,
0001
0100
0001
0100
1000
0010
0100
0001
,
0001
0010
0001
1000
0100
0010
0100
0010
,
1001
0101
0000
0000
1001
0011
0000
0000
0000
0110
0000
0101
0000
1010
0000
1001
,
0110
0100
0010
0200
0000
0000
0301
0010
,
0002
0000
0000
1003
0010
0100
0001
0000
,
0001
0001
0010
0010
0100
0100
1000
1000
,
0010
0010
0100
0100
0001
0001
1000
1000
,
0010
0100
0001
0020
0000
0000
0130
1000
,
0200
0000
0000
1300
0010
0101
0000
0000
,
0001
0001
0100
0100
0010
0010
1000
1000
,
0001
0001
1000
1000
1001
0000
0110
0000
,
0001
0010
0000
0001
0010
0000
0010
0001
0000
0010
0001
0000
1010
0000
1010
0000
,
0010
0100
0000
0010
0100
0000
0100
0010
0000
0100
0010
0000
0011
0000
0011
0000
,
1000
0010
0000
1000
0010
0000
0010
1000
0000
0010
1000
0000
1001
0000
1001
0000
,
0011
0000
0011
0000
0110
0000
1000
0101
0000
0000
0000
0000
0000
0000
0000
0000
,
0010
1000
0000
0010
1000
0000
1000
0010
0000
1000
0010
0000
1100
0000
1100
0000
,
1000
0001
0000
1000
0001
0000
0001
1000
0000
0001
1000
0000
1010
0000
1010
0000
,
0100
1000
0000
0100
1000
0000
1000
0100
0000
1000
0100
0000
0110
0000
0110
0000
,
1010
0000
1010
0000
1001
0000
0100
0011
0000
0000
0000
0000
0000
0000
0000
0000
,
0100
0001
0000
0100
0001
0000
0001
0100
0000
0001
0100
0000
0011
0000
0011
0000
,
0001
1000
0000
0001
1000
0000
1000
0001
0000
1000
0001
0000
0101
0000
0101
0000
,
0010
0001
0000
0010
0001
0000
0001
0010
0000
0001
0010
0000
0110
0000
0110
0000
,
0101
0000
0101
0000
1001
0000
0010
1100
0000
0000
0000
0000
0000
0000
0000
0000
,
1000
0100
0000
1000
0100
0000
0100
1000
0000
0100
1000
0000
0101
0000
0101
0000
,
0100
0010
0000
0100
0010
0000
0010
0100
0000
0010
0100
0000
1100
0000
1100
0000
,
0001
0100
0000
0001
0100
0000
0100
0001
0000
0100
0001
0000
1001
0000
1001
0000
,
2200
0000
0000
0000
,
0000
0000
3300
1001
1001
0000
0000
0000
;
