#TITLE:My Turn is Your Turn;
#SUBTITLE:;
#ARTIST:SharpnelSound;
#TITLETRANSLIT:;
#SUBTITLETRANSLIT:;
#ARTISTTRANSLIT:;
#CREDIT:;
#BANNER:My Turn Is Your Turn - bn.png;
#BACKGROUND:My Turn Is Your Turn - bg.png;
#LYRICSPATH:;
#CDTITLE:;
#MUSIC:Sharpnel Sounds - My Turn Is Your Turn - .ogg;
#OFFSET:0.013;
#SAMPLESTART:31.708;
#SAMPLELENGTH:12.000;
#SELECTABLE:YES;
#BPMS:0.000=189.300;
#STOPS:;
#BGCHANGES:;
// cache tags:
#FIRSTBEAT:0.000;
#LASTBEAT:468.000;
#SONGFILENAME:Songs/SSSC PACK/[Yayo] - My Turn is Your Turn/steps.sm;
#HASMUSIC:1;
#HASBANNER:1;
#MUSICLENGTH:105.000;
// end cache tags

//---------------dance-single - yayo
     Blank----------------
#NOTES:
     dance-single:
     yayo
     Blank:
     Challenge:
     13:
     1.000,1.000,0.486,0.019,1.000,1212.000,51.000,2.000,41.000,3.000:



1000
0001
0100
0010
,
1000
0000
0001
0000
0010
0000
0100
1000
,
0001
0100
0010
1000
,
0001
0000
0000
0000
0100
0000
0000
0000
0001
0000
0010
0000
0100
1000
0010
0100
,
0001
0100
0010
1000
,
0001
0000
0100
0000
0001
0000
0010
0100
,
1000
0000
0010
0000
0100
0000
0001
1000
,
0100
0010
0001
0010
0100
1000
0010
1000
0010
0100
0001
1000
0001
0010
0100
1000
,
0001
0000
0100
0000
0010
1000
0010
0000
0100
0001
0000
0010
0100
1000
0001
0100
,
0010
0000
0100
0000
0001
0010
0001
0000
0010
0100
0000
1000
0010
0100
0001
0010
,
0100
0000
1000
0000
0010
0100
0001
0000
0010
0100
0000
1000
0001
0100
0010
0100
,
0001
0000
0010
0000
0100
1000
0001
0000
0100
0010
0000
1000
0010
0100
0001
1000
,
0100
0000
0010
0000
0001
0010
0100
0000
1000
0010
0000
0100
0001
0010
0100
1000
,
0010
0000
0100
0000
0010
1000
0001
0000
0010
0100
0000
0100
1000
0001
0100
0010
,
0100
0000
0010
0000
0100
0001
1000
0000
0100
0010
0000
0001
0010
0100
1000
0100
,
0010
0000
0001
0000
0100
0010
1000
0000
0010
1000
0000
0001
0010
0100
0010
0001
,
0100
1010
1001
0011
,
0110
0101
1010
1001
,
0110
0011
1100
1001
,
0110
0011
0101
1001
,
1010
0011
1001
1010
,
0101
0011
1100
0110
,
1001
0000
0000
0000
1000
0100
0010
0001
0100
0010
1000
0010
0100
0001
0010
0100
,
1000
0010
0100
0000
0010
1000
0000
0001
0010
0100
1000
0001
0100
0010
1000
0000
,
0001
0010
0100
0000
1000
0010
0100
0000
0001
0010
0000
0100
1000
0010
0100
0000
,
0010
0100
0001
0000
0010
0100
1000
0000
0001
0100
0000
0010
1000
0010
0100
0000
,
0001
0010
0001
0000
1000
0010
1000
0000
0010
0100
0000
0100
0001
1000
0100
0000
,
0010
0001
0100
0000
0010
1000
0010
0000
0100
0001
0000
1000
0100
0010
0001
0000
,
1000
0001
0100
0000
0001
1000
0100
0000
0010
0001
0000
0010
0100
1000
0010
0000
,
0100
0010
1000
0000
0010
0100
0001
0000
1000
0100
0000
0010
0001
0100
0010
0000
,
1000
0010
0100
0000
0001
1000
0100
0000
0010
0100
0000
1000
0001
0100
0010
0000
,
0100
0001
1000
0000
0100
0010
0001
0000
0010
0001
0000
0100
0010
1000
0001
0000
,
1000
0010
0100
0001
0010
0100
0010
0001
1000
0001
0100
0010
1000
0001
0010
0100
,
1000
0010
1000
0001
0010
0100
1000
0010
1000
0010
0100
0001
0100
0010
1000
0001
,
1000
0100
1000
0001
0010
0001
0100
0010
1000
0010
0100
0010
1000
0001
0010
0100
,
1000
0001
0100
0010
0100
0001
0010
0100
1000
0001
0100
0001
1000
0010
0100
0001
,
0010
0100
0010
0001
1000
0010
0100
0001
0010
0100
1000
0010
0100
0001
1000
0010
,
0100
0001
0100
0010
0100
0010
1000
0100
0010
0100
0010
0001
0100
0010
1000
0001
,
0100
0010
1000
0001
0010
0100
0010
0001
1000
0010
0100
0010
1000
0001
0010
0100
,
1000
0010
0100
0001
0010
0100
1000
0100
1000
0001
0100
0001
0100
0010
1000
0001
,
0100
0000
0000
0000
0MM0
0000
0000
M00M
0MM0
0000
0000
0000
0000
0000
0000
0000
,
0000
0MM0
MMMM
0000
,
0001
0000
0100
0000
0010
0000
1000
0000
0010
0100
0001
1000
0100
0010
0100
1000
,
0010
0000
1000
0000
0010
1000
0010
0000
0100
0000
0001
0000
0010
0001
0010
0000
,
0100
0000
1000
0000
0001
1000
0001
0000
0100
0000
0010
0000
1000
0001
1000
0000
,
0001
0000
0100
0000
0010
0100
0010
0000
1000
0000
0100
0000
0010
0001
0010
0000
,
0100
0000
1000
0000
0001
0100
0001
0000
0100
0000
0001
0000
0010
0001
0010
0000
,
0100
0000
0010
0000
0001
0010
0100
0000
1000
0000
0001
0000
0100
0001
1000
0000
,
0100
0000
0010
0000
0100
1000
0001
0000
0100
0000
0010
0000
1000
0001
0100
0000
,
0010
0000
0100
0000
0001
0010
0100
0000
1000
0000
0001
0000
1000
0010
0100
0000
,
0001
0000
0010
0000
0001
1000
0010
0000
0100
0000
0001
0000
0010
0100
1000
0000
,
0010
0000
0100
0000
0001
1000
0010
0000
0100
0000
0001
0000
0010
0100
1000
0000
,
0100
0000
0010
0000
0001
0010
0100
0000
1000
0000
0001
0000
1000
0100
0010
0000
,
0001
0000
1000
0000
0100
0010
0001
0000
0100
0000
0010
0000
0100
0010
1000
0000
,
0100
0000
0010
0000
0001
0100
0010
0000
0100
0000
0001
0000
1000
0001
1000
0001
,
1000
0001
0100
1010
0010
0100
0101
0001
,
0010
0000
0100
0000
1000
0001
1000
0000
0001
0000
0100
0000
0010
0000
1010
0000
,
1000
0100
0110
0001
0100
0101
0001
0010
,
0100
0000
1000
0000
0001
0000
0001
0000
1000
0010
0100
0001
0010
0100
1000
0100
,
0010
0001
0100
0001
0100
0010
1000
0010
0100
0001
0010
0100
1000
0001
0100
0010
,
0100
0001
1000
0010
0100
0001
0010
0100
0010
0100
0010
0001
1000
0001
0100
0010
,
1000
0010
1000
0001
0010
0100
0010
0001
1000
0001
0100
0010
1000
0010
0100
0001
,
0010
0100
1000
0010
0100
0010
1000
0001
0100
0001
0010
0100
0010
0001
0100
0010
,
1000
0000
0001
0000
0100
0000
0100
0000
0010
1000
0010
0000
0100
0000
0001
0000
,
0010
0000
0010
0000
0100
0000
1000
0000
0001
1000
0001
1000
0001
0000
0100
0000
,
0100
0000
0010
0000
1000
0000
0100
0000
0010
0001
0010
0000
0100
0000
0100
0000
,
1000
0010
1000
0001
0010
0001
1000
0100
1000
0001
0100
0001
1000
0010
1000
0000
,
0010
0000
0100
0000
0001
0000
0010
0000
0100
0000
1000
0010
0000
0100
0001
0000
,
0010
0000
0100
0000
1000
0000
0001
0000
0100
0000
0010
1000
0000
0001
0010
0000
,
0100
0000
0010
0000
0001
0000
1000
0000
0010
0000
0100
0001
0000
0010
0100
0000
,
1000
0000
0100
0000
0010
0000
0100
0000
1000
0000
0010
0100
0000
0001
1000
0000
,
0100
0000
0010
0000
0001
0000
0010
0000
0100
0000
1000
0001
0000
1000
0001
0000
,
0100
0000
0010
0000
1000
0000
0001
0000
0010
0000
0100
0010
0000
0100
1000
0000
,
0001
0000
0100
0000
0010
0000
1000
0000
0001
0000
0010
0100
0000
1000
0001
0000
,
1000
0010
0100
0010
0100
0001
0010
0100
0010
0100
1000
0001
1000
0010
0100
0010
,
1000
1000
0010
0100
0100
0001
0010
0100
,
1100
0000
1000
0000
0001
0000
0100
0000
0100
0000
0010
0000
1000
0000
0001
1000
,
0001
0000
1000
0000
0100
0000
0010
0000
0001
0000
1000
0010
0100
0001
0010
0000
,
0100
0000
1000
0000
1010
0000
0010
0000
0100
0001
1000
0000
0100
0000
0100
0000
,
0010
0001
0011
0001
1000
0010
0100
0001
,
0110
0000
1000
0000
1001
0000
0001
0000
0100
0000
0100
0000
0010
1000
0010
0000
,
1000
0000
0100
0000
0010
0000
0001
0000
0100
0000
0010
0000
1000
0010
0100
0001
,
0010
0000
0100
0000
1000
0000
0010
0000
0100
0001
0010
0000
0100
0000
0010
0000
,
0001
0001
0001
0001
0101
0000
1000
1010
,
0000
0011
0000
0110
0000
1011
0000
0000
,
1000
1000
1000
1000
1100
0000
0010
0110
,
0000
0101
0000
1010
0000
1101
0000
0000
,
1010
0010
0110
0100
0101
0000
0100
1010
,
0000
1001
0000
1111
0000
0000
0000
0000
,
1000
0001
0100
0010
1000
0001
0010
0100
,
1000
0000
0010
0000
1000
0010
0100
0010
0100
0001
0010
0100
0010
0001
1000
0001
,
0100
0010
1000
0000
0010
0100
0001
0000
0010
0100
1000
0000
0001
0100
0010
0000
,
1000
0100
0010
0000
0001
1000
0010
0000
0100
0001
0010
0100
1000
0001
0100
0000
,
0010
1000
0001
0000
1000
0100
0010
0000
0001
1000
0100
0000
0010
0001
0100
0000
,
0010
1000
0100
0000
0010
0001
0100
0000
0010
1000
0001
0100
0010
1000
0100
0000
,
0010
0001
0100
0000
0010
1000
0001
0000
0010
0100
1000
0000
0010
0100
0001
0000
,
1000
0001
0100
0000
0010
1000
0001
0000
0010
0100
1000
0010
0100
0001
0010
0000
,
0100
1000
0001
0100
0010
1000
0001
0100
0001
0010
0100
1000
0001
0100
0010
1000
,
0001
0010
0100
0010
0001
1000
0001
0100
0010
1000
0001
0100
0001
0000
1000
0000
,
0010
1000
0100
0000
0010
0001
0010
0000
0001
0100
0010
0000
1000
0001
0100
0000
,
0010
1000
0001
0000
0010
0100
1000
0000
0001
0100
0010
1000
0001
0010
0100
0000
,
1000
0001
0100
0000
0010
0100
0001
0000
1000
0001
1000
0000
0010
0100
0001
0000
,
0010
0100
1000
0000
0001
1000
0100
0000
0010
0001
1000
0010
0100
0001
1000
0000
,
0001
1000
0100
0000
0010
0001
1000
0000
0010
1000
0001
0000
1000
0100
0010
0000
,
0001
1000
0010
0000
1000
0001
1000
0000
0001
0010
0100
1000
0001
0100
0001
0000
,
1000
0001
0010
0100
1000
0001
0100
0001
0100
0010
1000
0010
0100
0001
0010
0100
,
0010
0001
1000
0010
0100
0010
1000
0001
0010
0100
1000
0001
0100
0000
0001
0000
,
1000
0000
0001
0000
0010
0100
1000
0000
0010
0100
0000
0001
0010
0100
1000
0010
,
0100
0000
0001
0000
0010
0100
1000
0000
0010
0100
0000
0001
0100
0010
1000
0010
,
0100
0000
0010
0000
1000
0100
0010
0000
0001
0100
0000
0010
1000
0001
0010
0100
,
1000
0000
0001
0000
0100
0010
1000
0000
0010
1000
0000
0010
0100
0001
0010
0100
,
1000
0000
0010
0000
0100
0001
0010
0000
0100
1000
0000
0001
0100
0001
0010
0100
,
1000
0000
0001
0000
0100
0010
1000
0000
0010
0100
0000
0001
0010
0100
0010
0001
,
1000
0000
0010
0000
1000
0010
1000
0000
0001
0100
0000
0001
1000
0100
0010
0100
,
1000
0001
1000
0001
0010
0001
0010
0100
0010
0100
1000
0001
1000
0001
0100
0010
,
2002
0000
0MM0
0M00
0MM0
0M00
0M00
0000
0000
0MM0
0MM0
0MM0
0MM0
0000
0000
00M0
,
0M00
0M00
0M00
00M0
0000
0000
0M00
0M00
0MM0
0M00
0MM0
0M00
0M00
0000
0000
0000
,
3003
0000
0000
0000
;
