#TITLE:Slayers Try;
#SUBTITLE:- Don't Be Discouraged;
#ARTIST:林原めぐみ;
#TITLETRANSLIT:;
#SUBTITLETRANSLIT:;
#ARTISTTRANSLIT:Megumi Hayashibara;
#CREDIT:;
#BANNER:dbd.png;
#BACKGROUND:dbd-BG.png;
#LYRICSPATH:;
#CDTITLE:;
#MUSIC:dgdc.mp3;
#OFFSET:0.000;
#SAMPLESTART:40.019;
#SAMPLELENGTH:12.000;
#SELECTABLE:YES;
#BPMS:0.000=149.930;
#STOPS:;
#BGCHANGES:;
// cache tags:
#FIRSTBEAT:4.000;
#LASTBEAT:216.000;
#SONGFILENAME:Songs/Anime Songs/dontbediscouraged/dbd.sm;
#HASMUSIC:1;
#HASBANNER:1;
#MUSICLENGTH:88.718;
// end cache tags

//---------------dance-single - ----------------
#NOTES:
     dance-single:
     :
     Easy:
     3:
     0.282,0.274,0.045,0.214,0.000,152.000,4.000,19.000,0.000,0.000:  // measure 1
0000
0000
0000
0000
,  // measure 2
0001
0000
1000
0000
,  // measure 3
0010
0000
0100
0000
,  // measure 4
0010
0000
0001
0000
,  // measure 5
0100
0000
1000
0000
,  // measure 6
0010
0000
0100
0000
,  // measure 7
0001
0000
1000
0000
,  // measure 8
0002
0000
0000
0000
0000
0000
0000
0000
0000
0000
0000
0000
0000
0000
0000
0000
0000
0000
0000
0000
0000
0000
0000
0000
0000
0000
0000
0000
0000
0000
0000
0003
,  // measure 9
0001
1000
0001
1000
,  // measure 10
0010
0010
0100
0100
,  // measure 11
2000
0000
0000
0000
0000
0000
0000
0000
0000
0000
0000
0000
0000
0000
0000
3000
0002
0000
0000
0000
0000
0000
0000
0000
0000
0000
0000
0000
0000
0000
0000
0003
,  // measure 12
0000
1010
0000
0101
,  // measure 13
0010
1000
0010
1000
,  // measure 14
0100
0001
0100
0001
,  // measure 15
0010
0100
0010
0100
,  // measure 16
0002
0000
0000
0000
0000
0000
0000
0000
0000
0000
0000
0000
0000
0000
0000
0003
2000
0000
0000
0000
0000
0000
0000
0000
0000
0000
0000
0000
0000
0000
0000
3000
,  // measure 17
0001
0010
0100
1000
,  // measure 18
1000
0100
0010
0001
,  // measure 19
0020
0000
0000
0000
0000
0000
0000
0000
0000
0000
0000
0000
0000
0000
0000
0030
0002
0000
0000
0000
0000
0000
0000
0000
0000
0000
0000
0000
0000
0000
0000
0003
,  // measure 20
0000
0000
0000
0000
,  // measure 21
0001
0010
0001
0100
,  // measure 22
0100
0100
0010
0010
,  // measure 23
0010
1000
0010
1000
,  // measure 24
0020
0000
0000
0000
0000
0000
0000
0000
0000
0000
0000
0000
0000
0000
0000
0030
2000
0000
0000
0000
0000
0000
0000
0000
0000
0000
0000
0000
0000
0000
0000
3000
,  // measure 25
1000
0100
0010
0001
,  // measure 26
0001
0001
1000
1000
,  // measure 27
0020
0000
0000
0000
0000
0000
0000
0000
0000
0000
0000
0000
0000
0000
0000
0030
0200
0000
0000
0000
0000
0000
0000
0000
0000
0000
0000
0000
0000
0000
0000
0300
,  // measure 28
0000
0000
0000
0000
,  // measure 29
0001
0000
1000
0000
,  // measure 30
0010
0000
0100
0000
,  // measure 31
0001
0000
1000
1000
,  // measure 32
0002
0000
0000
0000
0000
0000
0000
0000
0000
0000
0000
0000
0000
0000
0000
0003
2000
0000
0000
0000
0000
0000
0000
0000
0000
0000
0000
0000
0000
0000
0000
3000
,  // measure 33
0001
0000
1000
0001
,  // measure 34
0001
0010
0100
1000
,  // measure 35
0010
0100
0010
1000
,  // measure 36
0001
0000
0000
1000
0000
0000
0000
0000
,  // measure 37
0001
0001
0100
0100
,  // measure 38
0010
0100
0001
1000
,  // measure 39
0010
0010
1000
1000
,  // measure 40
0001
0001
0010
0000
,  // measure 41
0010
0010
1000
0000
,  // measure 42
0001
0001
0001
0000
,  // measure 43
0010
0100
1000
0001
,  // measure 44
0010
0100
0010
0100
,  // measure 45
0000
0000
0000
0000
0000
0000
0000
0000
2002
0000
0000
0000
0000
0000
0000
0000
0000
0000
0000
0000
0000
0000
0000
0000
0000
0000
0000
0000
0000
0000
0000
3003
,  // measure 46
0000
0000
0000
0000
,  // measure 47
0001
0010
0100
1000
,  // measure 48
1000
0100
0010
0001
,  // measure 49
0001
0100
0001
0100
,  // measure 50
0002
0000
0000
0000
0000
0000
0000
0000
0000
0000
0000
0000
0000
0000
0000
0003
0200
0000
0000
0000
0000
0000
0000
0000
0000
0000
0000
0000
0000
0000
0000
0300
,  // measure 51
1000
0010
1000
0010
,  // measure 52
0001
0010
0001
0100
,  // measure 53
0020
0000
0000
0000
0000
0000
0000
0000
0000
0000
0000
0000
0000
0000
0000
0030
0200
0000
0000
0000
0000
0000
0000
0000
0000
0000
0000
0000
0000
0000
0000
0300
,  // measure 54
0000
0010
0000
0000
0000
0000
0010
0000
,  // measure 55
1001
0000
0000
0000
;

//---------------dance-single - ----------------
#NOTES:
     dance-single:
     :
     Medium:
     6:
     0.464,0.578,0.800,0.293,0.068,191.000,71.000,26.000,0.000,0.000:  // measure 1
0000
0000
0000
0000
,  // measure 2
1000
1000
1001
1000
,  // measure 3
0001
0000
0000
0000
0000
1000
0000
0000
0001
0000
0000
0000
1000
0000
0000
0000
0000
0000
0000
0000
0000
0000
0000
0000
0000
0000
0000
0000
0000
0000
0000
0000
,  // measure 4
1000
0001
0001
1000
,  // measure 5
1000
0000
0000
0000
0000
0001
0000
0000
1000
0000
0000
0000
0001
0000
0000
0000
0000
0000
0000
0000
0000
0000
0000
0000
0000
0000
0000
0000
0000
0000
0000
0000
,  // measure 6
0010
0100
0010
1000
,  // measure 7
1000
0000
0000
0000
0000
0010
0000
0000
1000
0000
0000
0000
0001
0000
0000
0000
0000
0000
0000
0000
0000
0000
0000
0000
0000
0000
0000
0000
0000
0000
0000
0000
,  // measure 8
0002
0000
0000
0000
0000
0000
0000
0000
0000
0000
0000
0000
0000
0000
0000
0000
1000
0000
0000
0000
0000
0000
0000
0000
1000
0000
0000
0000
0000
0000
0000
0003
,  // measure 9
1001
0110
0110
1001
,  // measure 10
1000
0000
0000
0000
0100
0000
0000
0000
1100
0000
0000
0110
0000
0000
0101
0000
,  // measure 11
0020
0000
0000
0000
0000
0000
0000
0000
0000
0000
0000
0000
0100
0000
0000
0000
2000
0000
0000
0000
0000
0000
0000
0000
0000
0000
0000
0000
0000
0000
0000
3030
,  // measure 12
0000
0000
0110
0000
0000
0110
1001
0000
,  // measure 13
0010
0000
0100
0000
0001
0100
0000
0000
,  // measure 14
1000
0000
0000
0000
0100
0000
0000
0000
1000
0000
0000
0001
0000
0000
1000
0000
,  // measure 15
0001
0000
0000
0000
1000
0000
0000
0000
1001
0000
0000
1001
0000
0000
1001
0000
,  // measure 16
2002
0000
0000
0000
0000
0000
0000
0000
0000
0000
0000
3003
0010
0000
0000
0000
1001
0000
0000
0000
0000
0000
0000
0000
0000
0000
0000
0000
0000
0000
0000
0000
,  // measure 17
0001
0100
0010
0010
,  // measure 18
1000
0000
0000
0000
0000
0000
0100
0000
1010
0000
0000
0110
0000
0000
0101
0000
,  // measure 19
0020
0000
0000
0100
2000
0000
0000
0000
,  // measure 20
0000
0000
0000
0000
0000
0000
0000
0000
0000
0000
0000
0000
0000
0000
0000
0000
0000
0000
0000
0000
0000
0000
0000
0000
0000
0000
0000
0000
0000
0000
0000
3030
,  // measure 21
1001
0110
1010
0011
,  // measure 22
0010
0000
0000
0000
0010
0000
0000
0000
0100
0000
0000
1000
0000
0000
0010
0000
,  // measure 23
0001
0000
0000
0000
0001
0000
0000
0000
0110
0000
0000
0110
0000
0000
0110
0000
,  // measure 24
0020
0000
0000
0000
0000
0000
0000
0000
0000
0000
0000
0000
0100
0000
0000
0000
0200
0000
0000
0000
0000
0000
0000
0000
0000
0000
0000
0000
0000
0000
0000
0330
,  // measure 25
0001
0010
0010
1000
,  // measure 26
1000
0000
0000
0000
0100
0000
0000
0000
1000
0000
0000
0010
0000
0000
0001
0000
,  // measure 27
2002
0000
0000
0000
0000
0000
0000
0000
0000
0000
0000
3003
0010
0000
0000
0000
2002
0000
0000
0000
0000
0000
0000
0000
0000
0000
0000
0000
0000
0000
0000
0000
,  // measure 28
0000
0000
0000
0000
0000
0000
0000
0000
0000
0000
0000
0000
0000
0000
0000
0000
0000
0000
0000
0000
0000
0000
0000
0000
0000
0000
0000
0000
0000
0000
0000
3003
,  // measure 29
0020
0000
0000
0000
0000
0000
0000
0000
0000
0000
0000
0000
0000
0000
0000
0030
1001
0000
0000
0000
0000
0000
0000
0000
1001
0000
0000
0000
0000
0000
0000
0000
,  // measure 30
0020
0000
0000
0000
0000
0000
0000
0000
0000
0000
0000
0000
0000
0000
0000
0000
2000
0000
0000
0000
0000
0000
0000
0000
0000
0000
0000
0000
0000
0000
0000
3030
,  // measure 31
0001
0000
0000
0000
0000
0000
0000
0000
0001
0000
0000
0100
0000
0000
1000
0000
,  // measure 32
2002
0000
0000
0000
0000
0000
0000
0000
0000
0000
0000
0000
0000
0000
0000
3003
2002
0000
0000
0000
0000
0000
0000
0000
0000
0000
0000
0000
0000
0000
0000
3003
,  // measure 33
0010
0000
1010
0011
,  // measure 34
0010
0100
1000
0100
,  // measure 35
0010
0000
1001
1001
,  // measure 36
1010
0000
0000
0110
0000
0000
0101
0000
0000
0000
0000
0000
0010
0000
0000
0000
,  // measure 37
0101
0000
0101
0000
1100
0000
0000
0100
,  // measure 38
0110
1010
1001
0011
,  // measure 39
0001
0001
1010
1010
,  // measure 40
0010
0000
1000
0110
0000
0000
0000
0000
,  // measure 41
0001
1000
0110
1001
,  // measure 42
1000
0000
0001
0010
0000
0000
0000
0000
,  // measure 43
1000
0100
0010
0001
,  // measure 44
0001
1000
0100
1000
,  // measure 45
0010
2002
0000
0000
,  // measure 46
0000
0000
0000
0000
0000
0000
0000
0000
0000
0000
0000
0000
0000
0000
0000
0000
0000
0000
0000
0000
0000
0000
0000
0000
0000
0000
0000
0000
0000
0000
0000
3003
,  // measure 47
0001
0000
0100
0000
0110
0000
1001
0110
,  // measure 48
0010
0000
1000
0000
1010
0000
1010
1010
,  // measure 49
0011
1001
1100
1001
,  // measure 50
0100
0010
1000
0001
,  // measure 51
0001
0000
0010
0000
1001
0000
0000
1001
,  // measure 52
0010
0100
1000
0001
,  // measure 53
2002
0000
0000
0000
0000
0000
0000
0000
0000
0000
0000
3003
0010
0000
0000
0000
0220
0000
0000
0000
0000
0000
0000
0000
0000
0000
0000
0000
0000
0000
0000
0330
,  // measure 54
1001
1001
1001
1001
,  // measure 55
1001
0000
0000
0000
;

//---------------dance-single - ----------------
#NOTES:
     dance-single:
     :
     Hard:
     8:
     0.630,0.639,0.958,0.383,0.203,272.000,85.000,34.000,0.000,0.000:  // measure 1
0000
0000
0000
0000
,  // measure 2
0000
0000
0000
0000
0000
0000
0000
0000
0010
0000
0000
0000
0000
0010
0000
0000
0001
0000
0000
0000
0000
0000
0000
0000
1000
0000
0000
0000
0000
0000
0000
0000
,  // measure 3
0010
0000
0000
0000
1000
0000
0000
0000
0100
0000
0000
0000
2000
0000
0000
0000
0000
0000
0000
0000
0000
0000
0000
3000
0000
0000
0000
0000
0000
0000
0000
0000
,  // measure 4
0000
1000
0000
0000
0000
1000
0000
0000
0010
0000
0000
0000
0000
0010
0000
0000
0001
0000
0000
0000
0000
0000
0000
0000
0010
0000
0000
0000
0000
0000
0000
0000
,  // measure 5
0010
0000
0000
0000
0000
0010
0000
0000
1000
0000
0000
0000
0002
0000
0000
0000
0000
0000
0000
0000
0000
0000
0000
0000
0003
0000
0000
0000
0000
0000
0000
0000
,  // measure 6
0010
0000
0000
0000
0000
0100
0000
0000
0001
0000
0000
0000
2000
0000
0000
0000
0000
0000
0000
3000
0000
0000
0000
0000
1000
0000
0001
0000
1000
0000
0001
0000
,  // measure 7
1000
0000
0000
0000
0000
0010
0000
0000
0010
0000
0000
0000
2000
0000
0000
0000
0000
0000
0000
0000
0000
0000
0000
3000
0000
0000
0000
0000
0000
0000
0000
0000
,  // measure 8
2001
0000
0000
0000
0000
0000
0000
0000
0001
0000
0000
0000
0000
0000
0000
0000
0001
0000
0000
0000
0000
0000
0000
0000
0001
0000
0000
0000
0000
0000
0000
3000
,  // measure 9
1010
0000
0000
0000
0010
0000
0000
0000
0101
0000
0000
0000
0000
0000
0100
0000
0000
0000
0000
0000
0020
0000
0000
0000
0000
0000
0000
0000
0000
0000
0000
0030
,  // measure 10
1000
0000
0000
0000
0000
0010
0000
0000
0100
0000
0000
0000
0001
0000
0000
0000
1001
0000
0000
0000
0000
0000
0110
0000
0000
0000
0000
0000
0000
0000
2000
0000
,  // measure 11
0000
0000
0000
0000
0000
0000
0000
0000
0000
0000
0000
0000
0100
0000
0000
0000
0002
0000
0000
0000
0000
0000
0000
0000
0000
0000
0000
0000
0000
0000
0000
3003
,  // measure 12
0010
0000
1010
0000
0000
0011
1010
0000
,  // measure 13
0010
0000
0101
0000
0011
1000
0000
0010
,  // measure 14
0001
0000
0010
0000
0010
0000
1000
0000
1001
0000
0000
0110
0000
0000
0000
1001
,  // measure 15
1000
0000
0010
0000
1000
0000
0010
0000
1010
0000
0000
0101
0000
0000
1001
0000
,  // measure 16
0002
0000
0000
0000
0000
0000
0000
0000
0000
0000
0000
0000
0010
0000
0000
0000
2000
0000
0000
0000
0000
0000
0000
0000
0000
0000
0000
0000
0000
0000
0000
3003
,  // measure 17
0001
0010
0001
0010
0110
1001
0000
0000
,  // measure 18
0001
0000
0000
0000
0000
1000
0000
0000
0010
0000
0000
0000
0100
0000
0000
0000
0110
0000
0000
0000
0000
0000
0011
0000
0000
0000
0000
0000
1100
0000
0000
0000
,  // measure 19
0202
0000
0000
0000
0000
0000
0000
0000
0000
0000
0303
0000
0001
0000
0000
0000
0022
0000
0000
0000
0000
0000
0000
0000
0000
0000
0000
0000
0000
0000
0000
0033
,  // measure 20
1000
0100
0010
0001
,  // measure 21
0010
1000
0001
0100
0101
1100
0000
0000
,  // measure 22
1000
0000
0000
0000
0000
0010
0000
0000
0001
0000
0000
0000
0001
0000
0000
0000
1010
0000
0000
0000
0000
0000
0101
0000
0000
0000
0000
0000
0110
0000
0000
0000
,  // measure 23
1000
0000
0000
0000
0010
0000
0000
0000
0100
0000
0000
0000
0001
0000
0000
0000
0101
0000
0000
0000
0000
0000
0000
0110
0000
0000
0000
0000
1010
0000
0000
0000
,  // measure 24
2000
0000
0000
0000
0000
0000
0000
0000
0000
0000
0000
0000
0100
0000
0000
0000
0020
0000
0000
0000
0000
0000
0000
0000
0000
0000
0000
0000
0000
0000
0000
3030
,  // measure 25
1000
0010
1000
0010
0011
0110
0000
0000
,  // measure 26
0010
0000
0000
0000
0000
0010
0000
0000
0100
0000
0000
0000
0100
0000
0000
0000
1001
0000
0000
0000
0000
0000
1010
0000
0000
0000
0000
0000
0101
0000
0000
0000
,  // measure 27
2000
0000
0000
0000
0000
0000
0000
0000
0000
0000
0000
0000
0100
0000
0000
0000
0020
0000
0000
0000
0000
0000
0000
0000
0000
0000
0000
0000
0000
0000
0000
3030
,  // measure 28
1000
0100
0010
0001
,  // measure 29
2000
0000
0000
0000
0000
0000
0000
0000
0000
0000
0000
0000
0100
0000
0000
3000
1100
0000
0000
0000
0000
0000
0000
0000
0101
0000
0000
0000
0000
0000
0000
0000
,  // measure 30
2002
0000
0000
0000
0000
0000
0000
0000
0000
0000
0000
3003
0010
0000
0000
0000
2002
0000
0000
0000
0000
0000
0000
0000
0000
0000
0000
0000
0000
0000
0000
3003
,  // measure 31
0010
0000
0000
0000
0000
0000
0010
0000
1000
0000
0000
0001
0000
0000
1000
0000
,  // measure 32
0020
0000
0000
0000
0000
0000
0000
0000
0000
0000
0000
0030
1000
0000
0001
0000
2000
0000
0000
0000
0000
0000
0000
0000
0000
0000
0000
3000
0010
0000
1000
0000
,  // measure 33
0010
0000
0101
0001
1001
0000
0000
0000
,  // measure 34
0010
0000
1000
0100
0000
0010
0100
0001
,  // measure 35
0001
0000
0000
1000
0010
0100
0001
1000
,  // measure 36
2100
0000
0000
0000
0000
0000
0001
0000
0000
0000
0000
0000
0100
0000
0000
0000
0000
0000
0000
3000
1000
0000
0000
0000
0010
0000
0000
0000
0100
0000
0000
0000
,  // measure 37
0110
0000
0110
0000
1001
0010
0000
0100
,  // measure 38
0010
1000
0001
1001
0000
1000
1000
0001
,  // measure 39
0011
0000
0101
0000
0110
1100
0000
1000
,  // measure 40
1000
0100
1100
0011
0000
0010
0010
0100
,  // measure 41
0110
0010
1001
0000
0010
0100
0000
0001
,  // measure 42
0001
0010
0011
1010
0000
0010
0100
0001
,  // measure 43
0001
0000
0000
0000
0000
1000
0000
0000
0001
0000
0000
0000
0000
0000
0010
0000
0001
0000
0000
0000
0100
0000
0000
0000
0000
0000
0000
0000
0000
0000
0000
0000
,  // measure 44
1010
0000
0101
0000
1000
0000
0010
1000
,  // measure 45
0000
0001
2020
0000
0000
0000
0000
0000
,  // measure 46
0000
0000
0000
0000
0000
0000
0000
0000
0000
0000
0000
0000
0000
0000
0000
0000
0000
0000
0000
0000
0000
0000
0000
3030
0000
0000
0000
0000
0010
0000
1000
0000
,  // measure 47
0110
0100
0101
0000
1001
0110
0000
0000
,  // measure 48
0100
0000
0001
0000
0100
0000
0000
0000
1010
0000
0000
0011
0000
0000
1010
0000
,  // measure 49
1000
0000
0100
0000
0010
0000
0001
0000
1001
0000
0000
0110
0000
0000
1001
0000
,  // measure 50
0001
0000
0000
0000
0100
0000
0000
0000
0001
0000
0000
0000
0100
0000
0000
0000
0000
0000
0000
0000
0001
0000
0000
0000
2200
0000
0000
0000
0000
0000
0000
3300
,  // measure 51
1001
0010
0110
0000
0010
1010
0000
0011
,  // measure 52
0001
0000
0100
0000
0001
0000
0000
0000
0011
0000
0000
0110
0000
0000
1100
0000
,  // measure 53
2002
0000
0000
0000
0000
0000
0000
0000
0000
0000
0000
3003
1010
0000
0000
0000
0202
0000
0000
0000
0000
0000
0000
0000
0000
0000
0000
0000
0000
0000
0000
0303
,  // measure 54
0000
0000
0000
0000
0000
0011
0000
0000
0000
0000
0000
0000
0000
0000
0000
0000
0000
0000
0000
0000
0000
0000
0000
1010
0000
0000
0000
0101
0000
0000
0000
0000
,  // measure 55
1001
0000
0000
0000
;
