#TITLE:Dead End (Megamix);
#SUBTITLE:;
#ARTIST:N&S & B4 Za Beat;
#TITLETRANSLIT:;
#SUBTITLETRANSLIT:;
#ARTISTTRANSLIT:;
#CREDIT:;
#BANNER:Dead End-bn.png;
#BACKGROUND:Dead End-bg.png;
#LYRICSPATH:;
#CDTITLE:paranoivm.png;
#MUSIC:Dead End Megamix.mp3;
#OFFSET:-0.100;
#SAMPLESTART:31.559;
#SAMPLELENGTH:12.000;
#SELECTABLE:YES;
#BPMS:0.000=190.000,102.000=95.000,103.000=190.000,117.000=95.000,118.000=190.000;
#STOPS:;
#BGCHANGES:;
// cache tags:
#FIRSTBEAT:16.000;
#LASTBEAT:284.500;
#SONGFILENAME:Songs/juju steps/Dead End Megamix/Dead End Megamix.sm;
#HASMUSIC:1;
#HASBANNER:1;
#MUSICLENGTH:91.417;
// end cache tags

//---------------dance-single - ----------------
#NOTES:
     dance-single:
     :
     Challenge:
     9:
     0.953,0.973,1.000,0.273,0.443,493.000,92.000,25.000,0.000,1.000:
0000
0000
0000
0000
,
0000
0000
0000
0000
,
0000
0000
0000
0000
,
0000
0000
0000
0000
,
0201
0310
1200
0310
,
0021
0130
2001
3010
,
0201
0310
1020
0130
,
0210
1000
0010
0301
,
2002
3003
0000
0000
,
0010
0001
0100
0010
1000
0001
0010
1000
,
0010
0100
1000
0001
0010
0100
0120
0000
,
0130
0000
1000
0001
0100
0000
0010
0000
1000
0000
0001
0000
0010
0000
0001
0000
,
1000
0100
1000
0001
0100
1001
0000
1010
,
0010
0100
0001
1000
0010
1000
0001
0100
,
0001
0000
1000
0001
0100
0000
0001
1000
0100
0000
0010
0001
2000
0000
0000
0000
,
3001
1001
0101
0000
0100
0010
1000
1010
,
0000
0000
0110
0000
0100
0000
0000
0001
0100
0000
0010
0000
1000
0000
0001
0000
,
0000
1000
0100
1000
1001
0001
0200
0000
,
0310
0000
1000
0000
0010
0000
0100
0001
1000
0000
0100
0000
0001
0000
1000
0000
,
0010
0001
0011
0010
0000
0100
1100
1000
,
1002
0000
0000
0000
0103
0000
0000
0010
1000
0000
0010
0000
0100
0000
0001
0000
,
1000
0001
0100
0001
1000
0001
0010
0001
,
1000
0000
0100
0000
1000
0000
0100
0000
0010
0001
1000
0100
0010
0000
0001
0000
,
0010
0000
0001
0000
0100
0000
0001
0000
1000
0000
0100
0000
1000
0000
0001
0010
,
0001
0000
1000
0100
1000
0000
0000
0000
1001
0000
0001
0000
0100
0000
1001
0000
,
0200
0000
0000
0000
0310
0000
0000
0000
1000
0010
0001
0010
1000
0000
0000
0000
,
0101
0000
0100
0010
1000
0002
0000
0013
,
0011
0000
1001
0110
1001
0210
0000
0310
,
1010
0000
0000
0000
1000
0000
0010
1000
0001
0000
0200
0000
0000
0000
0001
0000
,
1301
0000
0000
0000
0100
0001
1000
0100
0021
0000
0000
0000
0001
0000
0030
0000
,
1001
0000
0000
1001
0000
0200
0000
0310
,
1010
0000
0010
0000
0110
0000
0000
0000
0010
0000
0000
1000
0010
0000
0110
0000
,
0101
0000
0000
0000
0000
0000
0000
0000
0100
0000
0000
0010
0000
0000
1010
0000
,
1000
0000
1001
0000
1100
0000
0000
0000
1001
0000
0000
0001
0010
0000
0011
0000
,
1001
0000
0101
0000
1001
0000
0000
0000
0001
0000
0000
0100
0001
0000
0100
0000
,
0110
0000
0000
0000
0000
0000
0000
0000
0000
0010
0000
0000
1000
0000
0000
0000
0000
0000
0010
0000
0000
0000
0000
0000
0110
0000
0000
0000
0010
0000
0000
0000
0100
0000
0000
0000
0010
0000
0000
0000
1000
0000
0000
0000
0010
0000
0000
0000
,
1000
0000
1001
0000
1100
0000
1001
0000
0001
0000
0000
0010
0001
0000
0011
0000
,
1001
0000
0000
0001
0000
0100
0000
0010
1000
0000
0000
0010
0000
0000
0100
0000
,
0010
0000
0000
1000
0010
0000
0100
0000
0010
0000
1000
0000
1001
0000
0100
0000
,
1000
0001
0010
0100
1000
0001
0010
0100
2000
0000
0000
0000
0000
0000
0000
0000
,
3000
0000
0000
0000
0001
0100
1010
0010
,
0101
0001
1100
0000
1100
0001
0001
0100
,
0001
0100
0010
1000
0100
0000
0010
0000
0001
0000
0010
0000
1100
0000
0100
1000
,
0001
0000
0100
0000
0101
0000
0100
0010
1000
0000
0010
0100
0001
0000
1000
0001
,
1000
0100
1000
0001
0010
0000
0001
0000
0100
0000
0010
0000
1010
0000
0010
0100
,
0001
0000
0100
0000
1001
0000
0000
0000
0001
0000
0100
0000
0100
1000
0000
1000
,
0100
0000
0010
0000
0000
0100
0000
0000
1010
0000
0010
0000
0110
0000
0000
0000
,
0101
0000
1001
0000
1100
0000
1001
0000
0000
0000
0011
0000
0110
0000
0000
0100
,
1000
0000
0001
0000
0100
0000
0010
0000
1000
0000
0010
1000
0001
0000
1000
0010
,
0100
0000
0001
1000
0100
0000
0010
0001
1000
0000
0100
1000
0001
0000
0100
0001
,
0010
0100
1100
0000
1000
0001
0100
0010
,
1000
0100
0010
0001
0010
1000
0010
0100
,
1000
0000
0001
0000
0100
0000
0001
0000
0100
0000
0001
1000
0100
0000
1000
0001
,
0010
0000
0001
1000
0010
0000
0100
0001
1000
0000
0100
1000
0001
0000
0010
0001
,
0100
0010
1010
0000
0010
0100
0110
0000
,
0010
0000
1000
0000
0001
0000
0101
0000
0000
0000
0100
0000
0110
0000
0000
0010
,
1000
0010
0100
0001
1000
1000
1000
1000
,
0000
1002
0000
0103
0101
0001
0001
0001
,
0000
0011
0000
0010
0011
0010
0010
0010
,
0000
0110
0000
0100
1001
0001
0101
0100
,
0000
0110
0000
0020
1000
0000
0100
0000
,
0001
0000
0000
0000
0130
0000
0000
0000
0010
0000
0000
0001
0010
0000
0001
0000
,
1000
0000
0100
0000
1000
0000
0001
0000
0100
0000
0000
0001
0100
0000
0010
0000
,
1000
0000
0010
0000
0100
0000
0000
1000
0100
0000
0010
0000
0100
0000
0001
0000
,
1000
0000
0100
0000
0020
0000
0000
0000
0031
0000
0000
0000
0011
0000
0000
1001
,
0000
0000
0101
0000
0100
0000
0000
0000
0010
0000
1000
0010
1000
0000
0001
0100
,
0001
0000
0100
0010
0100
0000
0010
1000
0010
0000
0100
0001
0010
0000
0001
0010
,
0001
0000
1000
0100
1000
0000
0000
0000
1100
0000
0000
1000
0100
0000
1100
0000
,
1001
0000
0001
0000
0100
0000
0000
0110
0000
0000
0010
0000
0000
1010
0000
0010
,
0100
0000
0000
0010
0000
0000
1010
0000
1000
0000
0000
0001
0000
0000
0100
0000
,
0001
0000
0000
0100
0001
0000
0100
0000
0110
0000
0000
0010
0000
1000
0010
0000
,
2002
3003
0000
0000
0000
0000
0000
0000
;
