#TITLE:House Hornet;
#SUBTITLE:;
#ARTIST:Beatdrop & Matt Pollard feat Ailsean;
#TITLETRANSLIT:;
#SUBTITLETRANSLIT:;
#ARTISTTRANSLIT:;
#CREDIT:;
#BANNER:HouseHornet.png;
#BACKGROUND:HouseHornet-bg.png;
#LYRICSPATH:;
#CDTITLE:;
#MUSIC:MegaManX3_HouseHornet_OC_ReMix.mp3;
#OFFSET:-0.197;
#SAMPLESTART:42.900;
#SAMPLELENGTH:12.000;
#SELECTABLE:YES;
#BPMS:0.000=130.000;
#STOPS:;
#BGCHANGES:;
// cache tags:
#FIRSTBEAT:32.000;
#LASTBEAT:388.000;
#SONGFILENAME:Songs/toune 6/Beatdrop and Matt Pollard - HouseHornet/HouseHornet.sm;
#HASMUSIC:1;
#HASBANNER:1;
#MUSICLENGTH:187.428;
// end cache tags

//---------------dance-single - Copied from----------------
#NOTES:
     dance-single:
     Copied from:
     Medium:
     6:
     0.292,0.414,0.464,0.181,0.013,262.000,87.000,34.000,0.000,7.000:
0000
0000
0000
0000
,
0000
0000
0000
0000
,
0000
0000
0000
0000
,
0000
0000
0000
0000
,
0000
0000
0000
0000
,
0000
0000
0000
0000
,
0000
0000
0000
0000
,
0000
0000
0000
0000
,
1001
0100
0100
0010
,
1001
0010
0010
0100
,
1001
0100
0010
0100
,
1001
0000
0000
0000
,
1001
0110
1000
0001
,
0010
1000
0000
0000
0001
0010
0000
0000
,
0100
0010
0000
0000
1001
0000
0110
0000
,
0001
1000
0000
0000
1000
0001
0000
0000
,
0010
0100
0001
0000
1100
0000
0101
0000
,
0010
1000
0000
0000
0010
0001
0000
0000
,
0010
0100
1000
0000
1100
0000
0101
0000
,
1000
1000
0000
0000
0001
0001
0000
0000
,
0010
0100
0010
0000
1100
0000
0101
0000
,
1000
0100
0000
0000
0001
0100
0000
0000
,
1001
0100
0000
0000
0000
0000
0000
0000
,
0001
0100
1000
0100
,
0010
1000
0001
0000
0000
0000
0000
0000
,
0010
0100
0000
0000
0011
1000
0000
0000
,
1100
0001
0000
0000
0000
0000
0000
0000
,
2000
3200
0320
0032
,
1003
0110
0001
0110
,
1000
0011
0001
1010
,
0100
0010
1001
0110
,
1000
0001
1000
0010
,
0001
0010
0110
1001
,
0010
1000
0100
1000
,
0010
0001
0010
1001
,
0100
0010
1001
0110
,
2000
0000
0000
0000
,
3002
0000
0000
0000
,
0203
0000
0000
0000
,
0320
0000
2030
0000
,
3200
0000
0000
0000
,
2300
0000
3002
0000
,
0223
0000
0000
0000
,
2332
0000
0000
0000
,
3003
0000
0000
0000
,
0000
0000
0000
0000
,
1000
0010
0000
0000
0001
0000
1000
0000
,
0010
0001
0000
0000
1000
0000
0001
0000
,
0010
1000
0000
0000
0001
0000
1000
0000
,
0010
0001
0000
0000
1000
0000
0001
0000
,
0110
1000
1000
0101
,
1100
0010
0010
0101
,
1100
0010
0010
1100
,
0101
0000
0000
0000
,
1000
1100
0001
0101
,
0010
0101
0010
1100
,
0100
0011
0100
1010
,
0001
1010
1000
0011
,
0100
1001
0010
1001
,
0100
1001
0010
1001
,
0100
0011
0100
1010
,
0101
1100
0011
1010
,
2002
0000
0000
0000
,
0000
0000
0000
0000
,
3113
1000
0100
0001
,
0010
1000
0100
0001
,
0110
1000
0001
0100
,
0010
1100
0101
0110
,
1001
0010
1000
0010
,
0001
0010
1000
0010
,
0001
0010
1000
0010
,
0101
1100
0110
1001
,
0220
0000
0000
0000
,
2332
0000
0000
0000
,
3023
0000
0000
0000
,
0230
0000
0302
0000
,
2003
0000
0000
0000
,
3020
0000
0230
0000
,
2302
0000
0000
0000
,
3223
0000
0000
0000
,
0330
0000
0000
0000
,
1001
0110
1100
0101
,
0000
0000
0000
0000
,
0110
1001
1010
0011
,
0000
0000
0000
0000
,
0010
1010
0010
0011
,
0000
0000
0000
0000
,
0100
1100
0100
0101
,
1001
0000
0000
0000
,
1001
0000
0000
0000
,
1000
0010
0001
0010
,
1000
0010
0001
0010
,
1001
0010
0100
0010
,
1001
0000
0000
0000
,
1000
0000
0010
0000
0001
0000
0000
1000
0000
0010
0000
0001
1000
0000
0010
0100
,
0000
2002
0000
0000
0000
0000
0000
0000
0000
0000
0000
0000
0000
0000
0000
0000
,
0000
0000
0000
0000
,
3003
0000
0000
0000
;
