#TITLE:I'm Gonna Sing The Doom Song Now;
#SUBTITLE:;
#ARTIST:Loffciamcore;
#TITLETRANSLIT:;
#SUBTITLETRANSLIT:;
#ARTISTTRANSLIT:;
#CREDIT:Aoreo;
#BANNER:im gonna sing the bn.png;
#BACKGROUND:im gonna sing the bg.png;
#LYRICSPATH:;
#CDTITLE:;
#MUSIC:I'm Gonna Sing The Doom Song Now.ogg;
#OFFSET:0.042;
#SAMPLESTART:98.396;
#SAMPLELENGTH:12.000;
#SELECTABLE:YES;
#DISPLAYBPM:240.000;
#BPMS:0.000=240.000,8.000=224.600,40.000=245.300,44.000=240.000;
#STOPS:;
#BGCHANGES:;
// cache tags:
#FIRSTBEAT:8.000;
#LASTBEAT:620.000;
#SONGFILENAME:Songs/SPEEEDCOOOORE 2/I'm Gonna Sing The Doom Song Now - [Aoreo]/I'm Gonna Sing The Doom Song Now.sm;
#HASMUSIC:1;
#HASBANNER:1;
#MUSICLENGTH:156.043;
// end cache tags

//---------------dance-single - J. Nero----------------
#NOTES:
     dance-single:
     J. Nero:
     Challenge:
     17:
     1.000,1.000,0.288,0.410,1.000,1206.000,45.000,64.000,8.000,0.000:
0000
0000
0000
0000
,
0000
0000
0000
0000
,
2000
3002
0023
0230
,
2300
3002
0203
0320
,
2030
3002
0023
0000
0230
0000
2300
0000
,
3002
0203
0320
0030
,
2000
3002
0203
0300
0002
0000
0023
0000
,
0230
2300
3002
0203
,
0320
2030
3002
0003
0020
0000
0230
0000
,
0300
0000
2000
3000
0000
0000
0000
0000
,
0004
0000
0000
0000
,
0000
0000
0000
0000
,
0000
0000
0000
0000
,
0000
0000
0000
0000
0000
0000
0000
0000
0000
0000
0000
0003
1000
0000
0001
0000
,
0100
0001
0100
0010
1000
0001
1000
0001
0100
0010
1000
0001
1000
0001
0100
0010
,
0100
0001
1000
0001
1000
0010
0100
0001
1000
0000
0000
0000
0004
0000
0000
0003
,
0010
0100
1000
0001
0010
0001
1000
0100
1000
0001
0010
0100
1000
0001
0010
0001
,
1000
0100
1000
0001
0010
0100
1000
0001
1000
0000
0000
0000
0001
0000
0100
0000
,
0010
1000
0001
0100
0001
1000
0010
0100
0004
0000
0000
0003
1000
0100
1000
0100
,
0040
0000
0000
0000
0000
0000
0000
0030
0001
0100
0001
1000
0010
0100
0001
1000
,
0001
0100
0010
1000
0001
1000
0010
0100
0010
1000
0001
0100
0004
0000
0000
0003
,
1000
0100
1000
0001
0010
0100
1000
0001
1000
0000
0000
0000
0004
0000
0000
0000
,
0103
0010
1000
0001
1000
0010
0100
0001
1000
0010
1000
0001
0100
0010
0100
0001
,
1000
0001
0100
0010
1000
0001
1000
0010
0100
0000
0000
0000
0001
0000
1000
0000
,
0001
0010
0001
1000
0100
1000
0001
0010
0100
1000
0001
1000
0100
0010
0100
1000
,
0001
0010
0001
1000
0100
0010
0001
1000
0001
0000
0000
0000
0100
0000
0010
0000
,
1000
0010
0100
0001
1000
0001
0100
0010
1000
0001
1000
0010
0100
0001
0100
0010
,
1000
0001
0100
0010
0100
0001
1000
0001
4000
0000
0000
0000
0000
0000
0000
3000
,
0001
0010
0001
1000
0100
0010
0001
1000
0001
0010
0100
0010
0001
1000
0100
1000
,
0100
0010
0001
1000
0001
0010
0100
1000
0001
0000
1000
0000
0100
0000
0010
0000
,
0001
1000
0001
0100
0010
1000
0001
1000
0010
0100
0001
1000
0001
0100
0010
1000
,
0001
1000
0010
0100
0001
0100
0010
1000
0001
1000
0001
0010
0100
1000
0100
0010
,
0001
1000
0001
0010
0100
1000
0001
1000
0001
0100
0010
1000
0010
0100
0001
1000
,
0001
0010
0100
0010
0001
1000
0100
1000
0001
0000
0100
0000
0001
0000
1000
0000
,
0001
0010
0001
1000
0100
1000
0001
0010
0100
0010
0100
1000
0001
1000
0010
0100
,
0010
0100
0001
1000
0001
1000
0010
0100
0004
0000
0000
0000
0000
0000
0000
0003
,
1000
0100
1000
0001
0010
0100
1000
0001
1000
0100
0010
0100
1000
0001
0010
0001
,
0010
0100
1000
0001
1000
0001
0010
0100
1000
0000
0010
0000
0100
0000
0001
0000
,
1001
0000
1000
0000
0110
0000
0001
1000
,
0100
0010
0001
0000
0011
0000
0010
0100
,
1000
0000
0010
0000
0110
0000
0100
0001
,
0010
0100
1000
0000
0001
0100
0010
0100
,
0001
0000
1000
0000
1100
0000
0100
1000
,
0001
0100
0010
0000
0110
0000
0100
0001
,
1000
0000
1000
0000
0100
0000
0100
0010
,
0001
1000
0010
0000
0110
0000
0000
0000
,
1001
0000
1000
0000
0101
0000
0001
1000
,
0100
0010
0001
0000
1001
0000
1000
0010
,
0100
0000
0001
0000
0011
0000
0010
0100
,
1000
0001
0100
0000
0110
0000
0010
1000
,
0001
0000
1000
0000
1100
0000
0100
1000
,
0001
0100
0001
0000
0110
0000
1000
0001
,
0010
0000
0010
0000
0100
0000
0100
1000
,
0001
0100
0010
0000
0100
0001
1000
0100
,
0010
0011
0000
1001
,
0000
0000
1000
0010
0000
0000
0110
0000
,
0000
0000
0100
0001
1000
0000
0001
0100
,
0010
1000
0001
0010
0100
0010
0001
1000
,
0010
0110
0000
0101
,
0000
0000
1001
0000
0000
0000
1000
0010
,
0100
0001
0010
0100
1000
0001
1000
0010
,
0100
0010
1000
0001
0100
0000
0001
0000
,
1000
0001
1000
0010
0100
0001
0100
0010
1000
0001
1000
0001
0100
0010
1000
0001
,
0100
0001
1000
0010
1000
0010
0100
0001
1000
0001
1000
0010
0400
0000
0000
0300
,
0001
1000
0001
0010
0100
1000
0001
1000
0100
0010
0001
1000
0001
0010
0100
0010
,
0001
1000
0001
1000
0100
0010
0100
1000
0004
0000
0000
0003
0400
0000
0000
0300
,
0010
1000
0010
0100
0001
0100
0001
1000
0010
0100
0001
1000
0010
0100
0010
1000
,
0001
1000
0010
0100
0010
1000
0001
1000
0004
0000
0000
0000
0000
0000
0003
0000
,
1000
0100
0010
0001
1000
0001
0010
0100
1000
0001
1000
0100
0010
0100
1000
0001
,
0010
0001
0010
0100
1000
0100
0010
0001
1000
0000
0000
0000
0000
0000
0000
0000
,
0001
0100
0001
0100
0010
1000
0001
1000
0010
0100
0010
1000
0001
0100
0001
1000
,
0010
0100
0001
1000
0001
1000
0010
0100
0004
0000
4003
0000
3040
0000
0430
0000
,
0301
1000
0001
0010
0100
1000
0001
1000
0100
1000
0001
0010
0001
1000
0100
0010
,
0001
1000
0001
0010
0100
1000
0001
1000
0001
0000
0000
0000
0100
0000
0001
0000
,
1000
0010
1000
0001
0100
0001
1000
0010
0100
0001
1000
0001
1000
0010
0100
0010
,
1000
0001
0100
0001
1000
0010
0100
0010
1000
0001
0100
0001
1000
0010
0100
0001
,
1000
0001
0010
0100
1000
0001
1000
0100
0010
0001
1000
0001
1000
0100
1000
0001
,
0010
0100
0010
0001
1000
0000
0000
0000
0000
0000
0000
0000
0002
0000
0000
0000
,
1003
0010
1000
0010
0100
0001
1000
0001
0100
0010
0100
0001
1000
0010
1000
0001
,
0100
0001
1000
0010
0100
0010
1000
0001
0100
0010
0100
0001
1000
0001
0010
0100
,
1000
0001
1000
0100
0010
0100
1000
0001
0010
0001
1000
0100
1000
0100
0010
0001
,
1000
0100
0010
0001
1000
0001
0010
0100
1000
0000
0000
0000
0000
0000
0000
0000
,
0001
0100
0001
0100
0010
1000
0010
1000
0001
0100
0001
1000
0010
1000
0001
0100
,
0001
1000
0010
0100
0001
1000
0001
0100
0040
0000
0000
0000
0000
0000
0000
0000
,
1030
0100
1000
0001
0010
0001
1000
0100
0010
0001
1000
0001
1000
0100
0010
0100
,
4000
0000
0000
0000
,
3001
0000
0000
0000
,
0000
0000
0000
0000
,
0000
0000
0000
0000
,
0000
0000
0000
0000
,
0MM0
0000
0000
0000
,
0000
0000
0000
0000
,
0MM0
0000
0000
0000
,
0000
0000
0000
0000
,
1001
0000
0001
0000
0100
0000
0001
0100
,
0010
0100
0001
0000
1000
0000
0001
0000
,
0101
0100
0010
1000
0001
0010
0100
0010
,
0001
1000
0100
0010
0100
1000
0001
1000
,
0010
0110
0100
1001
,
1000
0000
0001
0100
0000
0000
0001
1000
,
0100
0000
1000
0010
0100
0000
0001
0001
,
0010
0100
1000
0001
0100
0010
0100
0001
,
1000
1100
0001
0101
,
0001
0000
0100
0010
1000
0000
0001
0100
,
0010
1000
0100
0010
0001
0100
0010
1000
,
0100
0010
0001
0100
0010
0000
1000
0000
,
0001
0100
0010
0100
0001
1000
0001
0010
,
0100
1000
0001
1000
0100
0010
0100
1000
,
0001
0100
0010
0100
0001
1000
0001
0100
,
0004
0000
0000
0000
1003
1000
0010
0010
,
0100
0001
0010
0100
1000
0010
0100
0001
,
1000
0100
0010
0001
1000
0001
0100
0010
,
1000
0100
0010
0001
0100
0010
0100
0001
,
1000
0001
1000
0001
0100
0001
0100
0010
1000
0010
1000
0001
0100
0001
0100
0010
,
1000
0001
0010
0100
1000
0001
1000
0100
0010
0100
1000
0001
0010
0100
0010
0001
,
1000
0001
1000
0100
0010
0001
0010
0100
1000
0001
1000
0001
0400
0000
0000
0000
,
0301
1000
0010
1000
0001
0100
0010
1000
0001
0100
0010
0100
0001
1000
0001
1000
,
0010
0100
0001
0100
0010
1000
0010
0100
0004
0000
0000
0000
0000
0000
0000
0000
,
1003
0100
1000
0100
0010
0001
0010
0100
1000
0001
1000
0100
0010
0001
0010
0100
,
1000
0001
0010
0100
0010
0001
1000
0001
1000
0000
0001
0000
0100
0000
0010
0000
,
0100
0001
0100
0010
1000
0001
1000
0010
0100
0010
1000
0001
0100
0001
1000
0010
,
4000
0000
0000
0000
0000
0000
0000
0000
0000
0000
0000
0000
0000
0000
0000
3000
,
0001
0010
0100
0010
0001
1000
0100
0010
0100
1000
0001
0010
0100
0010
0100
1000
,
0001
1000
0100
0010
0001
0010
0100
1000
0001
0000
0000
0000
1000
0000
0010
0000
,
0100
0001
0100
0001
1000
0010
0100
0001
0100
0010
1000
0001
1000
0001
0100
0001
,
1000
0010
0100
0001
1000
0010
1000
0001
0100
0000
0000
0000
0001
0000
1000
0000
,
0001
0010
0100
0010
0001
1000
0100
0010
0100
1000
0001
1000
0100
0010
0001
1000
,
0001
0010
0001
1000
0100
0010
0100
1000
0004
0000
0003
0000
4000
0000
3000
0000
,
0010
0100
0010
1000
0001
0100
0001
1000
0010
1000
0010
0100
0001
1000
0001
0100
,
0004
0000
0000
0000
,
1003
0000
0000
0000
,
0000
0000
0000
0000
,
0000
0000
0000
0000
,
0000
0000
0000
0000
,
0000
0000
0000
0000
,
0000
0000
0000
0000
,
0000
0000
0000
0000
,
0000
0000
0000
0000
,
0001
0000
0100
0000
0110
0000
0010
1000
,
0001
1000
0100
0000
1100
0000
1000
0100
,
0010
0100
1000
0000
1001
0000
0001
0100
,
0010
0100
0001
0000
1001
0000
1000
0010
,
0100
0000
0001
0000
0011
0000
0010
0100
,
1000
0000
0100
0000
1100
0000
1000
0001
,
0100
0000
0010
0000
0110
0000
0100
0001
,
1000
0001
1000
0000
1001
0000
0001
1000
,
1001
0000
0001
0100
0010
0000
1000
0100
,
0010
0000
0001
0100
0001
0000
0010
0100
,
1000
0000
0001
0100
0010
0000
0100
0001
,
1000
0000
1010
0000
1010
0000
0010
0100
,
0002
0003
0000
0000
0000
0000
0000
0000
0200
0300
0000
0000
0000
0000
0000
0000
0020
0000
0030
0000
0000
0000
0000
0000
2000
0000
3000
0000
0000
0000
0000
0000
0002
0000
0000
0003
0000
0000
0000
0000
0020
0000
0000
0030
0000
0000
0000
0000
0200
0000
0000
0000
0300
0000
0000
0000
2000
0000
0000
0000
3000
0000
0000
0000
,
0002
0000
0000
0000
0000
0003
0000
0000
2000
0000
0000
0000
0000
3000
0000
0000
0020
0000
0000
0000
0000
0000
0030
0000
0200
0000
0000
0000
0000
0000
0300
0000
0002
0000
0000
0000
0000
0000
0000
0003
2000
0000
0000
0000
0000
0000
0000
3000
0200
0000
0000
0000
0000
0000
0000
0000
0320
0000
0000
0000
0000
0000
0000
0000
,
0032
0000
0000
0000
0000
0000
0000
0000
2000
0003
0000
0000
0000
0000
0000
0000
0200
3000
0000
0000
0000
0000
0000
0000
2000
0000
0300
0000
0000
0000
0000
0000
0020
0000
3000
0000
0000
0000
0000
0000
0200
0000
0000
0030
0000
0000
0000
0000
0002
0000
0000
0300
0000
0000
0000
0000
2000
0000
0000
0000
0003
0000
0000
0000
,
0002
0000
0000
0000
3000
0000
0000
0000
0020
0000
0000
0000
0000
0003
0000
0000
0200
0000
0000
0000
0000
0030
0000
0000
2000
0000
0000
0000
0000
0000
0300
0000
0002
0000
0000
0000
0000
0000
3000
0000
2000
0000
0000
0000
0000
0000
0000
0003
0020
0000
0000
0000
0000
0000
0000
3000
0200
0000
0000
0000
0000
0000
0000
0330
,
0000
0000
0000
0000
,
MMMM
0000
0000
0000
;
