#TITLE:DDR Max 2 Nonstop Megamix;
#SUBTITLE:;
#ARTIST:DDR;
#TITLETRANSLIT:;
#SUBTITLETRANSLIT:;
#ARTISTTRANSLIT:;
#CREDIT:;
#BANNER:../Banner.png;
#BACKGROUND:../BG.png;
#LYRICSPATH:;
#CDTITLE:../CDTitleBRAEDEN.png;
#MUSIC:Dance Dance Revolution MAX 2 - 7th mix- Nonstop Megamix.ogg;
#OFFSET:0.030;
#SAMPLESTART:79.530;
#SAMPLELENGTH:15.000;
#SELECTABLE:YES;
#DISPLAYBPM:*;
#BPMS:0.000=160.006,371.000=169.008,600.000=170.000,852.000=172.000,1097.000=180.000,1652.000=190.047,1958.000=165.000,2282.000=150.000,2362.000=140.000,2378.000=150.000,2426.000=140.000,2442.000=160.000,2533.000=149.910,2536.500=150.120;
#STOPS:600.000=0.020
,852.000=0.020
,2279.000=0.140
,2533.000=0.200
;
#BGCHANGES:;
// cache tags:
#FIRSTBEAT:113.000;
#LASTBEAT:2760.000;
#SONGFILENAME:Songs/Index Tesseract/DDR Max 2 Nonstop - [Braeden]/DDR.sm;
#HASMUSIC:1;
#HASBANNER:1;
#MUSICLENGTH:997.439;
// end cache tags

//---------------dance-single - ----------------
#NOTES:
     dance-single:
     :
     Challenge:
     18:
     1.000,1.000,0.291,0.106,1.000,6808.000,290.000,106.000,0.000,2.000:
0000
0000
0000
0000
,
0000
0000
0000
0000
,
0000
0000
0000
0000
,
0000
0000
0000
0000
,
0000
0000
0000
0000
,
0000
0000
0000
0000
,
0000
0000
0000
0000
,
0000
0000
0000
0000
,
0000
0000
0000
0000
,
0000
0000
0000
0000
,
0000
0000
0000
0000
,
0000
0000
0000
0000
,
0000
0000
0000
0000
,
0000
0000
0000
0000
,
0000
0000
0000
0000
,
0000
0000
0000
0000
,
0000
0000
0000
0000
,
0000
0000
0000
0000
,
0000
0000
0000
0000
,
0000
0000
0000
0000
,
0000
0000
0000
0000
,
0000
0000
0000
0000
,
0000
0000
0000
0000
,
0000
0000
0000
0000
,
0000
0000
0000
0000
,
0000
0000
0000
0000
,
0000
0000
0000
0000
,
0000
0000
0000
0000
,
0000
0000
0000
0000
0000
0000
0000
0000
1000
0000
0100
0000
0000
0000
0010
0000
0000
0000
0001
0000
0010
0000
0000
0000
0100
0000
0000
0000
0000
0000
1000
0001
,
1000
0000
0000
0000
1000
0100
0000
0010
0000
0001
0100
0000
0010
0000
0000
0000
,
1001
0000
0000
0000
1000
0100
0000
0010
0000
0001
0010
0000
0200
0000
0000
0000
,
2300
0000
3001
0100
0010
1000
0000
1001
,
0110
0000
0000
0000
0001
0010
0000
0100
0000
1000
0001
0000
0100
0000
0000
0000
,
1001
0000
0000
0000
1000
0100
0000
0010
0000
0001
0010
0000
0100
0000
0000
0000
,
1001
0000
0000
0000
1000
0100
0000
0010
0000
0001
0010
0000
0100
0000
1000
0100
,
1000
0000
0001
0000
0100
0010
0100
0010
1000
0100
1000
0100
0010
0001
0100
0010
,
1000
0001
0010
0100
0010
0001
0000
0010
0000
0100
1000
0000
0001
0000
0001
1000
,
1001
0000
0000
0000
1000
0100
0000
0010
0000
0001
0010
0000
0100
0000
1000
0001
,
1001
0000
0000
0000
1000
0100
0000
0010
0000
0001
0010
0000
0200
0000
0000
0000
,
2300
0000
0000
0000
3001
0000
0100
0010
0100
0000
0001
0100
0001
0000
1000
0010
,
1000
0000
0001
0100
0010
1000
0000
0100
0000
0010
0001
0000
0100
0000
0010
0000
,
1010
0000
0100
0000
0001
1000
0000
0010
0000
0100
0001
0000
1000
0000
0010
0000
,
1010
0000
0000
0000
0100
0001
0000
0100
0000
0010
1000
0000
0100
0000
0010
0001
,
0010
0000
0000
0000
0100
1000
0100
1000
0100
0000
0010
0000
0001
0000
0100
0000
0010
0000
1000
0000
0001
0000
0010
0000
0100
0000
0000
0000
0000
0000
0000
0000
,
0000
0000
0000
0000
0001
0010
0100
1000
0001
0100
0010
0100
0001
0010
0001
1000
,
0100
0010
0100
1000
0001
0100
0010
1000
0100
0010
0100
1000
0001
0100
0010
0100
,
0001
0010
0001
1000
0100
0010
0001
0100
0010
1000
0100
0010
0100
1000
0001
0100
,
0010
1000
0001
0010
0001
1000
0100
0010
0100
1000
0001
0100
0010
1000
0001
0010
,
0001
0010
0100
1000
0001
0100
0010
0100
0001
0010
0001
1000
0100
0010
0100
1000
,
0001
0100
0010
1000
0100
0010
0100
1000
0001
0100
0010
0100
0001
0010
0001
1000
,
0100
0010
0001
0100
0010
1000
0100
0010
0100
1000
0001
0100
0010
1000
0001
0010
,
0001
1000
0100
0010
0100
1000
0001
0100
0010
1000
0001
0010
0001
0000
1001
0000
,
0000
0000
1000
0100
1100
0010
0001
2000
,
3001
0010
0100
1000
0001
0100
0010
0100
0001
0010
0001
1000
0100
0010
0100
1000
,
0001
0100
0010
1000
0100
0010
0100
1000
0001
0100
0010
0100
0001
0010
0001
1000
,
0100
0010
0001
1000
0001
1000
0100
0010
0100
1000
0001
0100
0010
1000
0001
0010
,
0001
1000
0010
0100
0010
0000
0100
0000
0001
0000
0200
0000
0300
0000
0010
1000
,
0010
0000
1010
0000
1001
0000
0010
0000
0100
0000
0020
0000
0000
0000
1030
0100
,
0010
0100
1000
0001
0100
0010
0100
0001
0010
0001
1000
0100
0010
0001
0010
0100
,
1000
0001
0100
0010
1000
0000
0100
0000
0010
0000
0100
0000
0000
0000
1001
0000
,
0110
0000
0000
0000
1000
0100
0010
0001
1000
0000
0010
0000
0100
0000
0001
0000
1000
0000
0100
0000
0010
0000
0100
0000
1000
0000
0001
0000
0100
0000
0010
0000
,
0100
0001
0010
0001
1000
0100
0010
0100
1000
0001
0100
0010
0100
0001
0010
0001
,
1000
0010
0100
0001
1000
0100
0010
0100
1000
0001
0100
0010
1000
0001
0010
0001
,
1000
0100
0010
0001
0010
0100
1000
0001
0100
0010
0100
0001
1000
0100
0010
0100
,
1000
0000
0001
0100
0010
0000
1000
0000
0100
0000
0010
0000
0001
0010
0100
1000
,
0001
0000
0100
0000
0010
0000
1000
0000
0100
0000
0010
0001
0100
0010
1000
0000
,
0100
0010
0100
1000
0001
0100
0010
1000
0100
0010
0001
1000
0100
1000
0001
0100
,
0010
0000
0000
1000
0000
0000
0001
0000
0000
0010
0000
0000
0100
0000
0000
1000
0000
0000
0001
0000
0000
0100
0000
0000
0010
0000
0000
1000
0000
0000
0100
0000
0000
0010
0000
0000
0001
0000
0100
0000
0010
0000
1000
0000
0001
0000
0010
0000
,
0100
0000
1000
0000
0001
0000
0100
0000
0010
0000
1000
0000
0010
0000
0000
0000
0000
0000
0100
0000
0000
0000
0000
0000
0001
0000
0000
0000
0000
0000
0100
0000
0000
0000
0000
0000
0010
0000
0000
1000
0000
0000
0100
0000
0000
0010
0000
0000
,
0100
1000
0001
0100
0010
0100
0001
1000
0100
0010
0100
1000
0001
0100
0010
1000
,
0001
0010
0100
1000
0001
0100
0010
1000
0100
0010
0100
1000
0001
0100
0010
1000
,
0001
0010
0100
1000
0001
0100
0010
1000
0001
0100
0010
1000
0100
0000
0010
0001
,
0010
0000
0100
1000
0001
0000
1000
0100
0010
0100
1000
0001
0100
0010
1000
0001
,
0010
0100
1000
0001
0100
0010
0100
0001
0010
0001
1000
0100
0010
0001
0010
0100
,
1000
0001
0100
0010
0100
0001
0010
0001
1000
0100
0010
0100
1000
0001
0100
0010
,
1000
0002
0000
0103
0010
1000
1001
0110
,
0000
0000
0000
0000
0000
0000
0000
0000
1000
0000
0100
0000
0000
0000
0010
0000
0000
0000
0001
0000
0010
0000
0000
0000
0100
0000
0000
0000
0000
0000
1000
0001
,
1000
0000
0000
0000
1000
0100
0000
0010
0000
0001
0100
0000
0010
0000
0000
0000
,
1001
0000
0000
0000
1000
0100
0000
0010
0000
0001
0010
0000
0200
0000
0000
0000
,
2300
0000
3001
0100
0010
1000
0000
1001
,
0110
0000
0000
0000
0001
0010
0000
0100
0000
1000
0001
0000
0100
0000
0000
0000
,
1001
0000
0000
0000
1000
0100
0000
0010
0000
0001
0010
0000
0100
0000
0000
0000
,
1001
0000
0000
0000
1000
0100
0000
0010
0000
0001
0010
0000
0100
0000
1000
0100
,
1000
0000
0001
0000
1000
0100
0010
0100
1000
0001
0100
0010
1000
0001
0010
0100
,
1000
0000
0001
0000
0100
0000
0010
0000
1000
0000
0100
0000
0000
0000
0010
0000
0000
0000
0001
0000
0010
0000
0000
0000
0100
0000
0000
0000
0000
0000
1000
0001
,
1000
0000
0000
0000
1000
0100
0000
0010
0000
0001
0100
0000
0010
0000
0000
0000
,
1001
0000
0000
0000
1000
0100
0000
0010
0000
0001
0010
0000
0200
0000
0000
0000
,
2300
0000
3001
0100
0010
1000
0000
1001
,
0110
0000
0000
0000
0001
0010
0000
0100
0000
1000
0001
0000
0100
0000
0000
0000
,
1001
0000
0000
0000
1000
0100
0000
0010
0000
0001
0010
0000
0100
0000
0000
0000
,
1001
0000
0000
0000
1000
0100
0000
0010
0000
0001
0010
0000
0100
0000
1000
0100
,
1000
0000
0001
0000
0100
0010
0100
0001
1000
0100
0010
0100
1000
0100
0010
0100
,
1000
0001
0100
0010
1000
0100
0010
0001
0010
0000
0000
0000
0000
0000
0000
0000
,
0000
0000
1000
0001
1001
0000
0010
0100
0010
0000
0100
1000
0100
0000
0010
0000
,
1001
0000
1000
0100
1000
0000
0001
0000
0100
0010
0100
0001
1000
0000
0100
0000
,
0010
0000
0000
0001
0100
0000
0010
0000
1000
0000
0000
0001
0100
0000
0000
0010
,
1000
0100
1000
0001
0100
0000
0001
0000
1010
0000
0100
0001
0100
0000
0010
0000
,
1001
0000
1000
0010
0100
0000
0001
0000
0100
0010
0100
0001
1000
0000
0100
0000
,
0010
0100
1000
0001
0100
0000
0010
0000
1000
0100
0010
0001
0100
0000
0010
0000
,
1000
0000
0000
0001
0100
0000
0010
0000
1000
0000
0000
0001
0100
0000
0000
0010
,
1000
0100
1000
0001
0100
0000
0010
0000
1001
0000
0100
0010
0100
0000
0001
0000
,
1001
0000
1000
0100
0010
0001
0010
0100
1000
0001
0100
0010
1000
0000
1001
0000
,
0110
0000
0000
0000
1000
0100
0010
0001
0010
0100
1000
0001
0100
0010
0100
0001
,
1000
0100
0010
0100
1000
0001
0100
0010
0100
0001
1000
0100
0010
0100
1000
0001
,
0010
0100
1000
0001
0100
0010
0100
0001
0010
0001
1000
0100
0010
0100
1000
0001
,
0100
0010
1000
0001
0010
0100
1000
0001
0100
0010
1000
0001
0100
0010
1000
0100
,
0010
0100
1000
0001
0100
0010
1000
0001
0010
0001
1000
0100
0010
0100
1000
0001
,
0100
0010
1000
0001
0010
0100
1000
0010
0100
0001
0100
0010
1000
0100
0010
0001
,
0010
0100
1000
0001
0100
0010
1000
0001
0010
0001
1000
0100
0010
0001
0010
0100
,
1000
0001
1000
0001
1001
0000
0000
0000
0000
0000
1000
0010
1000
0000
0001
0100
,
0001
1000
0100
0010
0001
0010
0100
1000
0100
0010
0001
1000
0010
0100
0010
1000
,
0001
0010
0100
0010
0001
1000
0010
0100
0010
1000
0001
0010
0100
0010
0001
1000
,
0100
0010
0001
1000
0010
0100
0010
1000
0100
1000
0001
0010
0100
0010
0001
1000
,
0010
0100
0001
1000
0100
0010
0001
1000
0010
0100
0001
1000
0010
0100
0001
0010
,
0100
0010
0001
1000
0010
0100
0001
1000
0100
1000
0001
0010
0100
0010
0001
1000
,
0010
0100
0001
1000
0100
0010
0001
0100
0010
1000
0010
0100
0001
0010
0100
1000
,
0100
0010
0001
1000
0010
0100
0001
1000
0100
1000
0001
0010
0100
1000
0100
0010
,
0001
1000
0001
1000
0001
0000
1000
0100
0010
0100
1000
0001
0100
0010
1000
0100
,
0010
0000
0001
0100
0001
0010
0100
1000
0100
0010
0001
1000
0010
0100
0010
1000
,
0001
0010
0100
0010
0001
1000
0010
0100
0010
1000
0001
0010
0100
0010
0001
1000
,
0100
0010
0001
1000
0010
0100
0010
1000
0100
1000
0001
0010
0100
0010
0001
1000
,
0010
0100
0001
1000
0100
0010
0001
1000
0010
0100
0001
1000
0010
0100
0001
0010
,
0100
0010
0001
1000
0010
0100
0001
1000
0100
1000
0001
0010
0100
0010
0001
1000
,
0010
0100
0001
1000
0100
0010
0001
0100
0010
1000
0010
0100
0001
0010
0100
1000
,
0100
0010
0001
1000
0010
0100
0001
1000
0100
1000
0001
0010
0100
1000
0100
0010
,
0001
1000
0001
1000
0001
0010
0100
1000
0001
0100
0010
1000
0100
0010
0100
1000
,
0001
0100
0010
1000
0001
0000
0100
0000
0010
1000
0001
0010
0100
1000
0001
0100
,
0010
0100
0001
1000
0100
0010
0100
1000
0001
0100
0010
1000
0001
0100
0001
0010
,
0100
1000
0001
0100
0010
1000
0100
0010
0100
1000
0001
0100
0010
0100
0001
0010
,
0001
1000
0100
0010
0100
1000
0001
0100
0010
0100
0001
1000
0100
0010
0100
1000
,
0001
0100
0010
1000
0100
0010
0100
1000
0001
0100
0010
1000
0001
0010
0100
1000
,
0001
0100
0010
1000
0100
0010
0100
1000
0001
0100
0010
1000
0001
0100
0010
1000
,
0100
0010
0100
1000
0001
0100
0010
1000
0100
0010
0100
1000
0001
0010
0100
1000
,
0001
0100
0010
1000
0100
0010
0100
1000
0001
0100
0010
1000
0100
0000
0000
0000
,
0000
0000
1000
0100
1000
0000
0001
0000
0100
0010
0100
0001
1000
0000
0100
0000
,
0010
0000
0000
0001
0100
0000
0010
0000
1000
0000
0000
0001
0100
0000
0000
0010
,
1000
0100
1000
0001
0100
0000
0001
0000
1010
0000
0100
0001
0100
0000
0010
0000
,
1001
0000
1000
0010
0100
0000
0001
0000
0100
0010
0100
0001
1000
0000
0100
0000
,
0010
0100
1000
0001
0100
0000
0010
0000
1000
0100
0010
0001
0100
0000
0010
0000
,
1000
0000
0000
0001
0100
0000
0010
0000
1000
0000
0000
0001
0100
0000
0000
0010
,
1000
0100
1000
0001
0100
0000
0010
0000
1001
0000
0100
0010
0100
0000
0001
0000
,
1010
0000
0100
0001
0100
0000
0010
1000
0010
0000
0100
0000
0001
0000
1001
0000
,
0110
0000
1000
0100
0010
0000
0001
0000
0010
0100
1000
0001
0100
0000
0010
0000
,
1000
0000
0000
0100
0010
0000
0001
0000
1000
0000
0000
0001
0100
0000
0000
0010
,
1000
0100
0010
0100
0010
0000
0001
0000
0100
0000
0010
1000
0010
0000
0100
0000
,
0001
0000
1000
0100
1000
0000
0001
0000
0100
0010
0100
0010
0100
0000
0001
0000
,
1000
0100
0010
0001
1000
0000
0010
0000
0100
0001
0100
0010
1000
0000
0001
0000
,
1001
0000
0000
0010
0100
0000
1000
0000
0001
0000
0000
1000
0100
0000
0000
1000
,
0001
0100
0010
1000
0001
0000
0100
0000
0110
0000
1000
0000
0001
0000
0100
0000
,
0110
0000
1000
0001
0100
0000
0010
0000
1000
0100
0010
0001
1000
0000
0110
0000
,
1001
0000
0000
0000
1100
0000
0000
0000
1001
0000
0000
0000
0001
0000
0000
0001
,
0000
1000
0100
0010
0001
0000
0000
0000
1001
0000
0000
0000
1000
0000
0000
0010
,
0000
0100
0001
1000
0100
0000
0000
0000
0011
0000
0000
0000
1000
0000
0000
0001
,
0000
0100
0010
0100
0001
0000
0000
0000
1010
0000
0000
0000
1000
0100
1000
0000
,
0001
1000
0001
1000
0001
0000
0000
0000
1001
0000
0000
0000
1010
0000
0000
0100
,
0000
0001
0010
0100
1000
0000
0000
0000
1001
0000
0000
0000
0101
0000
0000
0000
,
0001
1000
0100
0010
0001
0000
1000
0000
0010
0000
0100
0001
0000
1000
0000
0010
,
0100
0000
0001
0000
1000
0000
0010
0000
0100
0000
0001
0100
0000
0000
0010
1000
,
0100
1000
0001
1000
0100
0000
0000
0000
0011
0000
0000
0000
1001
0000
0000
0000
,
1010
1000
0100
0010
0001
0010
0002
0000
,
1003
0000
1001
1000
0100
0010
0011
0000
,
1001
0000
1000
0100
0010
0001
1001
0000
,
1100
0010
0001
0100
,
0001
0010
0001
0100
0001
0010
0001
0000
,
0011
0000
0001
0100
0010
1000
0010
0000
,
1010
0000
0000
0000
0001
0000
0000
0000
0001
0000
0100
0010
0100
0000
0010
1000
,
0010
0000
0000
0100
0000
0000
0001
0000
0000
0010
0000
0000
0100
0000
0000
0000
0000
0000
1000
0000
0000
0000
0000
0000
0100
0000
0000
0000
0000
0000
0010
0000
0000
0000
0000
0000
0001
0000
0000
0000
0000
0000
1000
0000
0100
0000
0010
0000
,
0001
1000
0100
0010
0100
1000
0001
0000
0000
0000
0000
0000
0000
0000
0000
0100
0000
0000
0010
1000
0001
0010
0100
1000
,
0001
0100
0010
1000
0100
0010
0001
0000
0000
1000
0100
0010
0001
0010
0100
1000
0001
0100
0010
0000
0000
1000
0100
0010
,
0001
0010
0100
1000
0001
0100
0010
0000
0000
1000
0100
0010
0001
0010
0100
1000
0001
0100
0010
1000
0100
0010
0001
0010
,
0100
1000
0001
0100
0010
1000
0100
0000
0000
0010
0000
0000
0001
0000
0000
0100
0000
0000
0010
0000
0000
1000
0000
0000
,
0100
0100
1000
0000
1000
0010
0100
0001
,
0100
0001
0101
0000
1000
0010
1000
0100
,
1000
0100
1100
0000
1000
0010
0000
0100
,
0001
0100
0101
0100
0001
0100
0010
0100
,
0001
0100
0010
0000
1000
0100
0000
0000
,
0000
1001
0000
1000
0001
1000
0020
0000
,
0230
0000
0000
0000
0302
0000
0000
0000
1003
0100
0010
0100
1000
0001
1000
0100
,
0010
0001
0010
0100
0001
0000
0100
0000
1010
0000
1000
0000
0010
0000
0100
0000
,
0001
0100
0010
0000
0100
0001
0000
0000
,
0011
0000
1000
0000
0010
0100
0000
0000
,
1001
0000
0100
0000
0001
0010
0000
0010
,
0100
1000
0110
1000
0010
1000
0001
1000
,
0100
1000
0010
0000
0100
0001
0000
0000
,
0000
0001
0000
0010
0100
0010
0100
0000
,
1000
0000
0000
0000
0001
0000
0000
0000
1000
0100
0010
0100
1000
0001
0100
0010
,
1000
0100
0010
0001
1000
0000
0000
0000
0100
0000
1000
0000
0010
0000
1000
0000
,
0001
0100
0010
0100
0001
0100
0010
1000
,
0001
0100
0010
1000
0001
0100
0010
0100
,
0010
0100
1001
0000
1000
0001
0000
0100
,
0001
0100
0101
0010
1000
0001
1000
0001
,
0010
0100
0010
0100
1000
0001
0100
0010
,
1000
0010
0200
0000
2300
0000
3020
0000
,
0230
0302
0000
0000
,
0000
0000
1003
0010
0100
0001
0100
0010
,
1000
0100
0010
0001
0010
0000
0000
0000
0011
0000
0000
0000
1001
0000
0000
0000
,
1001
0010
1000
0100
0010
0001
0020
0000
,
0130
0000
1000
0001
0100
0010
2000
0000
,
3100
0000
0010
0001
0100
0010
2000
0000
,
3010
0101
1010
0101
,
1001
0010
1000
0100
0010
0001
0200
0000
,
0310
0000
1000
0100
0010
0001
2000
0000
,
3100
0000
0000
0000
0010
0000
0000
0000
0010
0000
0000
0000
0001
0000
0100
0010
,
0100
0000
0001
1000
0001
0000
0000
0000
1001
0000
0000
0000
0101
0000
0000
0000
,
1001
0000
1000
0100
0010
0100
2000
0000
,
3001
0000
0100
0010
0100
0010
0200
0000
,
0301
0000
1000
0100
1000
0100
0020
0000
,
0031
1001
0101
1010
,
0110
0000
0100
0000
0001
0000
0001
0000
0001
0000
0001
0000
1000
0100
0010
0100
,
1000
0001
0100
0010
1000
0000
0001
0000
0100
0000
0010
0000
1000
0100
0010
0100
,
1000
0001
0100
0010
0100
0000
0010
0000
1000
0000
0100
0000
0010
0100
0010
0100
,
0010
1000
0010
0100
0010
0000
1000
0100
0010
0000
0001
0010
0100
0000
1000
0001
,
1000
0000
0010
0100
0001
1000
0100
0010
0100
1000
0001
0100
0010
0000
0000
0000
,
1100
0000
0000
0000
0001
0010
0001
0010
,
0100
1000
0001
0000
0100
0000
0010
0000
,
1000
0000
0011
0000
1000
0010
1001
0000
,
0100
0010
0110
0000
0000
0000
0110
0000
,
0000
0000
1001
0000
0000
0000
1000
0100
,
0010
0001
1001
0000
0010
0000
0100
0000
,
0001
1000
0110
0000
0001
0010
0000
0000
,
1000
0100
0010
0000
0001
0100
0010
0000
,
1000
0000
0000
0000
1000
0100
0010
0100
0010
0100
1000
0001
0100
0010
1000
0100
,
0010
0001
1000
0010
0100
0001
0010
0100
1000
0001
0100
0010
1000
0100
0010
0100
,
1000
0001
0010
0100
1000
0001
0100
0010
1000
0100
0010
0001
0100
0010
1000
0001
,
0010
0000
0000
0100
0000
0000
1000
0000
0000
0010
0000
0000
1000
0000
0100
0000
0010
0000
0001
0000
0010
0000
0100
0000
1000
0000
0001
0000
0100
0000
0010
0000
1000
0000
0100
0000
0010
0000
0100
0000
1000
0000
0001
0000
0100
0000
0010
0000
,
1000
0000
0100
0000
0010
0000
0001
0000
1000
0000
0010
0000
0100
0000
0000
0010
0000
0000
1000
0000
0000
0010
0000
0000
0100
0000
0000
0010
0000
0000
1000
0000
0000
0100
0000
0000
0010
0000
0000
0100
0000
0000
1000
0000
0000
0001
0000
0000
,
0100
0010
1000
0100
1000
0001
0010
0100
1000
0001
0100
0010
1000
0100
0010
0100
,
1000
0001
0010
0100
1000
0001
0100
0010
1000
0100
0010
0100
1000
0001
0010
0001
,
1000
0100
0010
0100
1000
0001
0100
0010
0100
0001
1000
0100
0010
0100
1000
0001
,
0100
0010
1000
0100
1000
0010
1000
0010
0100
0010
1000
0100
0010
0100
1000
0001
,
0100
0010
1000
0100
1000
0001
0010
0100
1000
0001
0100
0010
1000
0100
0010
0100
,
1000
0001
0010
0100
1000
0001
0100
0010
1000
0100
0010
0100
1000
0001
0010
0001
,
1000
0100
0010
0100
1000
0001
0100
0010
0100
0001
1000
0100
0010
0100
1000
0001
,
0100
0010
1000
0100
1000
0001
0100
0010
1000
0100
0010
0100
1000
0001
0100
0010
,
1000
0001
0010
0100
1000
0001
0100
0010
1000
0001
0010
0100
0010
0100
1000
0001
,
0100
0010
1000
0100
0010
0100
1000
0001
0100
0010
1000
0001
0010
0100
1000
0001
,
0100
0010
1000
0100
0010
0100
1000
0001
0100
0010
1000
0100
0010
0000
0001
0100
,
0010
0000
0010
0000
1001
0000
0000
0000
1000
0100
0010
0100
1000
0001
0100
0010
,
1000
0100
0010
0100
1000
0001
0100
0010
0100
0001
1000
0100
0010
0100
1000
0001
,
0100
0010
0100
0001
1000
0100
0010
0100
1000
0001
0100
0010
1000
0100
0010
0100
,
1000
0001
0100
0010
0100
0001
1000
0100
0010
0100
1000
0001
0100
0010
1000
0100
,
0010
0100
1000
0001
1000
0000
0010
0100
0010
0100
0001
1000
0100
0010
0100
1000
,
0001
0100
0010
1000
0100
0000
0010
0001
0010
0100
1000
0001
0100
0010
1000
0100
,
0010
0100
1000
0001
0100
0010
0100
0000
0010
1000
0010
0000
0100
0001
0100
0000
,
0010
0100
0010
0000
1010
0000
1001
0000
0000
0000
0000
0000
0110
0000
1001
0000
,
0000
0000
0000
0000
1000
0100
0010
0001
0010
0100
1000
0001
0100
0010
0100
0001
,
1000
0100
0010
0100
1000
0001
0100
0010
1000
0001
0010
0100
1000
0001
0100
0010
,
1000
0100
0010
0100
1000
0001
0100
0010
1000
0001
0010
0001
1000
0100
0010
0100
,
1000
0001
0100
0010
1000
0100
0010
0100
1000
0001
0010
0100
1000
0001
0100
0010
,
0100
0001
1000
0100
0010
0100
1000
0001
0010
0100
1000
0001
0100
0010
1000
0100
,
0010
0100
1000
0001
0010
0100
1000
0001
0100
0010
0100
0001
1000
0100
0010
0100
,
1000
0001
0010
0100
1000
0001
0100
0010
0100
0001
1000
0100
0010
0100
1000
0001
,
0100
0010
0100
0001
0010
0100
1000
0001
0100
0010
1000
0100
0010
0001
0010
0100
,
1000
0010
0100
0010
1000
0001
0100
0010
1000
0100
0010
0100
1000
0001
0100
0010
,
0100
0001
1000
0000
0010
0100
1000
0001
0100
0010
1000
0100
0010
0100
1000
0001
,
0010
0100
1000
0001
0100
0010
1000
0100
0010
0100
1000
0001
0100
0010
1000
0100
,
0010
0100
1000
0001
0010
0100
1000
0001
0100
0010
1000
0100
0010
0100
1000
0001
,
0100
0010
0100
0001
0010
0100
1000
0001
0100
0010
1000
0100
0010
0100
1000
0001
,
0010
0100
1000
0001
0100
0010
0100
0001
1000
0100
0010
0100
1000
0001
0010
0100
,
1000
0001
0100
0010
0100
0001
1000
0100
0010
0100
1000
0001
0010
0100
1000
0001
,
0100
0010
0100
0001
0010
0100
1000
0001
0100
0010
1000
0100
0010
0100
1000
0001
,
0010
0100
1000
0001
0100
0010
0100
0001
1000
0100
0010
0100
1000
0001
0100
0010
,
0100
0001
0010
0100
1000
0001
0100
0010
1000
0100
0010
0100
1000
0001
0010
0100
,
1000
0001
0100
0010
1001
0000
0010
0000
0000
0000
0010
0000
0000
0000
0010
0000
,
0000
0010
1001
0100
0000
0010
0000
1000
,
0000
0010
0100
0010
0101
0010
1100
0001
,
1010
0000
0100
0000
0100
0001
0100
0001
1000
0010
1000
0010
0100
0001
0100
0010
,
1000
0100
0010
0100
1000
0001
0010
0100
1000
0001
0100
0001
1000
0100
0010
0100
,
1000
0001
0010
0100
1000
0001
0100
0010
0100
0001
1000
0100
0010
0100
1000
0001
,
0100
0010
1000
0100
0010
0100
1000
0001
0010
0100
1000
0001
0100
0010
1000
0100
,
0010
0100
1000
0001
0010
0100
1000
0001
0100
0010
0100
0001
1000
0100
0010
0100
,
1000
0001
0010
0100
1000
0001
0100
0010
0100
0001
1000
0100
0010
0100
1000
0001
,
0010
0100
1000
0001
0100
0010
0100
0001
1000
0100
0010
0100
1000
0001
0010
0100
,
1000
0001
0100
0010
0100
0001
1000
0100
0010
0100
1000
0001
0010
0100
1000
0001
,
0100
0000
0000
0010
0000
0000
0100
0000
0000
0001
0000
0000
1000
0000
0000
0000
0000
0000
0001
0000
0010
0000
0100
0000
1000
0000
0000
0000
0000
0000
0100
0000
0010
0000
0001
0000
1000
0000
0000
0000
0000
0000
0001
0000
0010
0000
0100
0000
,
1000
0000
0000
0010
0100
0001
0100
0000
0000
0010
0000
0000
1000
0000
0000
0010
0000
0000
0000
0000
0000
1000
0000
0000
,
0001
0000
1001
0000
1001
0000
0010
0010
,
0100
0000
0100
0000
0001
0010
0100
1000
0001
0000
0000
0000
0000
0000
0000
0000
,
0000
0000
0000
0000
0001
1000
0100
0010
0100
1000
0001
0100
0010
0100
0001
1000
,
0100
0010
0100
1000
0001
0010
0100
1000
0001
0100
0010
0100
0001
1000
0100
0010
,
0100
1000
0001
0010
0100
1000
0001
0100
0010
1000
0100
0010
0100
1000
0001
0010
,
0100
1000
0001
0100
0010
0100
0001
0010
0100
1000
0001
0100
0010
0100
0001
0010
,
0100
1000
0001
0100
0010
0100
0001
1000
0100
0010
0100
1000
0001
0010
0100
1000
,
0001
0000
0000
0100
0000
0000
0010
0000
0000
0100
0000
0000
0001
0000
0000
0010
0000
0000
0100
0000
0000
1000
0000
0000
0001
0000
0000
0100
0000
0000
0010
0000
0000
0100
0000
0000
0010
0000
1000
0000
0100
0000
0010
0000
0100
0000
1000
0000
,
0001
0010
0100
1000
0001
0100
0010
0000
0000
0000
0000
0000
0000
0000
0000
0000
0000
0000
0000
0000
0000
0000
0000
0000
,
0000
1001
0000
0110
0110
1001
0000
1000
,
0000
0000
0001
0100
0010
1000
0100
0010
0100
1000
0001
0100
0010
1000
0100
0010
,
0100
1000
0001
0010
0100
1000
0001
0100
0010
0100
0001
1000
0100
0010
0100
1000
,
0001
0010
0100
1000
0001
0100
0010
1000
0100
0010
0100
1000
0001
0010
0100
1000
,
0001
0100
0010
1000
0100
0010
0100
1000
0001
0010
0100
1000
0001
0100
0010
0100
,
0001
0010
0100
1000
0001
0100
0010
0100
0010
1000
0100
0010
0100
1000
0001
0010
,
0100
1000
0001
0100
0010
1000
0100
0010
0100
1000
0001
0010
0100
1000
0001
0100
,
0010
1000
0100
0010
0100
1000
0001
0010
0100
1000
0001
0100
0010
1000
0010
1000
,
0100
0000
1001
0000
0000
0000
0110
0000
0110
0000
1001
0000
1000
0100
0010
0001
,
0010
0100
1000
0001
1000
0100
1000
0100
1000
0010
1000
0010
0100
0001
0010
0100
,
0010
0001
1000
0010
0100
0001
0010
0100
0010
0001
1000
0100
0010
0001
1000
0010
,
0100
0010
1000
0001
0010
0100
0010
0001
1000
0100
0010
0001
1000
0010
0100
0001
,
0010
0100
0010
0001
1000
0100
0010
0001
1000
0010
0100
0001
0010
0100
0010
0001
,
1000
0100
0010
0001
1000
0010
0100
0010
1000
0100
0010
0001
1000
0010
0100
0010
,
0100
0001
0010
0100
0010
0001
1000
0100
0010
0001
1000
0010
0100
0001
0010
0100
,
0010
0001
1000
0100
0010
0001
1000
0010
0100
0001
0010
0100
0010
0001
1000
0100
,
0010
0001
1000
0000
0000
0000
0110
0000
1001
0000
0110
0000
0000
0000
0010
1000
,
0010
0100
0001
0100
0010
1000
0100
0010
0100
1000
0001
0100
0010
1000
0100
0010
,
0100
1000
0001
0010
0100
1000
0001
0100
0010
0100
0001
1000
0100
0010
0100
1000
,
0001
0010
0100
1000
0001
0100
0010
1000
0100
0010
0100
1000
0001
0010
0100
1000
,
0001
0100
0010
1000
0100
0010
0100
1000
0001
0010
0100
1000
0001
0100
0010
0100
,
0001
0010
0100
1000
0001
0100
0010
0100
0010
1000
0100
0010
0100
1000
0001
0010
,
0100
1000
0001
0100
0010
1000
0100
0010
0100
1000
0001
0010
0100
1000
0001
0100
,
0010
1000
0100
0010
0100
1000
0001
0010
0100
1000
0001
0100
0010
1000
0100
0010
,
0001
0100
0010
1000
0001
0100
0001
0100
0010
1000
0100
0010
0100
1000
0001
0100
,
0010
1000
0100
0010
0100
1000
0001
0010
0100
1000
0001
0100
0010
0100
0001
1000
,
0100
0010
0100
1000
0001
0010
0100
1000
0001
0100
0010
1000
0100
0010
0100
1000
,
0001
0010
0100
1000
0001
0100
0010
1000
0100
0010
0100
1000
0001
0010
0100
1000
,
0001
0100
0010
0100
0001
0010
0100
1000
0001
0100
0010
0100
0010
1000
0100
0010
,
0100
1000
0001
0010
0100
1000
0001
0100
0010
1000
0100
0010
0100
1000
0001
0010
,
0100
1000
0001
0100
0010
1000
0100
0010
0100
1000
0001
0010
0100
1000
0001
0100
,
0010
1000
0001
0100
0010
1000
0100
0010
0100
1000
0001
0010
0100
1000
0001
0100
,
0010
1000
0100
0010
0001
0000
0100
0000
0010
0000
1000
0100
1000
0100
1000
0001
,
1000
0010
0100
0001
0010
0100
0010
0001
1000
0010
0100
0001
0010
0100
0010
0001
,
1000
0100
0010
0001
1000
0010
0100
0010
1000
0001
0010
0100
0010
0001
1000
0100
,
0010
0001
1000
0010
0100
0001
0010
0100
0010
0001
1000
0100
0010
0001
1000
0010
,
0100
0001
0010
0100
0010
0001
1000
0100
0010
0001
1000
0010
0100
0010
1000
0100
,
0010
0001
1000
0010
0100
0010
0100
0001
0010
0100
0010
0001
1000
0100
0010
0001
,
1000
0010
0100
0001
0010
0100
0010
0001
1000
0100
0010
0001
1000
0010
0100
0001
,
0010
0100
0010
0001
1000
0100
0010
0001
1000
0010
0100
0001
0010
0100
1000
0001
,
0100
0010
1000
0100
0010
0100
1000
0001
0010
0100
1000
0001
0100
0010
0100
0001
,
1000
0000
0000
0000
0000
0000
0000
0000
1000
0100
0010
0100
1000
0001
0100
0010
,
1000
0100
0010
0100
1000
0001
0010
0100
1000
0001
0100
0010
0100
0001
1000
0100
,
0010
0100
1000
0001
0100
0010
0100
0001
0010
0100
1000
0001
0100
0010
0100
0001
,
1000
0100
0010
0100
1000
0001
0100
0010
1000
0001
0010
0100
1000
0001
0100
0010
,
0100
0001
1000
0100
0010
0100
1000
0001
0010
0100
1000
0001
0100
0010
1000
0001
,
0100
0001
1000
0100
0010
0100
1000
0001
0010
0100
1000
0001
0100
0010
0100
0001
,
1000
0100
0010
0100
1000
0001
0010
0100
1000
0001
0100
0010
0100
0001
0010
0100
,
1000
0001
0100
0010
0100
0001
0010
0100
1000
0001
0100
0010
0100
0001
1000
0100
,
0010
0100
1000
0001
0010
0100
1000
0001
0100
0010
0100
0001
0010
0100
1000
0001
,
0100
0010
1000
0100
0010
0100
1000
0001
0010
0100
1000
0001
0100
0010
0100
0001
,
1000
0100
0010
0100
1000
0001
0010
0100
1000
0001
0100
0010
0100
0001
0010
0100
,
1000
0001
0100
0010
0100
0001
1000
0100
0010
0100
1000
0001
0010
0100
1000
0001
,
0100
0010
0100
0001
0010
0100
1000
0001
0100
0010
1000
0100
0010
0100
1000
0001
,
0100
0010
1000
0100
0010
0100
1000
0001
0010
0100
1000
0001
0100
0010
1000
0100
,
0010
0100
1000
0001
0010
0100
1000
0001
0100
0010
0100
0001
1000
0100
0010
0001
,
1000
0000
0000
1001
0000
1010
1001
0011
,
0000
1001
0000
0000
0000
0000
0000
0000
,
0000
0000
0000
0000
,
0000
0000
0000
0000
0001
0100
0010
1000
,
0010
0100
0001
0010
0100
1000
0100
0010
,
0100
1000
0100
0010
0100
1000
0100
0010
,
0100
1000
0001
0100
0001
1000
0001
0100
,
0001
1000
0100
0010
0100
1000
0001
0100
,
0010
0100
0001
1000
0100
0010
0100
1000
,
0001
0100
0010
1000
1001
0010
0010
1001
,
0100
0100
1001
0010
0010
1001
0100
0100
,
0010
0010
0010
0000
1000
0100
0100
0010
,
0001
0001
0100
0010
1000
0100
0100
0010
,
0100
1000
0001
0100
0101
0000
0000
0000
,
0000
0010
0000
1000
0010
0000
0010
0100
,
0000
0100
0001
0000
0011
0000
0000
0000
,
0000
0001
0100
0001
0100
0000
0000
0010
,
0000
1000
0020
0000
,
0000
0000
0130
0001
0010
0000
0001
0000
,
0100
0010
1000
0010
0100
0001
0010
0100
,
1000
0100
0010
0001
0100
0001
0010
0001
,
0100
0001
0010
0000
0011
0000
0001
0100
,
0001
1000
0001
0100
0001
0010
0001
1000
,
0100
0010
0100
1000
0100
0010
0001
0100
,
0010
1000
0010
0100
0001
0010
0100
1000
,
0100
0010
0001
1000
0001
0100
0001
0010
,
0100
1000
0001
0100
0001
1000
0001
0010
,
0001
1000
0001
0100
0101
0000
0001
0010
,
0000
0010
0000
0010
0100
1000
0100
0010
,
0100
1000
0100
1000
1100
0000
1100
0000
,
1100
0000
1000
0100
0000
0100
0010
0000
,
0011
0000
0001
0100
0001
1000
0001
0100
,
0001
0010
0100
1000
0100
0010
0001
1000
,
0100
0010
0001
1000
0002
0000
0000
0000
,
0203
0000
0000
0010
,
0010
0310
0110
0010
,
1000
0000
0001
0100
0000
0100
0001
0010
,
0001
0100
0011
0101
,
1010
0000
0010
1000
0000
1000
0010
0000
,
1010
0000
0001
0100
0001
0000
0010
0000
,
0001
0000
0100
0001
0000
0001
1000
0000
,
0010
0000
1000
0000
0001
0100
0001
0010
,
0001
0100
0001
1000
0001
0010
0001
0000
,
1001
0000
0110
0000
1001
0000
0001
0100
,
0001
0100
0001
0010
0000
0010
0001
0100
,
0001
0000
0010
0000
0001
0100
0001
1000
,
0001
0100
0001
0010
0100
1000
0100
0010
,
0100
1000
0100
0000
1000
0001
0100
0001
,
1000
0001
0100
0001
0010
0100
1000
0100
,
0010
0100
1000
0000
0001
1000
0001
1000
,
0001
1000
0001
0100
0001
0100
0001
0100
,
0001
0100
0001
0100
0001
0010
0001
0010
,
0001
0100
0001
1000
0010
0100
0010
1000
,
0100
0010
0100
1000
0100
0000
0100
0000
,
0100
0000
0100
0010
0000
0010
0100
0000
,
0110
0000
0001
1000
0001
0000
0100
0000
,
0100
0000
0100
0010
0000
0010
1000
0000
,
0001
0000
1000
0000
0100
1000
0100
0010
,
0001
0100
0001
1000
0010
0100
0100
0010
,
1000
0100
0010
0100
1000
0001
0100
0010
,
1000
0100
0010
0100
1000
0001
0100
0010
,
1000
0100
0010
0000
1001
0000
0110
0000
,
1000
0000
0010
0100
0000
0001
0100
0000
,
1001
0000
1000
0010
0110
0000
0100
0000
,
0001
0000
1000
0010
0000
0100
0001
0000
,
1000
0000
0010
0000
1001
0000
0010
0020
,
0000
0000
0130
1001
,
0101
1010
1010
1000
,
0001
0000
1000
0100
0000
0001
0100
1000
,
0100
0000
1000
0000
0100
0010
0001
0010
,
0100
0001
0010
0001
0100
0010
0001
0010
,
0100
0001
0010
0100
0010
0000
0000
0000
,
0000
0000
0001
0011
,
1110
0000
1111
0000
1000
0100
0001
0100
,
1000
0010
0001
0010
1000
0100
0001
0100
,
1000
0001
0100
0001
1000
0001
0010
0001
,
1000
0001
0010
0100
1000
0100
0010
0100
,
1000
0100
0010
0001
1000
0100
0001
1000
,
0010
0001
0100
0001
1000
0100
0001
0100
,
1000
0010
0001
0010
1000
0100
0001
0100
,
1000
0010
1000
0001
0100
0001
1000
0010
,
0100
0001
1000
0001
1001
0000
1001
0000
,
0000
0000
0011
0000
0000
0011
0011
0011
,
0011
0000
1001
0000
1000
0100
0001
0100
,
1000
0001
0010
0100
2000
0000
3010
0001
,
0020
0000
1030
0000
2000
0000
3010
0010
,
0100
0001
0001
0100
1000
0100
0100
0001
,
0100
0100
0010
1000
1001
0000
1000
0100
,
0001
0100
0010
0001
0100
1000
0100
0010
,
1000
0000
0001
0100
0020
0000
1030
0100
,
0000
0010
0001
0000
1000
0100
0010
0001
,
0000
0100
0040
0000
0030
1001
0000
1000
,
0100
0001
0100
1000
0001
0010
0100
2000
,
0000
0000
0010
3010
0200
0000
0301
0010
,
1000
0010
0000
0001
0100
0010
1000
0100
,
0000
0010
0001
0001
2000
0000
3010
0100
,
0101
0000
1001
0010
0100
0001
1000
0100
,
0010
0001
1000
0010
0200
0000
0301
0200
,
0000
0310
1000
0100
0010
0011
0001
0100
,
0110
0010
1010
1000
1001
1001
1001
1001
,
0000
0010
1001
0100
0010
0000
1100
0010
,
0001
0010
0100
1000
0001
1000
1001
0100
,
0010
0100
0110
0010
0001
0010
0011
0001
,
1000
0001
1001
0100
0110
0110
1001
1001
,
0000
1000
0101
0010
1000
0100
0100
0010
,
1001
0100
0010
0100
0001
1000
0100
0010
,
0001
0010
0100
1000
0000
1001
1001
1001
,
0110
0000
1001
0000
1000
0100
0001
0100
,
1000
0001
0010
0100
1000
0001
0100
1000
,
0100
0001
1000
0010
0100
0001
1000
0100
,
0010
0001
0010
0100
1000
0001
0100
0010
,
0100
0001
1000
0100
0010
0100
1000
0001
,
0100
0010
0100
0001
1000
0100
0010
0100
,
1000
0001
0100
0010
0100
0001
1000
0100
,
0010
0100
1000
0001
0100
1001
1001
0010
,
0100
0010
1000
0100
1001
0010
0100
0001
,
1000
0100
0010
0100
1000
0001
0100
0010
,
0100
0001
1000
0100
0010
0100
1000
0001
,
0100
0010
0100
0001
1000
0100
0010
0100
,
1000
0001
0100
0010
1001
0100
0010
0100
,
0001
1000
0100
0010
0100
1000
0001
0100
,
0010
0100
0001
1000
0100
0010
0100
1000
,
0001
0010
0100
1000
0000
1001
1001
0110
,
1001
0000
0000
0000
1001
0010
0100
0001
,
1000
0010
0000
1001
0000
0110
0000
1001
,
0110
0000
1000
0001
1001
0100
0010
1000
,
0100
0010
0100
0101
0000
1010
0000
0110
,
1001
0000
1000
0001
1001
0100
0010
0100
,
0001
1000
0100
0010
0100
1000
0001
0010
,
0100
1000
0001
0100
0010
0100
0001
1000
,
0100
0010
0001
0100
0010
0010
0100
0100
,
0001
0001
0100
0100
0011
0000
1000
0001
,
0000
0100
0010
0100
0001
0000
0100
0010
,
0000
1000
0100
0010
0100
0000
0010
0100
,
0000
1000
0001
0100
0010
0000
1000
0100
,
0000
0010
0100
1000
0001
0100
0010
0100
,
0001
1000
0100
0010
0100
1000
0001
0100
,
0010
0100
0001
1000
0100
0010
0100
1000
,
0001
0010
0100
1000
0001
0100
0010
0100
,
0001
1000
0100
0010
0001
0020
0130
2000
,
3100
0020
0031
0200
0310
2000
3100
0020
,
0031
0200
0310
0200
0301
0010
0100
1000
,
0001
0100
0010
0100
0001
1000
0100
0010
,
0100
1000
0001
0010
0100
1000
0001
0100
,
0010
0100
0001
1000
0100
0010
0100
1000
,
0001
0100
0010
0100
0001
1000
0100
0010
,
0100
1000
0001
0100
0000
0110
0110
1001
,
0110
0000
0000
2002
0000
0000
0000
3003
,
0000
0000
0000
0000
0000
0000
1000
0001
0100
0000
0000
0000
0000
0000
0000
0000
,
0000
0000
0000
0000
1000
0010
0010
0100
,
0001
0001
0100
0010
0000
1000
1000
0100
,
0010
0010
0100
1000
0000
0001
0100
0100
,
0010
0010
1000
1000
0100
0100
0010
0010
,
0001
0001
0100
0010
0000
1000
0010
0010
,
0100
0001
0100
0100
0000
0010
1000
1000
,
0100
0010
0010
0100
0000
1000
0001
0001
,
0100
0010
0010
1000
0100
0100
0010
0010
,
0100
0100
1000
0001
1000
0100
0010
0100
,
1000
0000
0000
0001
0000
0000
0100
0000
0000
0000
0000
0000
0001
0010
0100
1000
0001
0100
0010
1000
0100
0010
0100
1000
,
0010
1000
0001
0000
0100
0010
0010
1000
,
0100
0100
0010
0100
1000
0001
0100
0010
,
1000
0100
0010
0100
1000
0100
0010
0100
,
1000
0000
0000
0001
0000
0000
0100
0000
0000
0010
0000
0000
1000
0001
0010
0100
1000
0001
0100
0010
0100
0001
1000
0001
,
0100
0001
1000
1000
0010
0010
0100
0001
,
0100
0000
0010
0000
1000
0000
0100
0000
0010
0000
0001
0000
1000
0100
1000
0100
,
0010
0001
0010
0001
0100
0010
0100
0010
0400
0000
0000
0000
0000
0000
0000
0000
,
0000
0000
0000
0000
,
0000
0000
0000
0000
,
0000
0000
0000
0000
0000
0000
0310
0000
0001
0100
0000
0010
,
1000
0000
0100
0010
0000
0001
0010
0000
0100
1000
0000
0001
,
0100
0000
0010
1000
0000
0100
0010
0000
0001
0010
0000
0100
,
1000
0000
0001
0100
0000
0010
1000
0000
0100
0010
0000
0001
,
0100
0000
0010
1010
0000
1000
1010
0000
0010
0110
0000
0100
,
0001
0000
0100
0010
0000
1000
0100
0000
0010
0100
0000
1000
,
0001
0000
0100
0010
0000
1000
0100
0000
0010
0100
0000
1000
,
0100
0000
0010
0100
0000
0001
0010
0000
0100
1000
0000
0001
,
0100
0000
0000
0000
0010
0000
1000
0000
0000
0000
0100
0000
0010
0000
0000
0000
0001
1000
0001
0000
0000
0000
1000
0000
,
0100
0000
0000
0000
0010
0001
0010
0000
0000
0000
0100
0000
1000
0000
0000
0000
0001
0100
0010
0000
0000
0000
1000
0000
,
0100
0000
0000
0000
0010
0001
1000
0000
0000
0000
0010
0000
0100
0000
0000
0000
0001
1000
0010
0000
0000
0000
0100
0000
,
0001
0000
0000
0000
0100
0010
0100
0000
0000
0000
0010
0000
1010
0000
0000
0000
1000
0001
0100
0000
0000
0000
0010
0000
,
1010
0000
1000
0010
0000
1000
0001
0001
0001
0100
0100
0100
,
0010
0000
0000
1001
0010
0100
0001
0001
0001
0100
0100
0100
,
0010
0000
0000
1001
0100
0010
1000
1000
1000
0010
0010
0010
,
0100
0100
0100
0010
0010
0010
0100
0100
0100
0010
0010
0010
,
0110
0000
0000
0000
0000
0000
0000
0000
0000
0000
0000
0000
0001
0100
0010
1000
0001
0010
0100
1000
0001
0100
0010
0100
,
0001
0000
1000
0000
1000
0000
0010
0100
0010
0000
0100
0000
0001
0000
0100
0010
,
0100
0000
0000
0000
0000
0000
0001
0000
0000
0100
0000
0000
0001
0000
0000
0000
0000
0000
1000
0000
0000
0010
0000
0000
0100
0000
0001
0000
0100
0000
0010
0000
1000
0000
0100
0000
0010
0000
0100
0000
1000
0000
0001
0000
0100
0000
0010
0000
,
1000
0000
0010
0000
0100
0000
0001
0100
0010
0000
1000
0000
0100
0000
0100
0000
,
0010
0000
0000
0000
0000
0000
0001
0000
0000
1000
0000
0000
0001
0000
0000
0000
0000
0000
0100
0000
0000
0000
0000
0000
0001
0000
0010
0000
0100
0000
1000
0000
0001
0000
0100
0000
0010
0000
0100
0000
0001
0000
1000
0000
0100
0000
0010
0000
,
0100
1000
0001
0010
0100
1000
0001
0100
0010
0100
0001
1000
0100
0010
0100
1000
0001
0010
0100
1000
0001
0100
0010
0100
,
0001
1000
0100
0010
0100
1000
0001
0010
0100
1000
0001
0100
0010
0100
0001
1000
0100
0010
0001
1000
0100
0010
0100
1000
,
0001
0100
0010
0100
0001
0100
0010
0100
0001
1000
0100
0010
0100
1000
0001
0010
0100
1000
0001
0100
0010
0100
0001
1000
,
0100
0000
0010
0000
0100
0000
1000
0000
0001
0000
0010
0000
0100
0000
1000
0000
0001
0000
0100
0000
0010
0000
1000
0000
0010
0000
0000
0000
0000
0000
0000
0000
0000
0100
0000
0000
0001
0000
0000
0100
0000
0000
0010
0000
0000
0000
0000
0000
,
0000
0100
0010
0000
0110
0000
0000
0010
0100
0001
0100
0010
1000
0100
0010
0100
,
1000
0001
0100
0010
0100
0001
1000
0010
0100
0001
1000
0100
0010
0100
1000
0001
,
0010
0100
1000
0001
0100
0010
0100
0001
1000
0100
0010
0100
1000
0001
0100
0010
,
1000
0010
0100
0001
1000
0100
0010
0100
1000
0001
0010
0100
1000
0001
0100
0010
,
0100
0001
1000
0100
0010
0100
1000
0001
0010
0100
1000
0001
0100
0010
0100
0001
,
1000
0100
0010
0100
1000
0001
0100
0010
0100
0001
0100
0010
1000
0100
0010
0100
,
1000
0100
0010
0100
1000
0100
0010
0100
1000
0001
0100
0010
0100
0001
0100
0010
,
1000
0100
0010
0100
1000
0001
0010
0100
1000
0001
0100
0010
0100
0001
1000
0100
,
0010
0100
1000
0001
0010
0100
1000
0001
0100
0010
0100
0001
1000
0100
0010
0100
,
1000
0001
0100
0010
1000
0100
0010
0100
1000
0001
0010
0100
1000
0001
0100
0010
,
0100
0010
1000
0100
0010
0100
1000
0001
0100
0010
0100
0010
1000
0100
0010
0100
,
1000
0010
0100
0010
1000
0010
0100
0010
1000
0100
0010
0100
1000
0010
0100
0010
,
0100
0000
0000
0010
0000
0000
1000
0000
0000
0100
0000
0000
0010
0000
0000
0100
0000
0000
1000
0000
0000
0010
0000
0000
0100
0000
0000
0000
0100
0000
0000
0000
0100
0000
0000
0000
0001
0000
0000
0000
0001
0000
0000
0000
0001
0000
0000
0000
,
1000
0000
0000
0010
0100
0010
1000
1000
0100
0010
0010
0100
,
1000
0000
0000
0010
0010
0010
0100
0010
0100
0010
1000
0100
,
0010
0001
0010
0100
1000
0010
0100
0001
1000
0100
0010
0100
,
1000
0000
0000
0000
0000
0000
0000
0000
0000
0000
0000
0000
0001
0010
0100
1000
0001
0100
0010
1000
0001
0100
0010
1000
,
0001
0100
0100
0010
1000
0100
0010
0100
,
1000
0000
0000
0001
0000
0000
0100
0000
0000
0010
0000
0000
0100
0001
1000
0010
0100
0010
0100
0001
0010
0100
0010
0001
,
0100
0000
0010
1000
0010
0000
0100
0001
1000
0000
0010
0000
0100
0000
0001
0000
,
1000
0000
0000
0100
0000
0000
0010
0000
0000
0100
0000
0000
1000
0001
0100
0010
1000
0100
0010
0100
1000
0001
0010
0100
,
1000
0001
0100
0010
1000
0100
0010
0100
1000
0001
0010
0100
1000
0001
0100
0010
0100
0001
1000
0010
0100
0001
1000
0100
,
0010
0100
1000
0001
0010
0100
1000
0001
0100
0010
0100
0001
1000
0010
0100
0001
1000
0100
0010
0100
1000
0001
0010
0100
,
1000
0001
0100
0010
0100
0001
1000
0100
0010
0100
1000
0001
0010
0100
1000
0001
0100
0010
1000
0001
0010
0100
1000
0001
,
0100
0000
0010
0000
1000
0000
0100
0000
0010
0000
0100
0000
1000
0000
0001
0000
0010
0000
0100
0000
1000
0000
0010
0000
1000
0000
0000
0000
0000
0000
0000
0000
0000
0010
0000
0000
0100
0000
0000
0000
0000
0000
0110
0000
0000
0000
0000
0000
,
0000
0001
1000
0000
1001
0000
0000
0000
0100
0000
0010
0100
0010
0000
1000
0000
,
0001
0000
0100
0010
0100
0000
0010
1000
0010
0000
0100
0001
0100
0000
0010
1000
,
0010
0000
0000
0100
0001
0000
0000
0100
0010
0000
0000
1000
0100
0000
0010
0001
,
1000
0000
0010
0100
0010
0000
0100
0001
0100
0000
0010
1000
0010
0000
0100
0001
,
0100
0000
0010
1000
0010
0000
0100
0001
0100
0000
0010
0000
1000
0100
0010
0000
,
0110
0000
0010
0100
1000
0000
0010
0000
0100
0000
0001
0010
0100
0000
1000
0001
,
0100
0000
0000
0010
0100
0000
0000
0010
0100
0000
0001
0100
0010
1000
0001
0000
,
0110
0000
0000
0010
0100
0000
0000
0001
1000
0000
0000
0000
1001
0000
0000
0000
,
1001
0000
0000
0110
0000
0110
0000
0110
,
1001
0110
0000
0000
,
0000
0000
0000
0000
,
0000
0000
0000
0000
0000
0000
0000
0000
1001
0000
0000
1001
0000
0000
0010
0100
,
0001
1000
0100
0010
0100
1000
0001
0100
0101
0000
0000
1010
0000
0000
0100
0001
,
1000
0100
0010
0100
1000
0001
0100
0010
1010
0000
0000
0110
0000
0000
0100
0001
,
0100
0010
1000
0100
0010
0100
1000
0001
1010
0000
0000
0100
0000
0000
0010
0100
,
0001
1000
0010
1000
0001
0000
0000
0000
1000
0000
1000
0100
0010
0000
0001
0100
,
0010
1000
0100
0010
0100
1000
0001
1000
1001
0000
0100
0010
0100
0000
0001
0010
,
0100
1000
0001
0100
0010
1000
0100
0010
0011
0000
0100
1000
0001
0000
0100
0010
,
1000
0100
0010
0100
1000
0001
0100
0010
1010
0000
0000
0101
0000
0000
1000
0100
,
0010
0100
1000
0001
0100
0010
1000
0001
0100
0001
0010
0100
1000
0001
0100
0010
,
1000
0100
0010
0100
1000
0001
0010
0100
1000
0001
0100
0010
1000
0001
0100
0010
,
1000
0000
0000
0000
0000
0000
0000
0000
0001
0010
0100
1000
0001
0100
0010
0100
,
0001
1000
0100
0010
0100
1000
0001
0100
0010
1000
0100
0010
0100
1000
0001
0010
,
0100
1000
0000
0000
1001
0000
0000
0000
0001
0010
0100
1000
0001
0100
0010
0100
,
0001
1000
0100
0010
0100
1000
0001
0100
0010
1000
0100
0010
0100
1000
0001
0100
,
0010
0100
0001
0010
0100
1000
0001
0100
0010
1000
0100
0010
0100
1000
0001
0100
,
0010
0100
0001
1000
0100
0010
0100
1000
0001
0100
0010
0100
0001
0010
0100
1000
,
0001
0100
0010
0100
0001
1000
0100
0010
0001
0100
0010
0100
0001
0010
0100
1000
,
0001
0100
0010
0100
0001
0010
0100
1000
0001
0100
0010
1000
0100
0010
0100
1000
,
0001
0010
0100
1000
0001
0100
0010
1000
0100
0010
0100
1000
0001
0100
0010
1000
,
0001
0100
0010
0100
0001
0010
0100
0010
0100
1000
0010
0100
0001
1000
0100
0010
,
0100
1000
0001
0010
0100
1000
0001
0100
0002
0000
0000
0000
0000
0000
0000
0000
,
0000
0000
0000
0000
2003
0000
0000
3020
,
0000
0230
0302
0000
,
0000
0000
0000
0000
2003
0000
0000
3020
,
0000
0000
0000
0000
0230
0000
0000
0000
0301
1000
0010
0100
0001
0010
0100
1000
,
0001
0100
0010
0100
0001
1000
0100
0010
0100
1000
0001
0010
0100
1000
0001
0100
,
0010
0100
0001
0010
0100
1000
0001
0100
0010
1000
0100
0010
0100
1000
0001
0100
,
0010
0100
0001
0010
0100
1000
0001
0100
0010
1000
0100
0010
0100
0010
0001
0010
,
0100
1000
0001
0100
0010
0100
0001
0100
0001
0000
1000
0000
0000
0010
0000
0000
,
0100
0000
0000
0001
0000
0000
0100
0000
0000
0000
0010
0000
0000
0100
0000
0000
,
0010
0000
0000
0100
0000
0000
0001
0000
0000
0000
0100
0000
0000
0010
0000
0000
,
0100
0000
0000
0001
0000
0000
1000
0000
0000
0000
0010
0000
0000
0100
0000
0000
,
0001
0000
0000
1000
0000
0000
0010
0000
1001
0000
1000
0010
0100
0000
0001
0100
,
0010
0000
1000
0100
0010
0000
0100
1000
0001
0000
0100
0010
0100
0000
0001
0010
,
0100
0000
1000
0001
0100
0000
0010
1000
0010
0000
0100
0001
0100
0000
0010
1000
,
0001
0000
0100
0010
0100
0000
0001
0010
0100
0000
1000
0001
0100
0000
0010
1000
,
0001
0010
0100
1000
0001
0100
0010
1000
0001
0000
1000
0000
0000
0010
0000
0000
,
0100
0000
0000
0001
0000
0000
0100
0000
0000
0000
0010
0000
0000
1000
0000
0000
,
0010
0000
0000
0100
0000
0000
0001
0000
0220
0000
0000
0000
0000
0000
0000
0000
,
0000
0000
0000
0000
,
0330
0000
0000
0000
0000
0000
0000
0000
0001
1000
0001
1000
0001
1000
0001
1000
,
0001
0100
0010
1000
0001
0010
0100
1000
0001
0100
0010
1000
0001
0010
0100
1000
,
0001
0100
0010
1000
0100
0010
0100
1000
0001
0010
0100
1000
0001
0100
0010
0100
,
0001
0100
0001
1000
0010
1000
0001
0100
0010
1000
0100
1000
0001
0100
0010
1000
,
0001
0010
0100
1000
0001
0100
0010
1000
0100
0010
0100
0000
0001
0010
0100
1000
,
0001
0100
0010
0100
0001
0010
0100
1000
0001
0100
0010
0100
0001
0010
0100
1000
,
0001
0010
0100
1000
0001
0010
0100
0010
0100
0001
0100
0010
0100
0010
0100
0001
,
0100
0010
1000
0100
0010
0100
1000
0001
0010
0100
1000
0001
0100
0010
1000
0100
,
0010
0100
1000
0001
0010
0100
1000
0001
1000
0000
0000
1010
0000
0000
0010
0000
,
0110
0000
0000
0101
0000
0000
0010
0000
1010
0000
0000
1001
0000
0000
1000
0010
,
0100
0001
1000
0100
0010
0000
0000
0000
1001
0000
0000
0110
0000
0000
1000
0000
,
0101
0000
0000
1010
0000
0000
0100
0000
1001
0000
0000
1001
0000
0000
0110
0000
,
1001
0000
0110
0000
1001
0000
0110
0000
0101
0000
0000
1010
0000
0000
0100
0000
,
1001
0000
0000
0110
0000
0000
0001
0000
1010
0000
0000
0110
0000
0000
0101
0000
,
0010
0000
1010
0000
0000
0000
0000
0000
1001
0000
0000
1001
0000
0000
0010
0000
,
1001
0000
0000
1001
0000
0000
0010
0000
1001
0000
0000
1001
0000
0000
0100
0000
,
0010
0000
1000
0010
0100
0001
0100
0010
1000
0100
0010
0100
1000
0001
0010
0100
,
1000
0001
0100
0010
0100
0001
1000
0100
0010
0100
1000
0001
0100
0010
1000
0100
,
0010
0100
1000
0001
0010
0100
1000
0001
0100
0010
1000
0100
0010
0100
1000
0001
,
0100
0010
1000
0010
0100
0001
1000
0010
1001
0000
0000
0100
0010
0000
0100
0000
,
0110
0000
0010
0100
0000
0000
0001
1000
0010
0000
0000
0100
0001
0000
0000
1000
,
0010
0000
0000
0100
0001
0000
1000
0000
1001
0000
0000
0000
0000
0000
0000
0000
,
0000
0000
0000
0000
,
0000
0000
0000
0000
,
0000
0001
0100
0010
1000
0000
0010
1000
,
0000
0001
0100
0001
1000
0000
0001
0010
,
0000
0100
1000
0100
0020
0000
0032
0000
,
0203
0000
0320
0000
1030
0000
0001
0100
,
0000
0100
0010
1000
0010
0000
0010
1000
,
0000
1000
0010
0100
0001
0000
0001
0010
,
0000
0010
0100
1000
0100
0000
0010
0000
,
0001
1000
0020
0000
,
0000
0130
0001
0100
0000
0010
0000
1000
,
0000
0010
0000
0200
0000
0000
0000
0000
,
0000
0301
0010
0002
0000
0203
0000
0320
,
0000
2030
0000
0000
3002
0000
0000
0000
,
0003
0100
0010
0200
0000
0320
0000
2030
,
0000
3002
0000
0023
0000
0000
0000
0000
,
0000
0000
0130
0000
1000
0000
0100
0000
0010
0000
0001
1000
0100
0010
0100
1000
,
0001
0100
0010
1000
0100
0010
0100
1000
0001
0100
0010
0100
0010
1000
0100
0010
,
0001
0010
0100
1000
0010
0100
0001
0100
0010
1000
0100
0010
0100
1000
0001
0100
,
0010
1000
0100
0010
0001
0100
0020
0000
1030
0100
0010
0100
1000
0001
0100
0010
,
1000
0100
0010
0001
0100
0010
2000
0000
3001
0010
0100
1000
0001
0100
0010
0100
,
0001
1000
0100
0010
0100
1000
0002
0000
0103
0010
1000
0010
0100
0001
1000
0100
,
0010
0100
1000
0001
0100
0010
2000
0000
3010
0100
0001
1000
0010
0100
0001
0100
,
0010
1000
0100
0010
0100
1000
0002
0000
1003
0001
0100
0010
1000
0001
0100
0010
,
1000
0100
0010
0100
1000
0001
0200
0000
0310
1000
0100
0010
0100
1000
0001
0100
,
0010
0000
0000
1000
0000
0000
0100
0000
0000
0010
0000
0000
0001
0000
1000
0000
0001
0000
1000
0000
0000
0010
0000
0000
0100
0000
0000
0000
0000
0000
0000
0000
0000
0000
0000
0000
0010
0000
0000
0000
0000
0000
1000
0000
0000
0000
0000
0000
,
0010
1000
0010
0000
0100
0001
0010
0001
,
0010
0001
0000
0001
0000
0000
0000
0000
1000
0000
0010
0000
1000
0000
0010
0000
,
0100
0000
0001
1000
0000
0000
0000
0000
0100
0000
1000
0000
0100
0000
0010
0000
,
0100
0000
1000
0010
0000
0000
0000
0000
0100
0000
0001
0000
0100
0000
0010
0000
,
2000
3200
0320
0230
1300
0001
0100
0010
,
1000
0100
0010
0010
0100
1000
0001
0100
,
0010
1000
0100
1000
0001
1000
0100
1000
0001
1000
0100
1000
0001
0010
0001
0100
,
0010
1000
0100
0010
0001
0010
0100
1000
0001
0000
0000
0000
0100
0000
0010
0000
,
0000
0010
1000
0010
0100
0000
0001
0010
,
0000
0100
1000
0100
0020
0000
0031
0100
,
0000
0010
1000
0010
0200
0000
0302
0000
,
0023
0000
0230
0000
1300
0000
0001
0100
,
0000
0100
0010
1000
0020
0000
0130
0001
,
0000
0010
0100
1000
0200
0000
0310
0001
,
0000
0100
0001
1000
0002
0000
0023
0000
,
0230
2300
3002
0000
,
0000
0100
0100
0100
0000
0010
0000
1000
,
0000
0010
0000
2003
0000
0000
0000
0000
,
0000
0010
0010
0010
0000
0100
0000
0001
,
0000
0010
0000
0000
3002
0000
0000
0000
,
0000
0100
0100
0100
0000
0010
0000
1000
,
0000
0100
0000
2000
0003
0000
0000
0000
,
0000
0010
0010
0010
0000
0100
0000
0001
,
0000
0100
3000
0000
2001
0000
0000
0000
,
0000
0010
0010
0010
0000
0100
0000
0001
,
0000
0010
0000
0200
3000
0000
0000
0000
,
0000
0010
0010
0010
0000
1000
0000
0010
,
0000
1000
0300
0000
1001
0000
0000
0000
,
0001
1000
0100
0010
0100
1000
0001
0100
0010
0100
0001
1000
0100
0010
0100
1000
,
0001
0010
0100
1000
0001
0100
0010
0100
0001
1000
0100
0010
0100
1000
0001
0100
,
0010
0000
0000
1000
0000
0000
0100
0000
0000
0010
0000
0000
0001
0000
0000
1000
0000
0000
0100
0000
0000
0010
0000
0000
0100
0000
1000
0000
0001
0000
0100
0000
0010
0000
1000
0000
0001
0000
1000
0000
0100
0000
0010
0000
0100
0000
1000
0000
,
0001
0010
0100
1000
0001
0100
0010
1000
0001
0010
0100
1000
0002
0000
0000
0000
0000
0000
0000
0000
0000
0000
0000
0000
,
0003
0000
0000
0000
;
