#TITLE:Dark Emperor 2 Ending Theme;
#SUBTITLE:;
#ARTIST:Dark Luke;
#TITLETRANSLIT:;
#SUBTITLETRANSLIT:;
#ARTISTTRANSLIT:;
#CREDIT:;
#BANNER:end3.png;
#BACKGROUND:end.png;
#LYRICSPATH:;
#CDTITLE:;
#MUSIC:Dark Luke - Ending theme 1.mp3;
#OFFSET:-2.700;
#SAMPLESTART:42.697;
#SAMPLELENGTH:12.000;
#SELECTABLE:YES;
#BPMS:0.000=120.000;
#STOPS:;
#BGCHANGES:;
// cache tags:
#FIRSTBEAT:16.000;
#LASTBEAT:162.000;
#SONGFILENAME:Songs/newbie/Dark Emperor 2 Ending Theme/fallinlove.sm;
#HASMUSIC:1;
#HASBANNER:1;
#MUSICLENGTH:86.342;
// end cache tags

//---------------dance-single - ----------------
#NOTES:
     dance-single:
     :
     Hard:
     8:
     0.468,0.493,0.266,0.000,0.232,260.000,23.000,0.000,0.000,0.000:
0000
0000
0000
0000
,
0000
0000
0000
0000
,
0000
0000
0000
0000
,
0000
0000
0000
0000
,
1000
0100
0010
0000
0010
0100
1000
0000
,
0001
0000
0000
0100
0000
0000
0010
0000
0000
1000
0000
0000
0010
0000
0000
0000
0000
0000
1000
0000
0100
0000
1000
0000
,
0001
0000
0000
0010
0100
0000
1000
0000
0000
0000
0001
0000
0011
0000
0000
0000
,
1000
0000
0000
0010
0100
0000
0001
0000
0000
0000
1000
0000
1001
0000
0000
0000
,
0001
0010
0100
0000
1000
0010
0100
0000
,
0001
0000
0100
0000
0001
0000
0000
0000
1000
0000
0100
0000
1000
0000
0001
0100
,
0001
0000
0000
1000
0100
0000
0010
0000
0000
0000
0100
0000
1001
0000
0000
0000
,
0010
0000
0000
0001
0100
0000
0010
0000
0000
0000
1000
0000
0100
0000
1000
0000
,
0000
1000
0100
0010
0001
1000
0100
0000
,
1000
0010
0100
0010
1000
0001
0010
0000
,
0001
0010
0100
0010
0001
1000
0100
0000
,
1000
0000
0000
0010
0100
0001
1000
0000
0000
0101
0000
0000
,
1000
0000
0000
1000
0010
0000
0010
0000
0000
0000
1000
0000
0101
0000
0000
0000
,
0001
0000
0000
0001
0010
0000
0010
0000
0000
0000
0100
0000
1100
0000
0000
0000
,
1000
0000
0000
0010
1000
0000
0001
0000
0000
0000
0010
0000
0101
0000
0000
0000
,
0001
0000
0000
1000
0010
1000
0001
0100
0001
1000
0100
1000
,
0001
0000
0000
0100
0010
0000
1000
0000
0010
0000
0100
0000
0001
0000
0000
0000
,
1000
0000
0000
0000
0000
0000
0000
0000
0000
0100
0000
0000
1000
0000
0000
0000
0000
0000
0001
0000
0000
0000
0000
0000
0100
0000
0000
0000
0000
0000
0010
0000
0000
0000
0000
0000
1000
0000
0000
0000
0100
0000
0000
0000
0010
0000
0000
0000
,
0100
0000
0000
1000
0001
0000
0100
0000
0010
0000
0100
0000
1000
0000
0100
0000
,
0001
0000
0000
0010
0001
0000
1000
0000
0001
0000
0010
0000
1000
0000
0000
0000
,
0010
0000
0000
0001
1000
0000
0100
0000
0010
0000
0001
0000
1000
0000
0001
0010
,
0001
0000
0000
0100
0010
0000
1000
0000
0001
0000
0100
0000
0001
0000
1000
0100
,
0010
0000
0000
0100
0001
0000
0100
0000
0010
0000
0001
0000
1000
0000
0010
1000
,
0001
0000
0000
0100
0001
0000
1000
0000
0100
0000
0010
0000
0011
0000
0011
0000
,
0000
0000
1100
0000
0010
0001
0011
0000
,
1001
0000
0010
0100
0101
0000
1000
0010
,
0110
0000
1000
0000
0001
0100
1010
0000
,
1000
0000
0000
0000
0000
0000
0100
0000
0010
0000
0001
0000
1000
0000
0000
0000
0000
0000
0010
0000
0000
0100
0000
0000
,
1001
0000
0000
1000
0100
0000
1000
0000
0001
0000
0010
0000
0100
0000
0010
0001
,
1000
0000
0000
0100
1000
0000
0010
0000
0100
0000
0001
0000
0010
0000
0001
1000
,
0001
0000
0000
0010
0100
0000
0010
0000
0000
0000
1000
0000
1010
0000
0000
0000
,
0001
0000
0000
1000
0010
0000
0100
0000
0000
0000
0001
0000
1001
0000
0000
0000
,
1000
0100
0010
0100
0001
0100
0010
0001
,
1000
0010
0100
0001
0100
1000
0100
0001
,
1000
0100
0010
0001
0010
1000
0010
0000
,
0011
0001
0011
0010
0110
0100
1100
1000
,
1001
0000
0000
0000
0001
0000
0000
1000
0001
0000
0000
0000
0000
0000
0000
0000
;

//---------------dance-single - ----------------
#NOTES:
     dance-single:
     :
     Medium:
     5:
     0.333,0.422,0.255,0.104,0.006,170.000,22.000,9.000,0.000,0.000:
0000
0000
0000
0000
,
0000
0000
0000
0000
,
0000
0000
0000
0000
,
0000
0000
0000
0000
,
1000
0100
0010
0001
,
1000
0000
0100
1000
0100
0000
0010
0000
,
0001
0000
1000
0000
0001
0000
1000
0010
,
0100
0001
0000
1000
,
0001
0100
1000
0100
,
0001
0000
0010
0000
1000
0000
0010
0100
,
1000
0000
0100
0000
0001
0000
1000
0010
,
0100
0000
0001
0000
0010
0000
0100
1000
,
0001
1000
0101
0001
,
1100
0000
1000
0100
0001
0000
0100
0000
,
0110
0001
0010
0001
,
1000
0010
0100
1000
,
0100
0000
0001
0000
0100
0010
1000
0000
,
0100
0000
1000
0000
0001
1000
0100
0000
,
1000
0100
0001
0100
,
1000
0010
0001
0010
,
1000
0100
1000
0000
0001
0010
0001
0000
,
1000
0100
1000
0001
,
1000
0100
0010
0000
0010
0100
1000
0000
,
0001
0100
0010
0000
0010
0100
0001
0000
,
1000
0100
0010
0001
,
1000
0000
0001
0010
0001
0010
0001
0000
,
1000
0000
1000
0010
0100
0010
0100
0000
,
0001
0000
1000
0100
1000
0000
0010
0020
,
0000
0030
0202
0303
,
1001
0000
0001
0100
1000
0000
0000
0000
,
0220
0330
2020
3030
,
1001
0110
1001
0001
,
2000
0100
0001
3100
,
0002
0010
1000
0013
,
1000
0000
0001
0010
0001
1000
0001
0000
,
1000
0000
0010
1000
0001
1000
0100
0000
,
1010
0000
1010
0000
0000
0101
0101
0000
,
1001
0000
1001
0000
0000
0110
0110
0000
,
0011
0000
0011
0000
0000
1100
1100
0000
,
1000
1000
1000
1000
0001
0001
0100
0100
,
0010
0000
0000
0000
1000
0000
0000
0001
1000
0000
0000
0000
0000
0000
0000
0000
;

//---------------dance-single - ----------------
#NOTES:
     dance-single:
     :
     Easy:
     3:
     0.180,0.235,0.127,0.069,0.000,92.000,11.000,6.000,0.000,0.000:
0000
0000
0000
0000
,
0000
0000
0000
0000
,
0000
0000
0000
0000
,
0000
0000
0000
0000
,
1000
0000
0001
0000
,
0100
0001
0100
0000
,
0010
0000
1000
0000
,
0001
0000
0010
0000
,
0001
1000
0100
0000
,
1000
0000
0010
0000
,
1000
0000
0000
1000
,
0001
0000
0000
0001
,
0100
0000
0100
0000
,
0010
1000
0001
0000
,
0010
0000
0010
0000
,
0100
1000
0010
0000
,
0100
0000
0100
0001
,
1000
0000
0010
0010
,
0100
0000
0000
0100
,
0001
0000
0001
0000
,
1000
0000
0100
0000
,
0010
0001
0100
0000
,
0001
0000
1000
1000
,
0010
0000
0000
0010
,
1000
0100
0010
0100
,
1000
0000
0001
0000
,
1001
0000
0001
0000
,
0100
0000
0010
0010
,
0110
0000
0101
0000
,
0010
0100
0001
0000
,
1100
0000
0101
0000
,
1000
0100
0001
0000
,
2000
0000
3000
1000
,
0002
0000
0003
0001
,
2002
0000
3003
0001
,
1000
0010
0100
0001
,
1000
1100
0000
0100
,
0010
0011
0000
1000
,
0001
0101
0000
0010
,
0220
0000
0000
0330
,
1000
0001
1001
0000
;

//---------------dance-single - ----------------
#NOTES:
     dance-single:
     :
     Beginner:
     1:
     0.117,0.164,0.046,0.000,0.000,67.000,4.000,0.000,0.000,0.000:
0000
0000
0000
0000
,
0000
0000
0000
0000
,
0000
0000
0000
0000
,
0000
0000
0000
0000
,
1000
0000
0000
0000
,
0001
0000
0000
0000
,
0100
0000
0000
0000
,
0001
0000
0000
0000
,
1000
0000
0000
0000
,
0010
0000
0000
0000
,
1000
0000
0000
0000
,
0001
0000
0000
0000
,
0010
0000
0000
0001
,
0001
0000
0000
0000
,
1000
0000
0000
0100
,
0100
0000
0000
0000
,
1000
0000
1000
0000
,
0001
0000
0001
0000
,
1000
0000
0000
0000
,
0001
0000
0000
0000
,
1001
0000
0000
0010
,
0010
0000
0000
1000
,
1000
0000
0000
0100
,
0100
0000
0000
1000
,
1000
0000
0001
0000
,
1000
0000
0001
0000
,
0100
0000
0010
0000
,
0100
0000
0010
0000
,
1000
0000
0100
0000
,
0010
0010
0010
0000
,
0001
0000
1000
0000
,
0001
0001
0001
0000
,
1001
0000
0000
0100
,
0100
0000
0000
0010
,
0010
0000
1000
0000
,
0100
0000
0010
0000
,
0001
0001
0000
0100
,
0100
0100
0000
0010
,
0010
0010
0000
1000
,
1000
0000
0001
0000
,
1001
0000
0110
0000
;

//---------------dance-double - ----------------
#NOTES:
     dance-double:
     :
     Hard:
     7:
     0.394,0.399,0.116,0.069,0.110,222.000,10.000,6.000,0.000,0.000:
00000000
00000000
00000000
00000000
,
00000000
00000000
00000000
00000000
,
00000000
00000000
00000000
00000000
,
00000000
00000000
00000000
00000000
,
00000001
00000100
00000010
00000000
00001000
00000100
00010000
00000000
,
00001000
00010000
00100000
00000000
01000000
00001000
00010000
00000000
,
00100000
10000000
01000000
00000000
10000000
01000000
00010000
00000000
,
01000000
00010000
00001000
00000000
00010000
00001000
00000100
00000000
,
00000001
00001000
00000100
00000010
00000001
00001000
00000010
00000000
,
00000100
00000001
00001000
00000010
00010000
00001000
01000000
00000000
,
00100000
10000000
01000000
00100000
00000000
00010000
01000000
00000000
,
00001000
00010000
00000010
00001000
00000000
00000001
00000100
00000010
,
00001000
00000000
00000000
00000010
00000100
00000000
00000000
00000000
00000001
00000000
00000100
00000000
00001000
00000000
00000000
00000000
,
00000100
00000000
00000000
00000010
00001000
00000000
00000000
00000000
00000100
00000000
00010000
00000000
00001000
00000000
00000000
00000000
,
00100000
00000000
00000000
01000000
00010000
00000000
00000000
00000000
01000000
00000000
00100000
00000000
00010000
00000000
00000000
00000000
,
10000000
00000000
00000000
00010000
00100000
00000000
00000000
00000000
01000000
00000000
00010000
00000000
00001000
00000000
00000000
00000000
,
00010000
00000100
00001000
00000100
00000010
00001000
00000010
00000000
,
00000001
00001000
00000001
00000010
00001000
00000010
00000100
00000000
,
00022000
00000000
00000000
00033000
,
00001000
00000000
00000000
00001000
00000000
00100000
00010000
00000000
00100000
01000000
00000000
01000000
,
10000000
00000000
10000000
01000000
00010000
00000000
00010000
00001000
,
00000100
00000000
00000000
00000000
00000000
00000000
00000001
00000000
00000000
00000100
00000000
00000000
00000010
00000000
00000000
00000000
00000000
00000000
00001000
00000000
00000100
00000000
00001000
00000000
,
00000200
00000000
00001000
00000000
00010300
00000000
00001000
00010000
,
00200000
01000000
10300000
00010000
,
10000000
00000000
00000000
10000000
01000000
00000000
00000000
00000000
00010000
00000000
00001000
00000000
00001000
00000000
00000000
00000000
,
00000010
00000000
00000000
00000010
00000001
00000000
00000000
00000000
00000001
00000000
00000001
00000000
00001000
00000000
00000000
00000000
,
00000010
00000000
00000000
00000100
00000010
00000000
00001000
00000000
00000010
00000000
00010000
00000000
00001000
00000000
00000000
00000000
,
00010000
00000000
00000000
00001000
00010000
00000000
01000000
00000000
00010000
00000000
00000000
00000000
01000000
00000000
00100000
00000000
,
00000000
00000000
00000000
00010000
10000000
00000000
00000000
00000000
00100000
00000000
01000000
00000000
10000000
00000000
00000000
00000000
,
01000000
00000000
00000000
00010000
01000000
00000000
00001000
00000000
00010000
00000000
00001000
00000000
00010000
00000000
00000000
00000000
,
00001100
00000000
00000000
00001000
00000100
00000000
00000000
00000000
00000001
00000000
00000100
00000000
00000001
00000000
00000000
00000000
,
00000100
00000010
00000001
00000100
00000010
00010000
00001000
00000000
,
00210000
01000000
00010000
00301000
,
00012000
00000010
00010000
00003010
,
00000001
00000000
00000000
00000010
00000100
00000000
00001000
00000000
00000100
00000000
00000010
00000000
00000001
00000000
00000000
00000000
,
00001000
00000000
00000000
00000100
00010000
00000000
00001000
00000000
01000000
00000000
00001000
00000000
00010000
00000000
00000000
00000000
,
00110000
00000000
11000000
00000000
00010000
00100000
00101000
00000000
,
00011000
00000000
00010010
00000000
00000010
00001000
00000101
00000000
,
00000001
00001000
00000010
00010000
00001000
01000000
00010000
10000000
,
01000000
01000000
01000000
01000000
00100000
00100000
00001000
00001000
,
00010000
00000000
00000000
00000000
00001000
00000000
00000000
00010000
00001000
00000000
00000000
00000000
00000000
00000000
00000000
00000000
;

//---------------dance-double - ----------------
#NOTES:
     dance-double:
     :
     Medium:
     5:
     0.316,0.422,0.278,0.104,0.006,158.000,24.000,9.000,0.000,0.000:
00000000
00000000
00000000
00000000
,
00000000
00000000
00000000
00000000
,
00000000
00000000
00000000
00000000
,
00000000
00000000
00000000
00000000
,
01000000
00100000
00010000
00000000
,
01000000
00000000
00010000
01000000
00001000
00000000
00010000
00000000
,
00001000
00000000
00000000
00000000
00001000
00000000
00000010
00000001
,
00000100
00000001
00000000
00000010
,
00000100
00010000
00001000
00010000
,
00100000
00000000
00000000
00000000
01000000
00000000
00010000
10000000
,
00100000
01000000
00001000
00000000
,
00010000
00000000
00000100
00000000
00001000
00000000
00000010
00000100
,
00000000
00000001
00001010
00000000
,
00011000
00000000
00010000
00000010
00001000
00000000
00000000
00000000
,
00001100
00010000
00001000
00000000
,
00001000
00100000
00010000
10000000
,
00100000
00000000
10000000
00000000
00100000
01000000
00010000
00000000
,
00100000
00000000
00010000
00000000
10000000
01000000
00010000
00000000
,
00001000
00000010
00000001
00000100
,
00000001
00000010
00000100
00010000
,
00001000
00010000
00001000
00000000
01000000
00010000
01000000
00000000
,
00100000
00000000
10000000
01000000
10000000
00000000
01000000
00000000
,
00100000
00000000
00001000
00010000
00000100
00000000
00000100
00001000
,
00000010
00000000
00000100
00000001
00000010
00000000
00000010
00000001
,
00001000
00000100
00010000
00001000
,
00100000
00000000
00010000
00100000
10000000
00000000
00100000
00000000
,
01000000
00000000
00010000
00001000
00010000
00000000
00001000
00000000
,
00000100
00000000
00000001
00000100
00000001
00000000
00001000
00002000
,
00000000
00003000
00022000
00033000
,
00010000
00000000
00001000
00010000
00100000
00000000
00000000
00000000
,
20200000
30300000
02020000
03030000
,
00100000
00010000
00001000
00000100
,
00000110
00000000
00000110
00001001
,
00020200
00030300
00001000
00010000
,
00110000
00000000
10000000
00010000
10000000
01000000
00100000
00000000
,
01100000
00000000
01000000
10000000
00010000
00100000
00001000
00000000
,
00000101
00000000
00000101
00000000
00000000
00001010
00001010
00000000
,
00011000
00000000
00011000
00000000
00000000
01100000
01100000
00000000
,
00110000
00000000
00110000
00000000
00000000
11000000
11000000
00000000
,
10000000
10000000
10000000
10000000
00010000
00010000
00100000
00100000
,
00001000
00000000
00000000
00000000
00010000
00000000
00000000
00001000
00010000
00000000
00000000
00000000
00000000
00000000
00000000
00000000
;

//---------------dance-double - ----------------
#NOTES:
     dance-double:
     :
     Easy:
     3:
     0.174,0.211,0.093,0.058,0.000,92.000,8.000,5.000,0.000,0.000:
00000000
00000000
00000000
00000000
,
00000000
00000000
00000000
00000000
,
00000000
00000000
00000000
00000000
,
00000000
00000000
00000000
00000000
,
00010000
00000000
00000100
00000000
,
00001000
00000010
00001000
00000000
,
00010000
00000000
01000000
00000000
,
00001000
00000000
00010000
00000000
,
00000100
00000010
00000001
00000000
,
00000010
00000000
00001000
00000000
,
00100000
00000000
00010000
00000000
,
10000000
00000000
10000000
00000000
,
01000000
00000000
00010000
00000000
,
00001000
00010000
00001000
00000000
,
00000010
00000000
00000001
00000000
,
00001000
00000100
00010000
00000000
,
00000100
00000000
00000100
00001000
,
00010000
00000000
00100000
00010000
,
01000000
00000000
00100000
00000000
,
10000000
10000000
00100000
00100000
,
00010000
00000000
00001000
00000000
,
00000010
00000001
00000100
00000000
,
00000010
00000000
00001000
00000010
,
00010000
00000000
00100000
00000000
,
10000000
01000000
00100000
00001000
,
00010000
00000000
00000001
00000000
,
00001000
00000000
00010000
00000000
,
10000000
00000000
00010000
00000000
,
00011000
00000000
00000110
00000000
,
00000001
00000010
00001000
00000000
,
00110000
00000000
00010100
00000000
,
00000010
00000100
00010000
00000000
,
20000000
00000000
30000000
10000000
,
00020000
00000000
00030000
00010000
,
00002000
00000000
00003000
00001000
,
00000001
00000100
00000010
00000000
,
00000010
00000110
00000000
00010000
,
00001000
00011000
00000000
01000000
,
00010000
10010000
00000000
00010000
,
00022000
00000000
00000000
00033000
,
00000100
00000010
00000100
00000000
;
