#TITLE:Bumpy-Jumpy!;
#SUBTITLE:NatsuYumeNagisa OP theme;
#ARTIST:KOTOKO;
#TITLETRANSLIT:;
#SUBTITLETRANSLIT:;
#ARTISTTRANSLIT:;
#CREDIT:ALICE_;
#BANNER:Bumpy-Jumpy!.png;
#BACKGROUND:Bumpy-Jumpy!.jpg;
#LYRICSPATH:;
#CDTITLE:cdtitle.png;
#MUSIC:Bumpy-Jumpy!.mp3;
#OFFSET:1.160;
#SAMPLESTART:65.980;
#SAMPLELENGTH:12.000;
#SELECTABLE:YES;
#BPMS:0.000=190.000;
#STOPS:;
#BGCHANGES:3.625=Bumpy-Jumpy!.avi=1.000=1=0=1,
99999=-nosongbg-=1.000=0=0=0 // don't automatically add -songbackground-
;
// cache tags:
#FIRSTBEAT:8.000;
#LASTBEAT:343.500;
#SONGFILENAME:Songs/alice 4th complete step/Bumpy-Jumpy!/Bumpy-Jumpy!.sm;
#HASMUSIC:1;
#HASBANNER:1;
#MUSICLENGTH:110.010;
// end cache tags

//---------------dance-single - ----------------
#NOTES:
     dance-single:
     :
     Hard:
     8:
     0.717,0.663,0.364,0.064,0.000,505.000,40.000,7.000,0.000,0.000:
0000
0000
0000
0000
,
0000
0000
0000
0000
,
1000
0100
1000
0010
0100
0001
1000
0000
,
0000
0000
0000
0000
0000
0000
0010
0100
,
0001
0010
0001
0100
0010
1000
0001
0000
,
0000
0000
0000
0000
0000
0000
0100
0010
,
1000
0000
0000
0100
0000
0000
0010
0000
,
0001
0000
0000
0100
0000
0000
0010
0000
,
1000
0000
0000
0000
,
0001
0000
0000
0000
,
1000
0000
1100
0000
1000
0100
1000
0100
,
0010
0000
0010
0001
1000
0001
0100
0001
,
0010
0000
0011
0000
0001
0100
0001
1000
,
0010
0100
0010
0000
1000
0001
0100
0010
,
1000
0000
1010
0000
1000
0010
1000
0010
,
0100
0001
1000
0010
0100
0001
1000
0000
,
0001
0000
0101
0000
0010
0001
0010
1000
,
0100
0100
0010
0100
1000
0010
0100
0001
,
1000
0000
1100
0000
0001
1000
0100
0000
,
0001
1000
0010
0000
0001
1000
0100
0000
,
0001
0000
0101
0000
1000
0001
0100
0000
,
1000
0001
0010
0000
1000
0001
0100
0000
,
0010
0000
1010
0000
0010
1000
0100
0000
,
0010
0000
0011
0000
0010
0001
0100
0000
,
0010
1000
0001
1000
0001
1000
0100
0000
,
0010
0001
1000
0001
0100
0010
1000
0001
,
0010
0100
0010
0100
0020
0000
0000
0030
,
0001
0000
1100
0000
0001
1000
0100
0000
,
1000
0000
0101
0000
1000
0001
0100
0000
,
0010
0000
1100
0000
0001
1000
0100
0000
,
0010
0000
0101
0000
1000
0001
0100
0001
,
1000
0000
0011
0000
0100
1000
0010
0000
,
0001
0000
1010
0000
0100
0001
0010
0100
,
0010
0010
0001
0000
1000
1000
0010
0000
,
0100
1000
0100
0001
1000
0100
0010
0001
,
1000
0000
0110
0000
1000
0100
1000
0100
,
0010
0000
1001
0000
0001
0100
0001
0100
,
0010
0000
1010
0000
0100
0001
0100
0001
,
0010
0100
0110
0000
0100
1000
0010
0100
,
0001
0000
1100
0000
1000
0100
0001
0100
,
1000
0000
0101
0000
0010
1000
0100
0000
,
0010
0010
0001
0000
1000
1000
0010
0100
,
0001
0010
0100
1000
0001
0100
0010
1000
,
0001
0000
0011
0000
1100
0000
1000
0010
,
0000
0000
0110
0000
0001
1000
0100
0000
,
0010
0000
0001
1000
0100
1000
0010
0000
,
0100
1000
0100
0001
0010
1000
0010
0001
,
0100
0000
1010
0000
0101
0000
0001
0010
,
0000
0000
0110
0000
1000
0001
0100
0000
,
0010
0010
1000
0000
0100
0100
0010
0100
,
1000
0001
0100
0001
0010
0001
0100
0010
,
1000
0000
1100
1000
0001
0100
0010
1000
,
0001
0010
0100
1000
0010
0001
0010
1000
,
0200
0000
0310
0001
1000
0001
0100
0001
,
0010
0100
1000
0010
0100
0001
1000
0000
,
0110
0000
1000
0001
0010
0100
1000
0020
,
0000
0100
0130
0000
1000
0100
1000
0010
,
0000
0100
0101
0000
0001
0010
0001
0100
,
0000
0010
1010
0000
1000
0100
0001
0000
,
1000
0010
0001
0010
1000
0010
0001
0010
,
0000
1000
0100
1000
0001
0010
0001
0001
,
0200
0000
0310
1000
0001
1000
0100
1000
,
0010
0100
0001
1000
0100
0001
0100
1000
,
0010
0001
0010
0100
0001
1000
0010
0200
,
0000
0301
0010
0000
0100
0100
1000
0001
,
0100
0000
1010
0000
0100
0001
0010
0001
,
0000
0100
1000
0000
0001
1000
0010
0000
,
0100
0100
1000
0100
0001
0001
0010
0100
,
1000
0001
0100
0010
0000
0100
0010
0100
,
1001
0000
0110
0000
0001
1000
0100
0000
,
1000
0001
0100
0010
1000
0100
1000
0000
,
0110
0000
1001
0000
0010
0001
0100
0000
,
0010
1000
0001
1000
0100
0010
0001
0000
,
0100
0000
0110
0000
1000
0001
0100
0000
,
0010
1000
0001
0010
0001
0010
0100
0000
,
1000
0001
0010
0001
1000
0010
0001
0010
,
1000
0100
0001
0100
1000
0001
0100
1000
,
0100
0000
0110
0000
1000
0010
0100
0001
,
0010
0100
0010
1000
0010
0001
0100
0000
,
0001
0000
1001
0000
0100
1000
0001
0010
,
0100
1000
0001
0100
1000
0100
0001
0010
,
0100
0000
1001
0000
0010
1000
0100
0000
,
0010
0001
1000
0010
0001
0010
0100
0000
,
0001
0001
1000
1000
0100
0010
0100
1000
,
0010
0010
0100
0100
0000
0001
1000
0001
,
2002
0000
0000
3003
;

//---------------dance-single - Copied from----------------
#NOTES:
     dance-single:
     Copied from:
     Challenge:
     16:
     1.000,1.000,1.000,0.573,0.382,640.000,306.000,63.000,0.000,18.000:
0000
0000
0000
0000
,
0000
0000
0000
0000
,
1001
0010
0001
1000
0010
1000
0100
0000
,
0000
0000
0000
0000
0000
0000
0100
0010
,
1001
0100
1000
0011
0100
1001
0110
0000
,
0001
0000
0000
0010
0000
0000
0100
0010
,
1101
0010
1000
0001
0000
0000
1010
0000
,
0101
0000
0000
1000
0000
0000
0100
0000
,
2002
0000
0000
0000
0000
0000
0000
3003
,
0220
0000
0000
0000
0000
0000
0000
0330
,
1100
0100
1010
0100
1100
0001
1100
0020
,
0131
0000
0100
0000
1010
0000
0100
0000
0101
0000
1000
0000
0011
0100
0010
0100
,
1001
1000
0101
1000
1010
0001
1100
0020
,
0131
0000
0020
0000
1031
0100
1000
0000
0011
0000
0100
0000
1001
0010
0001
0010
,
1100
0100
1010
0100
1100
0001
1100
0020
,
0131
0000
2000
0000
3011
0000
0200
0000
1310
0000
0001
0000
1100
0010
0100
0010
,
1001
0001
1010
0001
0120
0031
1100
0011
,
1100
0000
1101
0000
0011
0000
0101
0000
1000
0011
0100
0010
1000
0001
0100
0001
,
0010
0000
1000
0100
0000
0000
0010
0000
,
0000
0000
0000
0000
0000
0000
0100
0010
,
1001
0000
0001
0010
0000
0000
0100
0000
,
0000
0000
0000
0000
0000
0000
0010
1000
,
0101
0000
0000
0010
0000
0000
1001
0000
,
1100
0000
0000
0010
0000
0000
0001
0000
,
0022
0000
0000
0033
,
0202
0000
0000
0303
,
1001
0000
0100
0011
1000
0000
0001
1100
0010
0000
1001
0000
0100
0010
1000
0001
,
1010
0100
1001
0010
0101
0101
1001
0020
,
0130
0000
0000
0000
1010
0000
0100
0000
0011
0000
0010
0000
1001
0010
0100
1000
,
0100
0001
0101
1000
0110
0100
1001
0200
,
0310
0000
0000
0000
1001
0000
0010
0000
0101
0000
0101
0000
1001
0010
0100
0010
,
1000
0100
1001
0010
0100
1100
0011
2000
,
3001
0000
0000
0000
0011
0000
1000
0000
0100
0000
0101
0000
1001
0100
0010
0001
,
0010
0000
1000
0000
0101
0000
0010
1000
0100
1000
0001
0000
1010
0000
0200
0000
,
1300
0000
0011
0000
1000
0010
0001
0000
0001
0100
1000
0000
1001
0100
0010
1000
,
0100
0000
1000
0000
0022
0033
1000
0000
1100
0000
0022
0033
1000
0000
0202
0303
,
0010
0000
0100
0000
2020
3030
0001
0000
0100
0000
0022
0033
1001
0100
0011
1000
,
0100
0000
0010
0000
2002
3003
0010
0000
0100
0000
2002
3003
0010
0000
2200
3300
,
0101
0000
0101
0000
1001
0000
0010
0000
1100
0000
0101
0000
1010
0100
1001
0010
,
0200
0000
0000
0300
2002
3003
0100
0000
0110
0000
2002
3003
0100
0000
0022
0033
,
1100
0000
1000
0000
0202
0303
1000
0000
0010
0000
0101
0000
0010
1000
0001
0010
,
1100
0000
1100
0000
0001
0010
1000
0100
0001
0010
1001
0000
0101
0000
0010
0000
,
1000
0011
0110
1100
0001
1100
0110
0011
,
1001
0000
0000
0000
1100
0011
1100
0000
0011
1100
0011
0000
1001
0100
0020
0000
,
0000
0000
0130
0000
0110
0000
1001
0000
0101
1000
0010
0000
1001
0000
0100
0000
,
0202
0303
0011
1000
1010
0100
1001
0000
,
1100
1000
1010
0100
0101
0010
1100
0011
,
1001
0000
0000
0000
0011
1100
0011
0000
1100
0011
1000
0000
0110
0000
2102
0000
,
3003
0000
0100
0000
0011
0000
0100
0000
1001
0000
1000
0000
0101
0000
0110
0010
,
0001
0000
1000
0000
0110
0000
0001
0100
1000
0000
0001
0000
0110
0000
1000
0100
,
0001
0000
1000
0000
0101
0000
0101
0000
0010
0000
0010
0000
1100
0000
0001
0100
,
0010
1000
1010
0110
0101
1100
1001
0010
,
0100
0011
0100
0000
1001
0000
1001
0000
0100
0010
1000
0001
0100
0010
0100
0010
,
2200
0000
3311
0001
1000
1010
0001
0110
,
1000
0000
0010
0000
1001
0000
0010
0000
1100
0000
0010
0000
1001
0010
0100
1000
,
0021
1000
0100
0130
1001
0101
0010
2001
,
0100
0000
0011
3000
0201
0000
0010
0300
2001
0000
0100
3000
1001
0100
0010
0001
,
1100
0100
1010
1000
1100
1100
1010
0102
,
0010
0000
1000
0000
0113
0000
0010
0000
0011
0000
0101
0000
1010
0100
1000
0100
,
0011
0110
1100
1010
0101
1100
0110
0012
,
1003
0000
1100
0000
0001
0000
0110
0000
1000
0001
0010
0000
0101
1000
0001
1000
,
0011
0100
1010
0010
1100
1100
0001
1010
,
0100
0000
0100
0000
1001
0000
0000
0000
0110
0000
0001
0000
0011
0100
1000
0100
,
0012
0100
1100
0013
0101
0101
1000
0210
,
0001
0000
0310
0000
1002
0010
1000
0003
2100
0000
3010
0000
1001
0100
0010
0100
,
0021
1000
0001
0100
1001
1001
0130
1001
,
1000
0000
0010
0000
0101
0000
0010
0000
1000
0100
1000
0000
0101
1000
0010
0100
,
1001
1001
0011
1100
1001
1001
1100
0011
,
0110
0110
1001
1011
0000
0101
0101
0101
,
1011
0000
0110
0000
1001
1001
0100
0010
,
0000
0000
0100
0000
1001
0000
0000
0000
1100
0000
0101
0000
0010
1000
0010
1000
,
0100
0000
1001
0000
0110
0110
1000
0101
,
0000
0000
0010
0000
1100
0000
0000
0000
0100
0000
0010
0000
1000
0001
0100
0010
,
1000
0000
0101
0000
1010
1010
0100
0011
,
0000
0000
0100
0000
1001
0000
0000
0000
0110
0000
0110
0000
0001
1000
0010
0100
,
0001
0110
1100
0011
0100
1010
0101
0011
,
1001
0100
1000
0000
0011
0000
0110
0000
1001
0010
0001
0000
0110
1000
0001
0100
,
0011
0000
0110
0000
1001
0101
1010
0100
,
1000
0000
1010
0000
0011
0000
0100
0000
1001
0000
0010
0000
0101
1000
0010
0100
,
1001
0000
0110
0000
1100
1100
0101
1010
,
0010
0000
0100
0000
1001
0000
0010
0000
0101
0000
1001
0000
0011
0100
0001
1000
,
0110
0000
1001
0010
1100
0101
1010
0100
,
0011
0000
0001
0000
1010
0000
0100
0000
1100
0000
0010
0000
1001
0100
0001
0100
,
1010
1010
0101
1011
0110
0110
1001
0010
,
1100
0011
0110
1001
0000
0110
0110
0110
,
2001
0000
0000
0000
0000
0000
0000
3000
;

//---------------dance-single - ----------------
#NOTES:
     dance-single:
     :
     Medium:
     7:
     0.551,0.545,0.300,0.173,0.000,372.000,33.000,19.000,0.000,0.000:
0000
0000
0000
0000
,
0000
0000
0000
0000
,
1000
0010
0100
0001
,
0000
0000
0000
0000
,
0001
0100
0010
1000
,
0000
0000
0000
0000
,
1000
0001
0100
0010
,
1000
0100
1000
0010
,
0100
0000
0000
0000
,
0002
0000
0000
0003
,
1000
1100
0001
0101
,
1000
1100
0001
0101
,
1000
1010
0001
0011
,
1000
1010
0001
0011
,
1000
0110
0001
0110
,
1000
0101
0001
1100
,
0001
0110
1000
1100
,
0020
0000
0000
0030
,
1001
0000
0010
0000
0100
1000
0010
0000
,
0100
1000
0100
0001
,
1001
0000
0010
0000
0100
0001
0010
0000
,
0100
0001
0100
1000
,
0001
0000
0010
0000
0100
0010
0001
0000
,
1000
0000
0010
0000
0100
0010
1000
0000
,
0001
0001
0100
0001
0000
1000
0100
0000
,
0010
1001
0100
1001
,
1000
0100
0001
0100
0010
0100
0010
0100
,
2000
0001
0100
0010
,
0100
0001
0010
3100
,
0002
1000
0100
0010
,
1000
0010
0100
0013
,
1000
1100
0001
0101
,
1000
1010
0001
0010
,
0100
1000
0001
0100
,
1000
0100
0001
0000
1000
0100
0010
0000
,
0001
0000
1000
0000
0100
0010
0100
0000
,
1000
0000
0010
0000
0100
0001
0100
0000
,
1000
0000
0001
0000
0010
0100
0010
0000
,
0001
0000
1000
0000
0001
0100
0001
0000
,
1000
1010
0001
0011
,
1000
1100
0001
0010
,
0001
0100
1000
0100
,
0010
0100
0010
0000
0110
0000
1001
0000
,
0100
0000
0010
0001
1000
0100
0010
0002
,
0000
1003
0100
1000
,
0010
0000
0100
0010
1000
0100
1000
0000
,
0001
0011
1000
0100
,
0010
0000
0100
1000
0001
0100
0010
2000
,
0000
3001
0100
0001
,
0010
0100
0010
0000
0100
1000
0100
0000
,
1000
0010
1000
0000
0001
0100
0001
0000
,
0010
0100
1000
0010
0100
0001
0010
0000
,
0100
1000
0100
1000
0100
1000
0100
1000
,
0100
0010
0001
1000
,
0100
0001
1000
0010
,
0001
0101
1000
0020
,
0100
0130
0001
1000
,
0010
0100
0010
0000
1000
0100
1000
0000
,
0010
0001
0010
0000
0100
0001
0100
0000
,
1000
0100
0001
0100
1000
0100
0001
0100
,
0000
1000
0000
0020
0000
0000
0000
0030
,
0100
0000
1001
0000
0010
0001
0100
0020
,
0000
0030
1000
0000
0100
0000
0001
0000
,
0100
0000
1000
0010
0000
0100
0000
0002
,
0000
1003
0100
0010
,
1000
0001
0010
0100
,
0010
0001
1000
0010
,
0100
1000
0100
0001
0100
1000
0100
0001
,
0100
1000
0100
0010
0000
1000
0001
0100
,
0020
0100
1000
0100
,
0001
1000
0100
1030
,
0002
0100
1000
0100
,
0010
1000
0100
1003
,
2000
0010
0001
0010
,
0001
0100
0010
3100
,
0001
1000
0100
1000
0001
1000
0100
1000
,
0020
0000
0000
0030
,
0102
1000
0010
0100
,
0010
1000
0010
0103
,
2010
0001
0100
0001
,
0010
0001
0100
3010
,
0210
1000
0010
0301
,
1000
0100
0010
0001
,
1000
0100
0001
0100
1000
0010
0001
0010
,
1000
0100
0010
0001
0000
0100
0010
0100
,
2002
0000
0000
0000
0000
3003
0000
0000
;

//---------------dance-single - ----------------
#NOTES:
     dance-single:
     :
     Easy:
     4:
     0.323,0.348,0.055,0.045,0.000,238.000,6.000,5.000,0.000,0.000:
0000
0000
0000
0000
,
0000
0000
0000
0000
,
1000
0000
0000
0000
,
0000
0000
0000
0000
,
0001
0000
0000
0000
,
0000
0000
0000
0000
,
1000
0000
0000
0000
,
0010
0000
0000
0000
,
0100
0000
0000
0000
,
1001
0000
0000
0000
,
1000
0100
0001
0100
,
1000
0001
1000
0000
,
0001
0100
1000
0100
,
0001
1000
0001
0100
,
1000
0010
0001
0010
,
1000
0001
1000
0000
,
0001
0010
1000
0010
,
0001
0010
0100
1000
,
0001
0000
0000
0000
,
0000
0000
0000
0000
,
1000
0000
0000
0000
,
0000
0000
0000
0000
,
0010
0000
0000
0000
,
0100
0000
0000
0000
,
0001
1000
0100
1000
,
0020
0000
0030
0000
,
0202
0000
0303
0000
,
1000
0100
1000
0001
,
1000
0100
1000
0000
,
0001
0100
0001
1000
,
0001
0100
0001
0000
,
1000
0010
0001
0010
,
1000
0001
1000
0010
,
0100
0100
0100
0010
,
0100
0000
0000
0000
,
0001
0010
0001
1000
,
0010
1000
0100
0000
,
1000
0010
1000
0001
,
0100
0010
0100
0000
,
0001
0100
1000
0100
,
0001
1000
0001
0010
,
0100
0100
1000
0001
,
0100
0010
0100
0010
,
1000
0100
0010
0001
,
0000
0100
1000
0100
,
0001
1000
0010
0100
,
0001
0001
1000
0001
,
0001
0010
0100
1000
,
0000
0100
0001
0100
,
0000
1000
0000
0100
,
0000
0001
0000
0010
,
0000
1100
0000
0101
,
0000
0110
0100
0001
,
1000
0100
0001
0100
,
1000
0010
0100
0001
,
1000
1000
0001
0001
,
0100
0000
0010
0100
,
0001
0000
0100
0010
,
1000
0000
0000
0000
,
0001
0010
1000
0010
,
0001
0100
0010
0000
,
1000
0100
1000
0100
,
0001
0100
0001
0100
,
1000
0001
0100
0010
,
0100
0000
1000
1000
,
0001
0100
0001
0010
,
0001
0000
1000
0100
,
1000
0010
0100
0001
,
1000
1001
0000
0000
,
0010
0010
0001
0001
,
1000
0000
0000
0000
,
0010
0010
1000
1000
,
0001
0000
0000
0000
,
0100
0100
0010
0010
,
1000
0000
0000
0000
,
0001
0100
1000
0100
,
0002
0000
0000
0003
,
1000
1000
0010
0010
,
0100
0001
1000
0000
,
0001
0001
0010
0010
,
0100
0001
1000
0000
,
0010
0100
0001
1000
,
0100
0010
0100
1000
,
0020
0100
0000
1000
,
0000
0000
0031
0000
0000
0100
0010
1000
,
0001
0000
0000
0000
;
