#TITLE:We Luv Lama;
#SUBTITLE:Oh Henry!;
#ARTIST:DJ Sharpnel;
#TITLETRANSLIT:;
#SUBTITLETRANSLIT:;
#ARTISTTRANSLIT:;
#CREDIT:;
#BANNER:../Fallback-Ban.png;
#BACKGROUND:../Fallback-BG.png;
#LYRICSPATH:;
#CDTITLE:../~CDTitle-@@.png;
#MUSIC:DJ Sharpnel - We Luv Lama.ogg;
#OFFSET:0.540;
#SAMPLESTART:133.889;
#SAMPLELENGTH:18.714;
#SELECTABLE:YES;
#BPMS:0.000=210.000;
#STOPS:;
#BGCHANGES:;
// cache tags:
#FIRSTBEAT:4.000;
#LASTBEAT:1140.000;
#SONGFILENAME:Songs/Oh Henry! Mad Stamina/We Luv Lama (18+)/We Luv Lama.sm;
#HASMUSIC:1;
#HASBANNER:1;
#MUSICLENGTH:326.347;
// end cache tags

//---------------dance-single - @@----------------
#NOTES:
     dance-single:
     @@:
     Challenge:
     18:
     1.000,1.000,0.003,0.260,1.000,3713.000,1.000,85.000,0.000,0.000:
0000
0000
0000
0000
,
1000
0100
0010
0000
0100
0000
1000
0001
1000
0010
1000
0000
0001
0000
0010
0100
,
1000
0100
0010
0000
0001
0000
1000
0010
0100
0010
1000
0000
0001
0000
0010
0100
,
1000
0100
0010
0001
0100
0000
0001
1000
0010
1000
0001
0000
1000
0000
0100
0010
,
0001
0010
0100
0000
1000
0000
0001
0100
0010
0100
0001
0000
0010
0000
0100
1000
,
0010
0100
0001
0000
1000
0000
0100
0010
0001
0010
0100
0000
1000
0000
0001
0100
,
0010
1000
0010
0000
1000
0000
0001
0010
0100
1000
0100
0000
1000
0000
0001
0100
,
0010
0100
0001
0000
1000
0000
0100
0010
0100
1000
0001
0000
1000
0000
0010
0100
,
0001
1000
0001
0000
1000
0000
0100
0010
0100
1000
0010
0000
0100
0000
0001
0010
,
0100
1000
0100
0000
1000
0000
0001
0100
0001
1000
0001
0000
1000
0000
0100
0010
,
0100
1000
0100
0000
0010
0000
0001
1000
0010
0100
0010
0000
1000
0000
0001
0010
,
0100
0010
0001
0000
1000
0000
0001
0100
0010
1000
0010
0000
1000
0000
0001
0010
,
0100
0010
0001
0000
1000
0000
0010
0100
0010
1000
0001
0010
0100
0000
0010
0000
,
0001
0100
0010
0000
1000
0000
0001
0010
0100
0010
0001
0000
1000
0000
0010
0100
,
0010
1000
0001
0000
1000
0000
0100
0010
0100
1000
0001
0000
1000
0000
0010
0100
,
0001
1000
0001
0000
0010
0000
0100
1000
0001
1000
0100
0000
1000
0000
0001
0100
,
0010
0000
0000
0010
0000
0000
1000
0000
1001
0000
0002
0000
0023
0000
0230
0000
,
1300
0100
0010
0001
1000
0100
1000
0001
0010
0100
1000
0001
0010
0001
1000
0100
,
1000
0001
0100
0010
0100
0001
1000
0010
1000
0001
0100
0010
1000
0010
0100
0001
,
1000
0100
0010
0001
1000
0001
0010
0100
1000
0001
0010
0001
1000
0100
0010
0001
,
1000
0010
1000
0001
0100
0010
0100
0001
1000
0010
1000
0100
0010
0001
1000
0100
,
1000
0001
0100
0001
1000
0010
0100
0010
1000
0001
1000
0010
0100
0001
1000
0001
,
0010
0100
1000
0100
0010
0001
1000
0100
1000
0001
0010
0100
1000
0001
0010
0001
,
1000
0010
0100
0010
1000
0001
0100
0001
1000
0010
1000
0001
0100
0010
0100
0001
,
1000
0100
0010
0100
1000
0001
1000
0010
0100
0001
1000
0001
0010
0100
1000
0001
,
1000
0010
0100
0001
1000
0010
1000
0001
0100
0010
1000
0001
0100
0001
1000
0010
,
1000
0001
0010
0100
0010
0001
1000
0100
1000
0001
0010
0100
1000
0100
0010
0001
,
1000
0010
0100
0001
1000
0001
0100
0010
1000
0001
0100
0001
1000
0010
0100
0001
,
1000
0100
1000
0001
0010
0100
0010
0001
1000
0100
1000
0010
0100
0001
1000
0010
,
1000
0001
0010
0001
1000
0100
0010
0100
1000
0001
1000
0100
0010
0001
1000
0001
,
0100
0010
1000
0010
0100
0001
1000
0010
1000
0001
0100
0010
1000
0001
0100
0001
,
1000
0100
0010
0100
1000
0001
0010
0001
1000
0100
1000
0001
0010
0100
0010
0001
,
1000
0100
0010
0100
1000
0001
0100
0010
1000
0001
0010
0001
0100
0010
1000
0100
,
1000
0001
0010
0000
0001
0000
1000
0010
0100
0010
1000
0000
0001
0000
0010
0100
,
0010
0001
0010
0000
0100
0000
1000
0001
1000
0010
0100
0000
0001
0000
1000
0100
,
0010
0001
1000
0000
0001
0000
0100
0010
1000
0001
1000
0000
0010
0000
1000
0001
,
0010
0100
0010
0000
0001
0000
1000
0001
0100
0010
1000
0000
0100
0000
1000
0010
,
0100
0001
1000
0000
0001
0000
0010
0100
0010
0001
1000
0000
0001
0000
0100
0010
,
1000
0010
0100
0000
0001
0000
1000
0100
0010
0001
0010
0000
0100
0000
1000
0001
,
0100
0010
0100
0000
0001
0000
1000
0001
0010
0100
1000
0000
0100
0000
1000
0001
,
0100
0010
0100
0001
0010
0000
0100
1000
0010
0100
0001
0010
0001
0000
1000
0010
,
1000
0001
0100
0000
0001
0000
1000
0100
0010
0100
1000
0000
0001
0000
0100
0010
,
0100
0001
0100
0000
0010
0000
1000
0001
1000
0100
0010
0000
0001
0000
1000
0010
,
0100
0001
1000
0000
0001
0000
0010
0100
1000
0001
1000
0000
0100
0000
1000
0001
,
0100
0010
0100
0000
0001
0000
1000
0001
0010
0100
1000
0000
0010
0000
1000
0100
,
0010
0001
1000
0000
0001
0000
0100
0010
0100
0001
1000
0000
0001
0000
0010
0100
,
1000
0100
0010
0000
0001
0000
1000
0010
0100
0001
0100
0000
0010
0000
1000
0001
,
0010
0100
0010
0000
0001
0000
1000
0001
0100
0010
1000
0000
0010
0000
1000
0001
,
1000
0000
0001
0001
1000
0200
0320
0032
,
1003
0100
1000
0001
0010
0001
1000
0100
1000
0001
0100
0001
1000
0100
0010
0001
,
1000
0010
0100
0010
1000
0001
0100
0001
1000
0100
0010
0001
1000
0010
0100
0010
,
1000
0001
0010
0100
0010
0001
1000
0100
1000
0001
0100
0010
1000
0001
0010
0001
,
1000
0010
1000
0001
0100
0010
1000
0001
1000
0100
0010
0001
0100
0010
1000
0001
,
1000
0100
0010
0100
1000
0001
0010
0100
1000
0001
0100
0001
1000
0100
0010
0100
,
1000
0001
0100
0001
1000
0010
0100
0001
1000
0100
1000
0001
0100
0010
1000
0001
,
1000
0100
0010
0001
1000
0100
1000
0001
0100
0010
0100
0001
1000
0100
0010
0001
,
1000
0010
1000
0001
0100
0001
1000
0010
1000
0001
0010
0001
0100
0010
1000
0100
,
1000
0001
0100
0010
0100
0001
1000
0010
1000
0001
0010
0001
1000
0010
0100
0001
,
1000
0100
0010
0100
1000
0001
0010
0001
1000
0010
0100
0001
1000
0100
0010
0100
,
1000
0001
0100
0010
0100
0001
1000
0010
1000
0001
0010
0100
1000
0001
0100
0001
,
1000
0100
1000
0001
0010
0100
1000
0001
1000
0010
0100
0001
0010
0100
1000
0001
,
1000
0010
0100
0010
1000
0001
0100
0010
1000
0001
0010
0001
1000
0010
0100
0010
,
1000
0001
0010
0001
1000
0100
0010
0001
1000
0010
1000
0001
0010
0100
1000
0001
,
1000
0010
0100
0001
1000
0010
1000
0001
0010
0100
0010
0001
1000
0010
0100
0001
,
1000
0100
1000
0010
0100
0001
0010
0100
1000
0010
0100
0010
1000
0100
0010
0001
,
1000
0000
0000
0000
,
2000
3000
0000
0000
0000
0000
0000
0000
0000
0000
0000
0000
0000
0000
0000
0000
,
2000
3000
0000
0000
2000
3000
0000
0000
0010
0000
0000
0000
0100
0001
0010
0001
,
2000
3000
0000
0000
0000
0000
0000
0000
0000
0000
0000
0000
2000
3000
2000
3000
,
0002
0003
0000
0000
0000
0000
0000
0000
1000
0001
0100
0001
0010
0001
0100
0001
,
2000
3000
0000
0000
0000
0000
0000
0000
0000
0000
0000
0000
0000
0000
0000
0000
,
2000
3000
0000
0000
2000
3000
0000
0000
0100
0000
0000
0000
0010
0001
0100
0001
,
2000
3000
0000
0000
0000
0000
0000
0000
0000
0000
0000
0000
2000
3000
2000
3000
,
0002
0003
0000
0000
0000
0000
0000
0000
1000
0001
0010
0001
0100
0001
0010
0001
,
2000
3000
0000
0000
0000
0000
0000
0000
0000
0000
0000
0000
0000
0000
0000
0000
,
0002
0003
0000
0000
0002
0003
0000
0000
0100
0000
0000
0000
0010
1000
0100
1000
,
0002
0003
0000
0000
0000
0000
0000
0000
0000
0000
0000
0000
0002
0003
0002
0003
,
2000
3000
0000
0000
0000
0000
0000
0000
0001
1000
0010
1000
0100
1000
0010
1000
,
0002
0003
0000
0000
0000
0000
0000
0000
0000
0000
0000
0000
0000
0000
0000
0000
,
0002
0003
0000
0000
0002
0003
0000
0000
0010
0000
0000
0000
0100
1000
0010
1000
,
0002
0003
0000
0000
0000
0000
0000
0000
0000
0000
0000
0000
0002
0003
0002
0003
,
2000
3000
0000
0000
0000
0000
0000
0000
0001
1000
0100
1000
0010
1000
0100
1000
,
0002
0000
0000
0000
,
2000
3000
0000
0000
2000
3000
0000
0000
0103
0000
0000
0000
0001
0010
0001
0100
,
0002
0000
0000
0000
0000
0000
0000
0000
0023
0000
0000
0000
0200
0300
0200
0300
,
2030
0000
0000
0000
0000
0000
0000
0000
3001
0010
0001
0100
0001
1000
0001
0100
,
0002
0000
0000
0000
,
2000
3000
0000
0000
2000
3000
0000
0000
0013
0000
0000
0000
0001
0100
0001
0010
,
0002
0000
0000
0000
0000
0000
0000
0000
0000
0000
0000
0000
0200
0300
0200
0300
,
2003
0000
0000
0000
0000
0000
0000
3000
0001
0100
0001
0010
0001
1000
0001
0010
,
0002
0000
0000
0000
,
0203
0000
0000
0000
0020
0030
0000
0300
2000
0000
0000
0000
3001
1000
0100
1000
,
0002
0000
0000
0000
0000
0000
0000
0000
0000
0000
0000
0000
0020
0030
0020
0030
,
2003
0000
0000
0000
0000
0000
0000
0000
3001
1000
0010
1000
0100
1000
0010
1000
,
0002
0000
0000
0000
,
2000
3000
0000
0000
2000
3000
0000
0000
0103
0000
0000
0000
0001
1000
0100
1000
,
0002
0000
0000
0000
0000
0000
0000
0000
0000
0000
0000
0000
2000
3000
2000
3000
,
0020
0030
0000
0000
0003
0000
0000
0000
0001
1000
0100
1000
0010
1000
0100
1000
,
0002
0000
0000
0000
,
0000
0000
0000
0000
,
2003
0000
3020
0000
,
0230
0000
0302
0000
,
0023
0000
0000
0000
,
0000
0000
0000
0000
,
0230
0000
0000
0000
,
0000
0000
2300
3002
,
0203
0000
0000
0000
,
0302
0000
2003
0000
,
3200
0000
0000
0000
,
0320
0000
0000
0000
,
0031
1000
0100
0010
0001
1000
0001
0010
0100
1000
0001
0010
0001
1000
0100
1000
,
0001
0100
0001
1000
0100
0010
0100
1000
0001
0100
0010
1000
0001
0100
0001
1000
,
0100
0010
0001
1000
0100
1000
0001
0010
0001
1000
0100
1000
0001
0010
0001
0100
,
0001
1000
0010
0100
0010
1000
0001
1000
0100
0010
0001
1000
0100
1000
0001
0010
,
0002
0003
0000
0000
0000
0000
0000
0000
0000
0000
0000
0000
0002
0003
0002
0003
,
2000
3000
0000
0000
0000
0000
0000
0000
2000
3000
0000
0000
0000
0000
0000
0000
,
2000
3000
0000
0000
0000
0000
0000
0000
0000
0000
0000
0000
0000
0000
0000
0000
,
0000
0000
0000
0000
0000
0000
0000
0000
0001
0000
1000
0100
0010
0001
0100
0010
,
1000
0001
0100
0001
1000
0010
0100
0001
1000
0100
0010
0100
1000
0001
0100
0001
,
1000
0010
0100
0010
1000
0001
0100
0001
1000
0100
0010
0001
1000
0010
0100
0010
,
1000
0100
0010
0001
1000
0001
0010
0100
1000
0010
0100
0001
1000
0001
0100
0010
,
1000
0100
1000
0001
0010
0001
1000
0100
1000
0010
0100
0001
1000
0001
0100
0010
,
1000
0100
0010
0001
1000
0100
1000
0001
1000
0010
0100
0001
1000
0100
0010
0001
,
1000
0100
1000
0001
0010
0100
1000
0001
0100
0010
0100
0001
1000
0100
0010
0001
,
0100
0010
1000
0001
0100
0001
1000
0010
1000
0001
0010
0100
1000
0001
0100
0001
,
1000
0010
0100
0001
0010
0001
1000
0100
1000
0010
0100
0001
0010
0100
1000
0010
,
0100
0001
1000
0010
0100
0010
1000
0001
1000
0100
0010
0100
1000
0001
0100
0001
,
0010
0100
1000
0001
1000
0100
0010
0001
0100
0010
1000
0010
0100
0001
0100
0010
,
1000
0100
0010
0001
1000
0001
0010
0100
1000
0001
0100
0001
1000
0100
0010
0001
,
0100
0010
0100
0001
1000
0010
0100
0001
1000
0001
0010
0100
1000
0001
0100
0010
,
1000
0001
0010
0100
1000
0001
1000
0100
1000
0001
0100
0001
1000
0100
0010
0001
,
1000
0100
1000
0001
0010
0001
1000
0001
0100
0010
1000
0001
1000
0100
0010
0100
,
1000
0001
0010
0100
1000
0001
0010
0001
1000
0010
1000
0001
0010
0100
0010
0001
,
1000
0100
0010
0001
0100
0010
1000
0010
0100
0001
0010
0001
0100
0010
1000
0001
,
1000
0100
0010
0001
1000
0100
1000
0001
0100
0010
0100
0001
1000
0001
0010
0001
,
1000
0100
0010
0100
1000
0001
0010
0001
1000
0010
0100
0001
1000
0100
0010
0100
,
1000
0010
0100
0001
1000
0001
0100
0010
1000
0100
0010
0001
1000
0001
0010
0100
,
1000
0010
1000
0001
0100
0001
1000
0010
1000
0100
0010
0001
1000
0001
0010
0100
,
1000
0010
0100
0001
1000
0010
1000
0001
1000
0100
0010
0001
1000
0010
0100
0001
,
1000
0010
1000
0001
0100
0010
1000
0001
0010
0100
0010
0001
1000
0010
0100
0001
,
0010
0100
1000
0001
0010
0001
1000
0100
1000
0001
0100
0010
1000
0001
0010
0001
,
1000
0100
0010
0001
0100
0001
1000
0010
1000
0100
0010
0001
0100
0010
1000
0100
,
0010
0001
1000
0100
0010
0100
1000
0001
1000
0010
0100
0010
1000
0001
0010
0001
,
0100
0010
1000
0001
1000
0010
0100
0001
0010
0100
1000
0100
0010
0001
0010
0100
,
1000
0010
0100
0001
1000
0001
0100
0010
1000
0001
0010
0001
1000
0010
0100
0001
,
0010
0100
0010
0001
1000
0100
0010
0001
1000
0001
0100
0010
1000
0001
0010
0100
,
1000
0001
0100
0010
1000
0001
1000
0010
1000
0001
0010
0001
1000
0010
0100
0001
,
1000
0010
1000
0001
0100
0001
1000
0001
0010
0100
1000
0001
1000
0010
0100
0010
,
1000
0001
0100
0010
1000
0001
0100
0001
1000
0100
1000
0001
0100
0010
0100
0001
,
1000
0010
1000
0100
0010
0001
1000
0100
1000
0001
0100
0001
0010
0100
1000
0001
,
1000
0010
0100
0001
0100
0010
1000
0001
0010
0100
0010
0001
1000
0010
0100
0010
,
1000
0001
0100
0001
1000
0010
1000
0001
0010
0100
1000
0001
1000
0010
0100
0010
,
1000
0100
0010
0001
1000
0001
0010
0100
1000
0010
0100
0010
1000
0001
0100
0001
,
0010
0100
1000
0001
0010
0001
1000
0100
1000
0010
0100
0001
1000
0001
0100
0010
,
1000
0100
0010
0001
1000
0100
1000
0001
0100
0010
0100
0001
1000
0100
0010
0001
,
1000
0100
0010
0100
1000
0001
0010
0100
1000
0001
0100
0001
1000
0100
0010
0001
,
0100
0010
1000
0001
0100
0001
1000
0010
1000
0001
0010
0001
1000
0010
0100
0001
,
0100
0010
1000
0100
1000
0001
0010
0001
0100
0010
1000
0001
1000
0010
0100
0001
,
0010
0100
1000
0001
1000
0100
0010
0001
1000
0010
1000
0001
0010
0100
0010
0001
,
0100
0010
1000
0010
0100
0001
0100
0010
1000
0100
0010
0001
1000
0100
0010
0100
,
1000
0010
0100
0001
0100
0010
1000
0001
0010
0100
1000
0001
1000
0010
0100
0001
,
0010
0100
1000
0001
1000
0100
0010
0001
1000
0010
0100
0010
1000
0001
0010
0100
,
1000
0010
0100
0001
1000
0010
1000
0001
0010
0100
0010
0001
1000
0010
0100
0001
,
0100
0010
1000
0001
0100
0010
0100
0001
1000
0100
0010
0001
1000
0010
0100
0001
,
1000
0010
1000
0001
0100
0001
1000
0010
1000
0001
0010
0001
1000
0010
1000
0001
,
1000
0010
0100
0001
0010
0100
0010
0001
0100
0010
1000
0100
1000
0001
0100
0010
,
1000
0100
0010
0001
0010
0100
1000
0001
0100
0010
0100
0001
1000
0100
0010
0100
,
1000
0001
0010
0001
1000
0100
1000
0001
0100
0010
1000
0001
1000
0100
0010
0100
,
1000
0010
0100
0001
1000
0001
0100
0010
1000
0100
0010
0100
1000
0001
0010
0001
,
0100
0010
1000
0001
0100
0001
1000
0010
1000
0100
0010
0001
1000
0001
0010
0100
,
1000
0010
0100
0001
1000
0010
1000
0001
0010
0100
0010
0001
1000
0010
0100
0001
,
1000
0010
0100
0010
1000
0001
0100
0010
1000
0001
0010
0001
1000
0010
0100
0001
,
0010
0100
1000
0001
0010
0001
1000
0100
1000
0001
0100
0001
1000
0100
0010
0001
,
0010
0100
1000
0010
1000
0001
0100
0001
0010
0100
1000
0001
1000
0100
0010
0001
,
0100
0010
1000
0001
1000
0010
0100
0001
1000
0100
1000
0001
0100
0010
0100
0001
,
0010
0100
1000
0100
0010
0001
0010
0100
1000
0010
0100
0001
1000
0010
0100
0010
,
1000
0100
0010
0001
0010
0100
1000
0001
0100
0010
1000
0001
1000
0100
0010
0001
,
0100
0010
1000
0001
1000
0010
0100
0001
1000
0100
0010
0100
1000
0001
0100
0010
,
1000
0100
0010
0001
1000
0100
1000
0001
0100
0010
0100
0001
1000
0010
1000
0001
,
0010
0100
1000
0001
0010
0100
0010
0001
1000
0010
0100
0001
1000
0001
0100
0010
,
1000
0100
1000
0001
0010
0001
1000
0100
1000
0010
0100
0010
1000
0001
0100
0001
,
0010
0100
0010
0001
1000
0100
0010
0001
0100
0010
0100
0001
1000
0010
1000
0001
,
1000
0100
0010
0000
0001
1000
0100
1000
0001
0100
0010
0000
1000
0000
0001
0100
,
0010
1000
0010
0000
0100
0001
0100
0010
1000
0001
0010
0000
0100
0000
1000
0001
,
0010
0100
0010
0000
0001
1000
0100
1000
0001
0100
0001
0000
1000
0000
0010
0100
,
0001
1000
0001
0000
1000
0010
0100
0001
1000
0100
1000
0000
0010
0000
1000
0000
,
0001
0010
0001
0000
1000
0100
0010
0100
1000
0001
0100
0000
0001
0000
1000
0010
,
0100
0001
0100
0000
0001
1000
0010
0100
0001
1000
0100
0000
0010
0000
0001
0010
,
0100
1000
0100
0000
0010
0001
1000
0100
1000
0001
0100
0000
0010
0000
1000
0001
,
0100
0001
1000
0000
0010
0100
0001
1000
0100
0010
0001
1000
0100
1000
0010
0100
,
0001
0100
0010
0000
1000
0001
0100
0001
1000
0100
0010
0000
0001
0000
1000
0100
,
0010
0001
0010
0000
0100
1000
0100
0010
0001
1000
0010
0000
0100
0000
0001
1000
,
0010
0100
0010
0000
1000
0001
0100
0001
1000
0100
1000
0000
0001
0000
0010
0100
,
1000
0001
1000
0000
0001
0010
0100
1000
0001
0100
0001
0000
0010
0000
0001
0000
,
1000
0010
1000
0000
0001
0100
0010
0100
0001
1000
0100
0000
1000
0000
0001
0010
,
0100
1000
0100
0000
1000
0001
0010
0100
1000
0001
0100
0000
0010
0000
1000
0010
,
0100
0001
0100
0000
0010
1000
0001
0100
0001
1000
0100
0000
0010
0000
0001
1000
,
0001
0000
0000
0001
0000
0000
1000
0000
0010
0000
0100
0000
0001
0000
0010
0000
,
0001
0100
0001
1000
0010
1000
0001
0100
0001
1000
0100
1000
0001
0100
0010
1000
,
0001
0010
0100
0010
0001
1000
0100
1000
0001
0100
0010
1000
0001
0010
0100
0010
,
0001
1000
0010
0100
0010
1000
0001
0100
0001
1000
0100
0010
0001
1000
0010
1000
,
0001
0010
0001
1000
0100
0010
0001
1000
0001
0100
0010
1000
0100
0010
0001
1000
,
0001
0100
0010
0100
0001
1000
0010
0100
0001
1000
0100
1000
0001
0100
0010
0100
,
0001
1000
0100
1000
0001
0010
0100
1000
0001
0100
0001
1000
0100
0010
0001
1000
,
0001
0100
0010
1000
0001
0100
0001
1000
0100
0010
0100
1000
0001
0100
0010
1000
,
0001
0010
0001
0100
0010
1000
0001
0100
0001
0010
0100
1000
0010
0100
0010
1000
,
0001
1000
0100
0010
0100
1000
0001
0010
0001
1000
0010
1000
0001
0010
0100
1000
,
0001
0100
0010
0100
0001
1000
0010
1000
0001
0010
0100
1000
0001
0100
0010
0100
,
0001
1000
0100
0010
0100
1000
0001
0010
0001
1000
0010
0100
0001
1000
0100
1000
,
0001
0100
0001
1000
0010
0100
0001
1000
0001
0010
0100
1000
0010
0100
0001
1000
,
0001
0010
0100
0010
0001
1000
0100
0010
0001
1000
0010
1000
0001
0010
0100
0010
,
0001
1000
0010
1000
0001
0100
0010
1000
0001
0010
0001
1000
0010
0100
0001
1000
,
0001
0010
0100
1000
0001
0010
0001
1000
0010
0100
0010
1000
0001
0010
0100
1000
,
0001
0100
0001
0010
0100
1000
0010
0100
0001
0010
0100
0010
0001
0100
0010
1000
,
0100
0010
0001
1000
0100
1000
0001
0010
0001
1000
0010
1000
0001
0010
0100
1000
,
0001
0010
0001
1000
0100
0010
0001
1000
0001
0100
0010
1000
0001
0010
0100
1000
,
0010
0100
0001
0100
0010
1000
0001
0100
0001
1000
0100
0010
0001
1000
0010
0100
,
0001
1000
0001
0100
0010
0100
0001
1000
0100
0010
0001
1000
0001
0100
0010
1000
,
0100
0010
0001
1000
0100
1000
0001
0010
0001
1000
0010
1000
0001
0010
0100
0010
,
0001
1000
0100
0010
0100
1000
0001
0010
0001
1000
0010
0100
0001
1000
0100
0010
,
0001
0100
0010
1000
0001
0100
0001
1000
0100
0010
0100
1000
0001
0100
0010
0100
,
0001
1000
0100
0010
0001
0100
0010
1000
0100
1000
0010
0100
0001
0100
0010
1000
,
0100
0010
0001
1000
0001
0010
0100
0010
0001
1000
0010
1000
0001
0010
0100
1000
,
0001
0010
0001
1000
0100
0010
0100
1000
0001
0100
0010
1000
0001
0010
0100
1000
,
0010
0100
0001
0100
0010
1000
0001
0100
0001
1000
0100
0010
0001
1000
0010
0100
,
0001
0100
0010
1000
0001
0100
0001
1000
0100
0010
0100
1000
0001
0100
0010
1000
,
0100
0010
0001
1000
0001
0010
0100
1000
0001
0100
0001
1000
0100
0010
0100
1000
,
0001
0010
0100
1000
0001
0010
0100
0010
0001
1000
0010
1000
0001
0010
0100
1000
,
0010
0100
0001
1000
0010
1000
0001
0100
0001
1000
0100
0010
0001
1000
0010
0100
,
0001
0100
0010
1000
0100
0010
0001
0100
0010
1000
0001
0100
0001
0010
0100
1000
,
0010
0100
0001
1000
0010
1000
0001
0100
0001
1000
0100
1000
0001
0100
0010
1000
,
0001
0100
0001
1000
0010
0100
0001
1000
0001
0010
0100
1000
0001
0100
0010
1000
,
0100
0010
0001
0010
0100
1000
0001
0010
0001
1000
0010
0100
0001
1000
0100
0010
,
0001
1000
0001
0010
0100
0010
0001
1000
0010
0100
0001
1000
0001
0010
0100
1000
,
0010
0100
0001
1000
0010
1000
0001
0100
0001
1000
0100
1000
0001
0100
0010
0100
,
0001
1000
0010
0100
0010
1000
0001
0100
0001
1000
0100
0010
0001
1000
0010
0100
,
0001
0010
0100
1000
0001
0010
0001
1000
0010
0100
0010
1000
0001
0010
0100
0010
,
0001
1000
0010
0100
0001
0010
0100
1000
0010
1000
0100
0010
0001
0010
0100
1000
,
0010
0100
0001
1000
0001
0100
0010
0100
0001
1000
0100
1000
0001
0100
0010
1000
,
0001
0100
0001
1000
0010
0100
0010
1000
0001
0010
0100
1000
0001
0100
0010
1000
,
0100
0010
0001
0010
0100
1000
0001
0010
0001
1000
0010
0100
0001
1000
0100
0010
,
0001
0010
0100
1000
0001
0010
0001
1000
0010
0100
0010
1000
0001
0010
0100
1000
,
0010
0100
0001
1000
0001
0100
0010
1000
0001
0010
0001
1000
0010
0100
0010
1000
,
0001
0100
0010
1000
0001
0100
0010
0100
0001
1000
0100
1000
0001
0100
0010
1000
,
0100
0010
0001
1000
0100
1000
0001
0010
0001
1000
0010
0100
0001
1000
0100
0010
,
0001
0010
0100
1000
0010
0100
0001
0010
0100
1000
0001
0010
0001
1000
0010
0100
,
0001
0010
0100
1000
0100
0010
0001
1000
0010
0100
0010
1000
0001
0010
0100
0010
,
0001
1000
0100
1000
0001
0010
0001
1000
0010
0100
0001
1000
0001
0010
0100
0010
,
0001
0100
0010
1000
0001
1000
0010
0100
0001
0010
0100
0010
0001
1000
0100
1000
,
0010
0100
0001
1000
0010
1000
0001
0100
0001
0010
0100
1000
0001
1000
0100
0010
,
0001
0100
0010
1000
0001
0100
0001
1000
0100
0010
0100
1000
0001
0100
0010
1000
,
0001
0100
0010
0100
0001
1000
0010
0100
0001
1000
0100
1000
0001
0100
0010
1000
,
0100
0010
0001
1000
0100
1000
0001
0010
0001
1000
0010
1000
0001
0010
0100
1000
,
0100
0010
0001
0100
0001
1000
0010
1000
0100
0010
0001
1000
0001
0010
0100
1000
,
0010
0100
0001
1000
0001
0100
0010
1000
0001
0010
0001
1000
0010
0100
0010
1000
,
0100
0010
0001
0010
0100
1000
0100
0010
0001
0100
0010
1000
0001
0100
0010
0100
,
0001
0010
0100
1000
0100
0010
0001
1000
0010
0100
0001
1000
0001
0010
0100
1000
,
0010
0100
0001
1000
0001
0100
0010
1000
0001
0010
0100
0010
0001
1000
0010
0100
,
0001
0010
0100
1000
0001
0010
0001
1000
0010
0100
0010
1000
0001
0010
0100
1000
,
0100
0010
0001
1000
0100
0010
0100
1000
0001
0100
0010
1000
0001
0010
0100
1000
,
0001
0010
0001
1000
0100
1000
0001
0010
0001
1000
0010
1000
0001
0010
0001
1000
,
0001
0010
0100
1000
0010
0100
0010
1000
0100
0010
0001
0100
0001
1000
0100
0010
,
0001
0100
0010
1000
0010
0100
0001
1000
0100
0010
0100
1000
0001
0100
0010
0100
,
0001
1000
0010
1000
0001
0100
0001
1000
0100
0010
0001
1000
0001
0100
0010
0100
,
0001
0010
0100
1000
0001
1000
0100
0010
0001
0100
0010
0100
0001
1000
0010
1000
,
0100
0010
0001
1000
0100
1000
0001
0010
0001
0100
0010
1000
0001
1000
0010
0100
,
0001
0010
0100
1000
0001
0010
0001
1000
0010
0100
0010
1000
0001
0010
0100
1000
,
0001
0010
0100
0010
0001
1000
0100
0010
0001
1000
0010
1000
0001
0010
0100
1000
,
0010
0100
0001
1000
0010
1000
0001
0100
0001
1000
0100
1000
0001
0100
0010
1000
,
0010
0100
0001
0010
0001
1000
0100
1000
0010
0100
0001
1000
0001
0100
0010
1000
,
0100
0010
0001
1000
0001
0010
0100
1000
0001
0100
0001
1000
0100
0010
0100
1000
,
0010
0100
0001
0100
0010
1000
0010
0100
0001
0010
0100
1000
0001
0010
0100
0010
,
0001
0100
0010
1000
0010
0100
0001
1000
0100
0010
0001
1000
0001
0100
0010
1000
,
0100
0010
0001
1000
0001
0010
0100
1000
0001
0100
0010
0100
0001
1000
0100
0010
,
0001
0100
0010
1000
0001
0100
0001
1000
0100
0010
0100
1000
0001
0010
0001
1000
,
0010
0100
0001
1000
0010
0100
0010
1000
0001
0010
0100
1000
0001
1000
0100
0010
,
0001
0100
0001
1000
0010
1000
0001
0100
0001
0010
0100
0010
0001
1000
0100
1000
,
0010
0100
0010
1000
0001
0100
0010
1000
0100
0010
0100
1000
0001
0010
0001
1000
,
0001
0010
0100
1000
0001
0010
0001
1000
0010
0100
0010
1000
0001
0100
0001
1000
,
0100
0010
0001
1000
0100
0010
0100
1000
0001
0100
0010
1000
0001
1000
0010
0100
,
0001
0010
0001
1000
0100
1000
0001
0010
0001
0100
0010
0100
0001
1000
0010
1000
,
0100
0010
0100
1000
0001
0010
0100
1000
0010
0100
0010
1000
0001
0100
0001
1000
,
0200
0000
0000
0000
,
0000
0000
0000
0000
,
0000
0000
0000
0000
,
0300
0000
0000
0000
;
