#TITLE:Happy Happy Shining Star!!;
#SUBTITLE:;
#ARTIST:Rainy;
#TITLETRANSLIT:;
#SUBTITLETRANSLIT:;
#ARTISTTRANSLIT:;
#CREDIT:;
#BANNER:Happy Happy Shining Star-bn.png;
#BACKGROUND:Happy Happy Shining Star-bg.png;
#LYRICSPATH:;
#CDTITLE:!Dan23!.png;
#MUSIC:Happy Happy Shining Star!!.mp3;
#OFFSET:-0.120;
#SAMPLESTART:68.420;
#SAMPLELENGTH:12.000;
#SELECTABLE:YES;
#BPMS:0.000=200.000;
#STOPS:;
#BGCHANGES:;
// cache tags:
#FIRSTBEAT:20.000;
#LASTBEAT:293.500;
#SONGFILENAME:Songs/Fabulously Fresh Flock of Fantastic Files F5/(Dan23) Happy Happy Shining Star!!/Happy Happy Shining Star!!.sm;
#HASMUSIC:1;
#HASBANNER:1;
#MUSICLENGTH:91.287;
// end cache tags

//---------------dance-single - ----------------
#NOTES:
     dance-single:
     :
     Hard:
     12:
     1.000,1.000,1.000,0.011,0.646,646.000,233.000,1.000,0.000,0.000:
0000
0000
0000
0000
,
0000
0000
0000
0000
,
0000
0000
0000
0000
,
0000
0000
0000
0000
,
0000
0000
0000
0000
,
1001
1100
0010
0101
1000
0110
1000
0101
,
1010
1001
0100
0110
0001
1100
0001
0110
,
1100
0110
0001
1100
0010
1001
0100
1010
,
1001
0100
0010
1000
0100
0010
0001
0010
0100
1000
0010
0100
0001
1000
0010
0100
,
1001
0100
1001
0001
0110
0001
0110
1000
,
0101
1000
0101
0010
1100
0001
1000
0001
,
0110
0100
0110
0001
1100
0010
1100
0001
,
0101
0010
0101
0010
1001
0110
0110
0110
,
1100
0100
1100
0001
0101
0001
0101
1000
,
0110
1000
0110
0001
0011
0100
0010
1000
,
0101
0001
0101
1000
1010
1000
1010
0001
,
0101
1000
0010
0100
0001
0010
0100
1000
0100
0010
0001
0100
0010
1000
0001
0010
,
1100
0001
1100
0001
0101
0001
0101
1000
,
0110
1000
0110
0001
1001
1000
0010
0100
,
1001
0100
1001
0010
0101
0010
0101
1000
,
0011
1000
0011
1000
1001
0110
0110
0110
,
1001
0100
1001
0010
0101
0010
1100
0010
,
1001
0100
0101
1000
1100
0001
0110
1000
,
1001
0100
1001
0010
1001
0100
1001
0010
,
1001
0100
0010
1000
0001
0010
0100
1000
0001
0100
0010
1000
0001
0010
0100
1000
,
0101
1000
1100
0001
0100
0010
1000
0101
,
0010
0110
1001
0010
1100
0010
0101
1001
,
1000
0110
0101
0010
1100
0010
0101
1100
,
0010
0101
1001
1000
0010
0100
0001
0010
,
1100
1001
0101
1000
0010
1000
0100
1001
,
0010
1100
0011
0100
1100
0010
1100
0101
,
0010
1001
0110
0001
1010
0001
0101
1100
,
0010
0000
0101
0000
1001
0000
0100
0000
0001
0010
0100
1000
0001
0100
0010
0100
,
1001
0010
0100
0001
0100
0010
1000
0001
0010
0100
1000
0010
0100
0001
1000
0010
,
0100
0001
0010
0100
1000
0010
0100
0001
1000
0010
0100
0001
0010
0100
1000
0001
,
0100
0010
1000
0010
0100
0001
0010
0100
1000
0010
0100
0001
1000
0100
0010
0100
,
1000
0100
0010
0001
0100
0010
1000
0100
0010
0001
0010
0100
1000
0010
0100
0001
,
1001
0100
0010
1000
0001
0100
0010
0100
0001
0010
0001
0100
0001
1000
0010
0100
,
1001
0010
0100
0001
0100
0010
1000
0100
0010
0001
0010
0100
1000
0010
0100
0001
,
1100
0010
0101
0010
1001
0100
1001
0010
,
0101
1000
0010
0100
0001
0010
0100
1000
0001
0100
0010
0100
0001
0010
0100
0010
,
1001
0000
0110
0000
0101
0101
0000
1100
,
0000
0000
1001
0000
1001
0000
0000
0000
0001
1000
0001
1000
0001
0000
0100
0010
,
1000
0000
0101
0000
1001
1001
0000
0110
,
0000
0000
1010
0000
0101
0000
0000
0000
1000
0001
1000
0001
1000
0000
0110
0001
,
1100
0000
1100
0000
0101
1001
0000
0110
,
1001
0000
1100
0000
0101
0000
0000
0000
0010
0100
0010
0100
0010
0000
0110
0001
,
1100
0000
1100
0101
1001
0110
0000
1010
,
1001
0000
0110
0000
1001
0000
0100
0000
0001
1000
0001
1000
0001
0000
1100
0000
,
1001
0010
1001
0010
1100
0010
1100
0001
,
1001
1000
1001
0100
1010
0001
0100
0010
,
1100
0010
1100
0010
0101
0010
0101
1000
,
1001
0001
1001
0100
0110
1000
0010
0100
,
1001
0100
1001
0100
1010
0100
1010
0001
,
1001
0100
1001
0010
0101
0010
0101
0010
,
1001
0100
1001
0010
1001
0100
1001
0010
,
1100
0010
0100
0001
0010
0100
0010
0001
0100
0010
0100
0001
1000
0100
0010
0100
,
1001
0100
1001
0010
1100
0010
1100
0001
,
0101
0001
0101
1000
1001
0010
0100
0010
,
1100
0001
1100
0010
0101
0010
0101
1000
,
1001
0001
1001
0100
0110
1100
1100
1100
,
1001
0001
1001
0100
0110
0100
0110
1000
,
1010
1000
1010
0001
0011
1000
0010
0100
,
0011
0100
0011
1000
0110
1000
0110
0001
,
1010
0100
0001
0010
0100
1000
0010
0100
0001
1000
0100
0010
0001
1000
0100
0010
,
1001
0100
1001
0100
1010
0100
1010
0001
,
0101
0010
0101
0010
1100
0001
0100
0010
,
1100
0010
1100
0001
0011
0100
0011
1000
,
0101
1000
0101
1000
1001
0110
0110
0110
,
1001
0100
1010
0001
0101
1000
1100
0010
,
1001
0100
0101
1000
1010
0001
0011
0100
,
1001
0010
1001
1000
0110
0001
0110
1000
,
0101
1000
0010
0100
0001
0010
0100
1000
0100
0010
0001
0100
0010
1000
0002
0000
,
0000
0000
0000
0003
0000
0000
0000
0000
;
